osu file format v14

[General]
AudioFilename: audio.mp3
AudioLeadIn: 0
PreviewTime: 50713
Countdown: 0
SampleSet: Soft
StackLeniency: 0.4
Mode: 0
LetterboxInBreaks: 0
WidescreenStoryboard: 0

[Editor]
DistanceSpacing: 1
BeatDivisor: 4
GridSize: 32
TimelineZoom: 1

[Metadata]
Title:About You (feat. Luna)
TitleUnicode:About You (feat. Luna)
Artist:Lexurus
ArtistUnicode:Lexurus
Creator:Niva
Version:Insane
Source:osu!
Tags:maartje keijzer high tea music static groove featured artist mappers' guild
BeatmapID:1885229
BeatmapSetID:903055

[Difficulty]
HPDrainRate:7
CircleSize:4.5
OverallDifficulty:7
ApproachRate:9
SliderMultiplier:1.4
SliderTickRate:1

[Events]
//Background and Video events
0,0,"undefined.jpg",0,0
//Break Periods
//Storyboard Layer 0 (Background)
//Storyboard Layer 1 (Fail)
//Storyboard Layer 2 (Pass)
//Storyboard Layer 3 (Foreground)
//Storyboard Sound Samples

[TimingPoints]
159,324.324324324324,4,2,77,100,1,0
7942,-100,4,2,77,40,0,0
8267,-100,4,2,77,42,0,0
8591,-100,4,2,77,44,0,0
8915,-100,4,2,77,46,0,0
9240,-100,4,2,77,48,0,0
9564,-100,4,2,77,50,0,0
9888,-100,4,2,77,52,0,0
10050,-100,4,2,77,55,0,0
10537,-142.857142857143,4,2,77,50,0,0
11510,-125,4,2,77,50,0,0
13050,-125,4,2,77,20,0,0
13131,-142.857142857143,4,2,77,50,0,0
13942,-125,4,2,77,50,0,0
15645,-125,4,2,77,20,0,0
15726,-142.857142857143,4,2,77,50,0,0
16537,-125,4,2,77,50,0,0
18240,-125,4,2,77,20,0,0
18321,-142.857142857143,4,2,77,50,0,0
19456,-125,4,2,77,50,0,0
20834,-125,4,2,77,20,0,0
20915,-142.857142857143,4,2,77,50,0,0
21888,-125,4,2,77,50,0,0
26023,-125,4,2,77,20,0,0
26104,-142.857142857143,4,2,77,50,0,0
27077,-125,4,2,77,50,0,0
28618,-125,4,2,77,20,0,0
28699,-142.857142857143,4,2,77,50,0,0
29672,-125,4,2,77,50,0,0
31375,-125,4,2,77,30,0,0
36158,-133.333333333333,4,2,78,40,0,0
41672,-125,4,2,78,50,0,0
44267,-111.111111111111,4,2,78,50,0,0
46861,-100,4,2,78,50,0,0
50104,-100,4,2,78,45,0,0
50429,-100,4,2,78,40,0,0
50753,-200,4,2,78,30,0,0
51077,-200,4,2,78,35,0,0
51321,-200,4,2,78,40,0,0
51564,-200,4,2,78,45,0,0
52050,-71.4285714285714,4,2,79,70,0,1
52699,-200,4,2,79,70,0,1
53672,-71.4285714285714,4,2,79,70,0,1
55294,-200,4,2,79,70,0,1
56267,-71.4285714285714,4,2,79,70,0,1
57888,-200,4,2,79,70,0,1
58861,-71.4285714285714,4,2,79,70,0,1
59834,-71.4285714285714,4,2,79,70,0,1
63077,-200,4,2,79,70,0,1
64050,-71.4285714285714,4,2,79,70,0,1
65672,-200,4,2,79,70,0,1
66645,-71.4285714285714,4,2,79,70,0,1
68267,-200,4,2,79,70,0,1
69240,-71.4285714285714,4,2,79,70,0,1
70213,-71.4285714285714,4,2,79,70,0,1
71834,-71.4285714285714,4,2,79,70,0,0
72726,-71.4285714285714,4,2,79,20,0,0
72807,-71.4285714285714,4,2,79,70,0,1
73456,-200,4,2,79,70,0,1
74429,-71.4285714285714,4,2,79,70,0,1
76050,-200,4,2,79,70,0,1
77023,-71.4285714285714,4,2,79,70,0,1
77915,-71.4285714285714,4,2,79,20,0,1
77996,-71.4285714285714,4,2,79,70,0,1
78645,-200,4,2,79,70,0,1
79618,-71.4285714285714,4,2,79,70,0,1
83104,-71.4285714285714,4,2,79,20,0,1
83186,-71.4285714285714,4,2,79,70,0,1
83834,-200,4,2,79,70,0,1
84807,-71.4285714285714,4,2,79,70,0,1
86429,-200,4,2,79,70,0,1
87402,-71.4285714285714,4,2,79,70,0,1
88294,-71.4285714285714,4,2,79,20,0,1
88375,-71.4285714285714,4,2,79,70,0,1
89023,-200,4,2,79,70,0,1
89996,-71.4285714285714,4,2,79,70,0,1
92104,-83.3333333333333,4,2,79,70,0,1
92429,-100,4,2,79,70,0,1
92591,-100,4,2,79,63,0,1
92753,-125,4,2,79,63,0,1
93077,-125,4,2,79,56,0,1
93402,-125,4,2,79,50,0,1
93564,-166.666666666667,4,2,77,50,0,0
94375,-125,4,2,77,50,0,0
96077,-125,4,2,77,20,0,0
96158,-142.857142857143,4,2,77,50,0,0
97131,-125,4,2,77,50,0,0
98672,-125,4,2,77,20,0,0
98753,-142.857142857143,4,2,77,50,0,0
99564,-125,4,2,77,50,0,0
101267,-125,4,2,77,20,0,0
101348,-142.857142857143,4,2,77,50,0,0
102240,-125,4,2,77,50,0,0
103861,-125,4,2,77,20,0,0
103942,-142.857142857143,4,2,77,50,0,0
105240,-125,4,2,77,50,0,0
109050,-125,4,2,77,20,0,0
109131,-142.857142857143,4,2,77,50,0,0
110267,-125,4,2,77,50,0,0
111645,-125,4,2,77,20,0,0
111726,-142.857142857143,4,2,77,50,0,0
112861,-125,4,2,77,50,0,0
114402,-125,4,2,77,30,0,0
119186,-133.333333333333,4,2,78,40,0,0
124699,-125,4,2,78,50,0,0
127294,-111.111111111111,4,2,78,50,0,0
129888,-100,4,2,78,50,0,0
133131,-100,4,2,78,45,0,0
133456,-100,4,2,78,40,0,0
133780,-200,4,2,78,30,0,0
134104,-200,4,2,78,35,0,0
134348,-200,4,2,78,40,0,0
134591,-200,4,2,78,45,0,0
135077,-71.4285714285714,4,2,79,70,0,1
135726,-200,4,2,79,70,0,1
136699,-71.4285714285714,4,2,79,70,0,1
138321,-200,4,2,79,70,0,1
139294,-71.4285714285714,4,2,79,70,0,1
140915,-200,4,2,79,70,0,1
141888,-71.4285714285714,4,2,79,70,0,1
146104,-200,4,2,79,70,0,1
147077,-71.4285714285714,4,2,79,70,0,1
148699,-200,4,2,79,70,0,1
149672,-71.4285714285714,4,2,79,70,0,1
151294,-200,4,2,79,70,0,1
152267,-71.4285714285714,4,2,79,70,0,1
154861,-71.4285714285714,4,2,79,70,0,0
155753,-71.4285714285714,4,2,79,20,0,0
155834,-71.4285714285714,4,2,79,70,0,1
156483,-200,4,2,79,70,0,1
157456,-71.4285714285714,4,2,79,70,0,1
159077,-200,4,2,79,70,0,1
160050,-71.4285714285714,4,2,79,70,0,1
160942,-71.4285714285714,4,2,79,20,0,1
161023,-71.4285714285714,4,2,79,70,0,1
161672,-200,4,2,79,70,0,1
162645,-71.4285714285714,4,2,79,70,0,1
166131,-71.4285714285714,4,2,79,20,0,1
166213,-71.4285714285714,4,2,79,70,0,1
166861,-200,4,2,79,70,0,1
167834,-71.4285714285714,4,2,79,70,0,1
169456,-200,4,2,79,70,0,1
170429,-71.4285714285714,4,2,79,70,0,1
171321,-71.4285714285714,4,2,79,20,0,1
171402,-71.4285714285714,4,2,79,70,0,1
172050,-200,4,2,79,70,0,1
173023,-71.4285714285714,4,2,79,70,0,1
175131,-83.3333333333333,4,2,79,70,0,1
175618,-100,4,2,79,63,0,1
176104,-125,4,2,79,56,0,1
176591,-166.666666666667,4,2,79,50,0,0

[Colours]
Combo1 : 255,253,174
Combo2 : 151,255,255
Combo3 : 43,253,190

[HitObjects]
256,192,7942,12,2,10050,0:0:0:0:
68,46,10537,6,0,P|126:122|226:123,1,195.999994018555,4|8,1:2|0:0,0:0:0:0:
340,200,11348,1,0,0:0:0:0:
340,200,11510,2,0,L|277:200,1,56,2|0,0:0|1:2,0:0:0:0:
429,87,11834,6,0,L|427:157,1,56,2|0,0:0|0:2,0:0:0:0:
425,257,12158,2,0,L|423:328,1,56,2|0,1:2|0:0,0:0:0:0:
498,193,12483,1,10,0:0:0:0:
357,205,12645,1,2,0:0:0:0:
215,216,12807,2,0,L|130:217,1,84,2|0,0:0|0:0,0:0:0:0:
105,217,13131,6,0,P|185:169|167:76,1,195.999994018555,0|8,1:2|0:0,0:0:0:0:
30,22,13942,1,0,0:0:0:0:
30,22,14104,2,0,L|34:95,1,56,2|0,0:0|1:2,0:0:0:0:
0,240,14429,6,0,P|44:218|110:219,1,112,2|2,0:0|1:2,0:0:0:0:
263,248,14915,1,0,0:0:0:0:
181,255,15077,1,10,0:0:0:0:
328,194,15240,1,2,0:0:0:0:
177,162,15402,2,0,L|172:77,1,84,2|0,0:0|0:0,0:0:0:0:
157,50,15726,6,0,B|223:48|223:48|280:70|280:70|356:67,1,195.999994018555,0|8,1:2|0:0,0:0:0:0:
437,185,16537,1,0,0:0:0:0:
437,185,16699,2,0,L|426:128,1,56,2|0,0:0|1:2,0:0:0:0:
490,250,17023,6,0,P|444:235|379:244,1,112,2|2,0:0|1:2,0:0:0:0:
269,184,17510,1,0,0:0:0:0:
297,269,17672,1,10,0:0:0:0:
356,156,17834,1,2,0:0:0:0:
238,77,17996,2,0,L|150:77,1,84,2|0,0:0|0:0,0:0:0:0:
147,46,18321,6,0,P|109:129|7:144,1,195.999994018555,0|8,1:2|0:0,0:0:0:0:
13,146,19456,1,0,1:2:0:0:
13,146,19618,6,0,L|18:211,1,56,2|0,0:0|0:0,0:0:0:0:
25,313,19942,2,0,L|29:380,1,56,2|0,1:2|0:0,0:0:0:0:
110,247,20267,1,10,0:0:0:0:
234,257,20429,1,2,0:0:0:0:
359,267,20591,2,0,L|445:268,1,84,2|0,0:0|0:0,0:0:0:0:
470,279,20915,6,0,P|487:195|414:117,1,195.999994018555,0|8,1:2|0:0,0:0:0:0:
418,118,22050,1,0,1:2:0:0:
418,118,22213,6,0,P|370:147|309:144,1,112,2|0,0:0|1:2,0:0:0:0:
187,246,22699,2,0,B|217:243|240:235|240:235|264:243|297:247,1,112,2|0,0:0|0:0,0:0:0:0:
159,147,23186,2,0,L|103:147,1,56,2|0,0:0|0:0,0:0:0:0:
193,24,23510,5,0,1:2:0:0:
193,24,23672,2,0,P|144:49|76:52,1,112,2|0,0:0|0:0,0:0:0:0:
23,161,24158,2,0,P|22:254|88:313,1,168,10|0,0:0|1:2,0:0:0:0:
70,305,25131,6,0,L|-5:306,1,56,2|0,1:2|0:0,0:0:0:0:
166,282,25456,1,10,0:0:0:0:
266,309,25618,1,2,0:0:0:0:
376,280,25780,2,0,P|390:320|378:364,1,84,2|0,0:0|0:0,0:0:0:0:
361,384,26104,6,0,P|356:278|351:184,1,195.999994018555,0|8,1:2|0:0,0:0:0:0:
351,188,27240,6,0,P|312:226|252:231,1,112,0|0,1:2|0:0,0:0:0:0:
176,338,27726,2,0,P|152:353|134:375,1,56,2|0,1:2|0:0,0:0:0:0:
180,203,28050,1,10,0:0:0:0:
256,317,28213,1,0,0:0:0:0:
127,268,28375,2,0,L|44:264,1,84,2|0,0:0|0:0,0:0:0:0:
15,241,28699,6,0,P|114:237|218:233,1,195.999994018555,0|8,1:2|0:0,0:0:0:0:
210,233,29834,1,2,1:2:0:0:
210,233,29996,6,0,L|215:304,1,56,2|0,0:0|0:0,0:0:0:0:
331,237,30321,1,0,1:2:0:0:
173,357,30483,2,0,P|231:336|290:344,1,112,2|0,0:0|0:0,0:0:0:0:
396,305,30969,2,0,L|401:372,1,56,2|0,0:0|0:0,0:0:0:0:
512,327,31294,5,6,0:0:0:0:
256,192,31375,12,2,33888,0:0:0:0:
101,81,36159,5,2,0:0:0:0:
87,155,36321,1,0,0:0:0:0:
73,228,36483,2,0,P|119:186|176:181,2,105.000004005432,2|2|2,0:0|0:0|0:0,0:0:0:0:
115,79,37456,1,0,0:0:0:0:
115,79,37618,2,0,P|177:136|266:133,1,157.500006008148,2|0,0:0|0:0,0:0:0:0:
248,140,38672,6,0,L|221:119,1,26.2500010013581,0|2,0:0|0:0,0:0:0:0:
306,195,38915,1,0,0:0:0:0:
360,248,39077,6,0,P|361:193|361:123,2,105.000004005432,2|2|2,0:0|0:0|0:0,0:0:0:0:
405,381,40050,1,0,0:0:0:0:
405,381,40213,2,0,P|350:360|294:364,1,105.000004005432,2|2,0:0|0:0,0:0:0:0:
317,155,40861,2,0,P|292:204|247:241,1,105.000004005432,2|0,0:0|0:0,0:0:0:0:
351,274,41348,1,2,0:0:0:0:
351,274,41672,6,0,P|402:260|463:244,1,112,10|0,0:0|0:0,0:0:0:0:
485,111,42158,2,0,P|432:126|372:142,1,112,8|0,0:0|0:0,0:0:0:0:
250,178,42645,1,8,0:0:0:0:
250,178,42969,6,0,P|198:187|138:159,1,112,8|0,0:0|0:0,0:0:0:0:
121,316,43456,2,0,P|141:264|185:231,1,112,8|0,0:0|0:0,0:0:0:0:
12,211,43942,1,8,0:0:0:0:
62,129,44104,1,8,0:0:0:0:
62,129,44186,1,8,0:0:0:0:
62,129,44267,6,0,P|96:172|103:240,1,125.999996154785,8|0,0:0|0:0,0:0:0:0:
209,270,44753,2,0,P|260:235|285:178,1,125.999996154785,8|0,0:0|0:0,0:0:0:0:
278,358,45240,1,8,0:0:0:0:
278,358,45564,6,0,P|333:385|395:378,1,125.999996154785,8|0,0:0|0:0,0:0:0:0:
487,317,46050,2,0,P|514:262|507:200,1,125.999996154785,8|0,0:0|0:0,0:0:0:0:
424,113,46537,1,10,0:0:0:0:
311,141,46699,1,8,0:0:0:0:
311,141,46780,1,8,0:0:0:0:
311,141,46861,6,0,P|274:141|241:141,1,70,10|0,0:0|0:0,0:0:0:0:
181,238,47186,2,0,P|214:238|254:238,1,70,10|0,0:0|0:0,0:0:0:0:
336,154,47510,6,0,P|301:148|267:141,1,70,10|0,0:0|0:0,0:0:0:0:
153,227,47835,2,0,P|185:232|224:239,1,70,8|2,0:0|0:0,0:0:0:0:
357,171,48158,6,0,P|323:159|291:147,1,70,8|0,0:0|0:0,0:0:0:0:
126,208,48483,2,0,P|159:219|194:232,1,70,8|0,0:0|0:0,0:0:0:0:
177,107,48807,1,8,0:0:0:0:
335,277,49131,1,10,0:0:0:0:
404,354,49294,1,10,0:0:0:0:
404,354,49375,1,8,0:0:0:0:
404,354,49456,5,10,0:0:0:0:
307,374,49618,1,8,0:0:0:0:
413,263,49780,5,10,0:0:0:0:
261,293,49942,1,10,0:0:0:0:
321,218,50104,5,8,0:0:0:0:
404,354,50267,1,8,0:0:0:0:
261,293,50429,1,10,0:0:0:0:
413,263,50591,1,8,0:0:0:0:
212,185,50753,6,0,L|210:150,1,35,4|0,3:3|0:0,0:0:0:0:
195,225,51077,6,0,P|193:173|190:121,1,105,2|2,0:0|0:3,0:0:0:0:
308,335,52050,6,0,P|229:384|64:282,1,293.999991027832,6|0,1:2|0:0,0:0:0:0:
51,307,52699,6,0,L|54:259,1,35,10|0,0:0|0:0,0:0:0:0:
59,190,53023,2,0,L|61:141,1,35,0|2,0:0|0:0,0:0:0:0:
60,155,53510,1,0,0:0:0:0:
193,271,53672,6,0,B|265:266|265:266|308:283|308:283|386:278,1,195.999994018555,2|8,1:2|0:0,0:0:0:0:
343,384,54158,2,0,P|402:322|518:319,1,195.999994018555,2|0,1:2|0:0,0:0:0:0:
371,182,54645,6,0,B|341:-9|341:-9|340:69|321:121,1,293.999991027832,2|0,1:2|0:0,0:0:0:0:
230,103,55294,6,0,L|184:101,1,35,10|0,0:0|0:0,0:0:0:0:
108,110,55618,2,0,L|62:108,1,35,0|2,0:0|0:0,0:0:0:0:
73,108,56104,1,0,0:0:0:0:
5,193,56267,6,0,P|67:135|175:136,1,195.999994018555,2|8,1:2|0:0,0:0:0:0:
274,209,56753,2,0,P|293:291|238:384,1,195.999994018555,2|0,1:2|0:0,0:0:0:0:
117,182,57240,6,0,P|255:186|418:191,1,293.999991027832,2|0,1:2|0:0,0:0:0:0:
497,267,57888,6,0,L|480:236,1,35,10|0,0:0|0:0,0:0:0:0:
502,128,58213,2,0,L|483:157,1,35,0|2,0:0|0:0,0:0:0:0:
483,157,58699,1,0,0:0:0:0:
512,314,58861,6,0,P|440:262|336:262,1,195.999994018555,2|8,1:2|0:0,0:0:0:0:
358,68,59348,1,0,1:2:0:0:
358,68,59510,2,0,P|361:121|366:179,1,97.9999970092774,2|0,0:0|0:0,0:0:0:0:
221,160,59834,6,0,P|80:161|5:41,1,293.999991027832,2|0,1:2|0:0,0:0:0:0:
146,88,60483,6,0,P|132:218|189:262,1,195.999994018555,10|0,0:0|0:0,0:0:0:0:
296,237,60969,2,0,P|310:107|253:63,1,195.999994018555,2|0,1:2|0:0,0:0:0:0:
89,265,61456,6,0,P|128:178|220:159,1,195.999994018555,2|8,1:2|0:0,0:0:0:0:
349,329,61942,2,0,P|254:338|191:268,1,195.999994018555,2|0,0:2|0:0,0:0:0:0:
465,378,62429,6,0,B|483:184|483:184|423:266,1,293.999991027832,6|0,1:2|0:0,0:0:0:0:
330,291,63077,6,0,L|283:291,1,35,10|0,0:0|0:0,0:0:0:0:
212,291,63402,2,0,L|165:291,1,35,0|2,0:0|0:0,0:0:0:0:
177,291,63888,1,0,0:0:0:0:
55,184,64050,6,0,P|159:196|230:122,1,195.999994018555,2|8,1:2|0:0,0:0:0:0:
264,39,64537,2,0,P|268:133|275:254,1,195.999994018555,2|0,1:2|0:0,0:0:0:0:
171,345,65023,6,0,B|238:327|314:362|314:362|385:394|459:381,1,293.999991027832,2|0,1:2|0:0,0:0:0:0:
471,384,65672,6,0,L|469:335,1,35,10|0,0:0|0:0,0:0:0:0:
465,270,65996,2,0,L|463:221,1,35,0|2,0:0|0:0,0:0:0:0:
463,235,66483,1,0,0:0:0:0:
488,91,66645,6,0,P|404:131|303:111,1,195.999994018555,2|8,1:2|0:0,0:0:0:0:
173,178,67131,2,0,B|34:178|34:178|61:162|83:145,1,195.999994018555,2|0,1:2|0:0,0:0:0:0:
207,29,67618,6,0,P|206:168|206:330,1,293.999991027832,2|0,1:2|0:0,0:0:0:0:
314,277,68267,6,0,L|291:309,1,35,10|0,0:0|0:0,0:0:0:0:
419,321,68591,2,0,L|382:326,1,35,0|2,0:0|0:0,0:0:0:0:
384,325,69077,1,0,0:0:0:0:
496,256,69240,6,0,P|412:285|313:253,1,195.999994018555,2|8,1:2|0:0,0:0:0:0:
172,287,69726,1,0,1:2:0:0:
172,287,69888,2,0,L|176:389,1,97.9999970092774,2|0,0:0|0:0,0:0:0:0:
28,266,70213,6,0,B|115:261|115:261|172:278|172:278|225:256|225:256|325:252,1,293.999991027832,2|0,1:2|0:0,0:0:0:0:
493,112,70861,6,0,P|386:116|294:120,1,195.999994018555,10|0,0:0|0:0,0:0:0:0:
211,221,71348,2,0,P|228:312|322:355,1,195.999994018555,2|0,1:2|0:0,0:0:0:0:
451,198,71834,5,0,1:2:0:0:
451,198,71996,2,0,P|448:147|446:92,1,97.9999970092774,2|8,0:0|0:0,0:0:0:0:
336,153,72321,1,0,0:0:0:0:
220,153,72483,2,0,P|142:153|72:153,1,146.999995513916,2|0,0:0|0:0,0:0:0:0:
32,132,72807,6,0,P|51:273|180:317,1,293.999991027832,4|0,1:2|0:0,0:0:0:0:
287,270,73456,5,10,0:0:0:0:
288,350,73618,2,0,L|287:388,1,35,2|0,0:0|0:0,0:0:0:0:
376,229,73942,5,0,0:0:0:0:
375,309,74104,2,0,L|374:350,1,35,2|0,0:0|0:0,0:0:0:0:
459,136,74429,6,0,P|381:182|279:154,1,195.999994018555,2|8,1:2|0:0,0:0:0:0:
483,38,74915,2,0,P|487:127|494:234,1,195.999994018555,2|0,1:2|0:0,0:0:0:0:
396,347,75402,6,0,B|336:375|256:347|256:347|180:320|107:345,1,293.999991027832,2|0,1:2|0:0,0:0:0:0:
15,301,76050,5,10,0:0:0:0:
121,239,76213,2,0,L|81:264,1,35,2|0,0:0|0:0,0:0:0:0:
0,203,76537,5,0,0:0:0:0:
22,88,76699,2,0,L|13:135,1,35,2|0,0:0|0:0,0:0:0:0:
151,112,77023,5,0,1:2:0:0:
151,112,77186,2,0,P|202:112|259:112,1,97.9999970092774,2|8,0:0|0:0,0:0:0:0:
375,83,77510,1,0,1:2:0:0:
463,180,77672,2,0,P|458:257|406:305,1,146.999995513916,2|0,0:0|0:0,0:0:0:0:
464,307,77996,6,0,B|359:303|359:303|279:345|279:345|176:340,1,293.999991027832,2|0,1:2|0:0,0:0:0:0:
97,335,78645,5,10,0:0:0:0:
159,232,78807,2,0,L|139:264,1,35,2|0,0:0|0:0,0:0:0:0:
97,335,79131,5,0,0:0:0:0:
44,226,79294,2,0,L|60:260,1,35,2|0,0:0|0:0,0:0:0:0:
111,134,79618,6,0,P|184:198|283:188,1,195.999994018555,2|8,1:2|0:0,0:0:0:0:
383,111,80104,1,0,1:2:0:0:
383,111,80267,2,0,P|381:62|379:11,1,97.9999970092774,2|0,0:0|0:0,0:0:0:0:
210,82,80591,6,0,P|214:240|218:390,1,293.999991027832,2|0,1:2|0:0,0:0:0:0:
346,253,81240,6,0,P|438:273|516:213,1,195.999994018555,10|0,0:0|0:0,0:0:0:0:
437,89,81726,2,0,B|381:89|381:89|341:103|341:103|302:89|302:89|235:89,1,195.999994018555,2|0,1:2|0:0,0:0:0:0:
99,168,82213,5,0,1:2:0:0:
99,168,82375,2,0,P|43:168|0:168,1,97.9999970092774,2|8,0:0|0:0,0:0:0:0:
129,56,82699,1,0,0:0:0:0:
213,199,82861,2,0,P|242:269|214:332,1,146.999995513916,2|0,0:0|0:0,0:0:0:0:
170,353,83186,6,0,B|237:336|311:368|311:368|378:396|457:378,1,293.999991027832,6|0,1:2|0:0,0:0:0:0:
485,263,83834,5,10,0:0:0:0:
485,263,83996,2,0,P|473:286|447:316,1,35,2|0,0:0|0:0,0:0:0:0:
395,195,84321,5,0,0:0:0:0:
395,195,84483,2,0,P|402:219|406:259,1,35,2|0,0:0|0:0,0:0:0:0:
457,93,84807,6,0,P|384:154|290:141,1,195.999994018555,2|8,1:2|0:0,0:0:0:0:
130,183,85294,2,0,B|-4:184|-4:184|31:177|68:167,1,195.999994018555,2|0,1:2|0:0,0:0:0:0:
173,45,85780,6,0,B|208:113|172:179|172:179|128:250|174:327,1,293.999991027832,2|0,1:2|0:0,0:0:0:0:
270,384,86429,5,10,0:0:0:0:
350,349,86591,2,0,L|406:349,1,35,2|0,0:0|0:0,0:0:0:0:
284,291,86915,5,0,0:0:0:0:
207,324,87077,2,0,L|161:324,1,35,2|0,0:0|0:0,0:0:0:0:
37,370,87402,5,0,1:2:0:0:
37,370,87564,2,0,P|39:323|42:273,1,97.9999970092774,2|8,0:0|0:0,0:0:0:0:
172,324,87888,1,0,1:2:0:0:
300,372,88050,2,0,P|377:383|450:349,1,146.999995513916,2|0,0:0|0:0,0:0:0:0:
482,384,88375,6,0,P|477:243|472:91,1,293.999991027832,2|0,1:2|0:0,0:0:0:0:
366,49,89023,5,10,0:0:0:0:
348,129,89186,2,0,L|390:130,1,35,2|0,0:0|0:0,0:0:0:0:
244,207,89510,5,0,0:0:0:0:
225,127,89673,2,0,L|267:128,1,35,2|0,0:0|0:0,0:0:0:0:
100,43,89996,6,0,P|57:128|107:224,1,195.999994018555,2|8,1:2|0:0,0:0:0:0:
129,333,90483,1,0,1:2:0:0:
129,333,90645,2,0,B|227:325,1,97.9999970092774,2|0,0:0|0:0,0:0:0:0:
342,311,90969,6,0,P|186:306|48:301,1,293.999991027832,2|0,1:2|0:0,0:0:0:0:
174,101,91618,6,0,P|210:161|342:167,1,195.999994018555,10|0,0:0|0:0,0:0:0:0:
409,255,92104,6,0,P|344:227|254:264,1,167.999994873047,2|0,1:2|0:0,0:0:0:0:
125,258,92591,6,0,P|143:191|199:152,1,140,2|8,1:2|0:0,0:0:0:0:
60,363,93077,6,0,P|20:329|2:273,1,112,2|0,0:0|0:0,0:0:0:0:
162,380,93564,5,0,1:2:0:0:
162,380,94375,5,0,0:0:0:0:
162,380,94537,2,0,L|234:376,1,56,2|0,0:0|0:0,0:0:0:0:
326,369,94861,2,0,L|398:365,1,56,2|0,0:0|0:0,0:0:0:0:
454,327,95186,2,0,P|399:324|352:280,1,112,2|2,0:0|0:0,0:0:0:0:
321,208,95672,1,2,0:0:0:0:
346,124,95834,2,0,P|374:93|414:80,1,84,2|0,0:0|0:0,0:0:0:0:
430,55,96158,6,0,B|364:62|364:62|306:44|306:44|232:50,1,195.999994018555,0|8,1:2|0:0,0:0:0:0:
113,234,97131,2,0,L|106:158,1,56,2|0,0:0|1:2,0:0:0:0:
79,308,97456,6,0,P|127:282|191:284,1,112,2|2,0:0|1:2,0:0:0:0:
266,174,97942,1,0,0:0:0:0:
263,310,98104,1,10,0:0:0:0:
186,198,98267,1,2,0:0:0:0:
318,245,98429,2,0,L|417:243,1,84,2|0,0:0|0:0,0:0:0:0:
431,256,98753,6,0,P|457:167|389:96,1,195.999994018555,0|8,1:2|0:0,0:0:0:0:
230,51,99645,2,0,L|231:19,1,28,0|2,0:0|0:0,0:0:0:0:
228,141,99888,1,0,1:2:0:0:
226,248,100050,6,0,P|225:303|223:372,1,112,2|2,0:0|1:2,0:0:0:0:
224,360,100699,1,10,0:0:0:0:
309,263,100861,1,2,0:0:0:0:
170,183,101023,2,0,P|133:201|83:199,1,84,2|0,0:0|0:0,0:0:0:0:
54,220,101348,6,0,B|99:208|151:220|151:220|203:235|250:222,1,195.999994018555,0|8,1:2|0:0,0:0:0:0:
397,341,102240,2,0,L|399:390,1,28,0|2,0:0|0:0,0:0:0:0:
313,316,102483,1,0,1:2:0:0:
482,309,102645,6,0,P|501:259|475:204,1,112,2|0,0:0|1:2,0:0:0:0:
479,208,103294,1,10,0:0:0:0:
369,212,103456,1,2,0:0:0:0:
257,218,103618,2,0,P|214:216|174:215,1,84,2|0,0:0|0:0,0:0:0:0:
143,235,103942,6,0,P|116:145|192:72,1,195.999994018555,0|8,1:2|0:0,0:0:0:0:
178,75,105077,1,0,1:2:0:0:
178,75,105240,6,0,P|129:102|66:97,1,112,2|0,0:0|1:2,0:0:0:0:
274,130,105726,2,0,P|272:185|237:237,1,112,2|0,0:0|0:0,0:0:0:0:
387,98,106213,2,0,P|414:148|413:168,1,56,2|0,0:0|0:0,0:0:0:0:
501,275,106537,5,0,1:2:0:0:
501,275,106699,2,0,P|444:275|393:310,1,112,2|0,0:0|0:0,0:0:0:0:
292,243,107186,2,0,B|234:246|234:246|184:227|184:227|126:231,1,168,8|0,0:0|1:2,0:0:0:0:
127,230,107996,1,0,0:0:0:0:
188,148,108158,6,0,P|186:119|184:81,1,56,2|0,1:2|0:0,0:0:0:0:
198,299,108483,1,10,0:0:0:0:
127,229,108645,1,2,0:0:0:0:
292,218,108807,2,0,L|381:218,1,84,2|0,0:0|0:0,0:0:0:0:
399,241,109131,6,0,P|422:149|512:111,1,195.999994018555,0|8,1:2|0:0,0:0:0:0:
508,110,110267,6,0,B|454:122|454:122|399:109,1,112,0|0,1:2|0:0,0:0:0:0:
291,67,110753,2,0,L|283:124,1,56,2|0,1:2|0:0,0:0:0:0:
270,234,111077,1,10,0:0:0:0:
373,290,111240,1,0,0:0:0:0:
458,205,111402,2,0,P|470:166|453:118,1,84,2|0,0:0|0:0,0:0:0:0:
481,96,111726,6,0,B|428:96|428:96|385:109|385:109|342:96|342:96|287:96,1,195.999994018555,0|8,1:2|0:0,0:0:0:0:
288,96,112861,1,2,1:2:0:0:
288,96,113023,6,0,L|284:32,1,56,2|0,0:0|0:0,0:0:0:0:
372,175,113348,1,0,1:2:0:0:
339,284,113510,2,0,P|287:264|227:275,1,112,2|0,0:0|0:0,0:0:0:0:
131,218,113996,2,0,P|135:194|157:157,1,56,2|0,0:0|0:0,0:0:0:0:
26,250,114321,5,6,0:0:0:0:
256,192,114402,12,2,116915,0:0:0:0:
77,43,119186,5,2,0:0:0:0:
83,119,119348,1,0,0:0:0:0:
89,195,119510,2,0,P|94:251|99:310,2,105.000004005432,2|2|2,0:0|0:0|0:0,0:0:0:0:
248,256,120483,1,0,0:0:0:0:
248,256,120645,2,0,P|328:273|389:223,1,157.500006008148,2|0,0:0|0:0,0:0:0:0:
389,228,121699,6,0,L|386:202,1,26.2500010013581,0|2,0:0|0:0,0:0:0:0:
442,289,121942,1,0,0:0:0:0:
486,355,122104,6,0,P|439:337|371:341,2,105.000004005432,2|2|2,0:0|0:0|0:0,0:0:0:0:
315,230,123077,1,0,0:0:0:0:
315,230,123240,2,0,P|340:180|381:146,1,105.000004005432,2|2,0:0|0:0,0:0:0:0:
186,249,123888,2,0,P|156:201|146:150,1,105.000004005432,2|0,0:0|0:0,0:0:0:0:
156,61,124375,1,2,0:0:0:0:
156,61,124699,6,0,P|126:103|66:119,1,112,10|0,0:0|0:0,0:0:0:0:
231,112,125186,2,0,P|288:112|350:112,1,112,8|0,0:0|0:0,0:0:0:0:
486,81,125672,1,8,0:0:0:0:
486,81,125996,6,0,P|431:81|367:81,1,112,8|0,0:0|0:0,0:0:0:0:
280,151,126483,2,0,P|262:204|281:256,1,112,8|0,0:0|0:0,0:0:0:0:
377,179,126969,1,8,0:0:0:0:
278,55,127131,1,8,0:0:0:0:
278,55,127213,1,8,0:0:0:0:
278,55,127294,6,0,P|215:55|152:55,1,125.999996154785,8|0,0:0|0:0,0:0:0:0:
84,154,127780,2,0,P|114:207|175:213,1,125.999996154785,8|0,0:0|0:0,0:0:0:0:
323,172,128267,1,8,0:0:0:0:
323,172,128591,6,0,P|321:113|319:44,1,125.999996154785,8|0,0:0|0:0,0:0:0:0:
377,240,129077,2,0,P|320:215|251:223,1,125.999996154785,8|0,0:0|0:0,0:0:0:0:
148,140,129564,1,10,0:0:0:0:
248,46,129726,1,10,0:0:0:0:
248,46,129807,1,8,0:0:0:0:
248,46,129888,6,0,P|259:80|281:110,1,70,10|0,0:0|0:0,0:0:0:0:
324,9,130213,2,0,P|344:37|355:71,1,70,10|0,0:0|0:0,0:0:0:0:
370,174,130537,6,0,P|353:205|348:242,1,70,10|0,0:0|0:0,0:0:0:0:
463,206,130862,2,0,P|457:240|441:271,1,70,8|2,0:0|0:0,0:0:0:0:
224,239,131186,6,0,P|190:250|160:272,1,70,8|0,0:0|0:0,0:0:0:0:
271,328,131511,2,0,P|242:348|209:358,1,70,8|0,0:0|0:0,0:0:0:0:
348,239,131834,1,8,0:0:0:0:
98,352,132158,1,10,0:0:0:0:
198,383,132321,1,10,0:0:0:0:
198,383,132402,1,8,0:0:0:0:
198,383,132483,5,10,0:0:0:0:
177,282,132645,1,8,0:0:0:0:
322,230,132807,5,10,0:0:0:0:
314,340,132969,1,10,0:0:0:0:
437,350,133131,5,8,0:0:0:0:
486,239,133294,1,8,0:0:0:0:
397,157,133456,1,10,0:0:0:0:
290,224,133618,1,8,0:0:0:0:
314,340,133780,6,0,L|272:340,1,35,4|0,3:0|0:0,0:0:0:0:
350,369,134104,6,0,P|298:364|244:371,1,105,2|2,0:0|0:3,0:0:0:0:
479,272,135077,6,0,B|408:290|344:247|344:247|283:207|196:221,1,293.999991027832,6|0,1:2|0:0,0:0:0:0:
117,210,135726,6,0,L|122:260,1,35,10|0,0:0|0:0,0:0:0:0:
43,234,136050,2,0,L|3:237,1,35,0|2,0:0|0:0,0:0:0:0:
8,236,136537,1,0,0:0:0:0:
110,376,136699,6,0,P|182:332|291:345,1,195.999994018555,2|8,1:2|0:0,0:0:0:0:
244,161,137186,2,0,P|246:245|180:333,1,195.999994018555,2|0,1:2|0:0,0:0:0:0:
462,373,137672,6,0,P|321:360|249:238,1,293.999991027832,2|0,1:2|0:0,0:0:0:0:
194,136,138321,6,0,P|192:158|189:183,1,35,10|0,0:0|0:0,0:0:0:0:
304,171,138645,2,0,P|302:155|300:136,1,35,0|2,0:0|0:0,0:0:0:0:
300,136,139131,1,0,0:0:0:0:
409,276,139294,6,0,B|352:276|352:276|313:289|313:289|273:276|273:276|214:276,1,195.999994018555,2|8,1:2|0:0,0:0:0:0:
99,376,139780,2,0,P|11:365|-24:272,1,195.999994018555,2|0,1:2|0:2,0:0:0:0:
126,169,140267,6,0,B|196:133|196:133|333:133|333:133|405:94,1,293.999991027832,2|0,1:2|0:0,0:0:0:0:
512,154,140915,6,0,P|495:148|479:141,1,35,10|0,0:0|0:0,0:0:0:0:
482,23,141240,2,0,P|481:40|480:57,1,35,0|2,0:0|0:0,0:0:0:0:
480,57,141726,1,0,0:0:0:0:
512,236,141888,6,0,P|415:238|350:311,1,195.999994018555,2|8,1:2|0:0,0:0:0:0:
166,252,142375,1,0,1:2:0:0:
166,252,142537,2,0,L|270:245,1,97.9999970092774,2|0,0:0|0:0,0:0:0:0:
112,374,142861,6,0,B|149:305|111:230|111:230|73:157|107:92,1,293.999991027832,2|0,1:2|0:0,0:0:0:0:
242,159,143510,6,0,B|369:159|369:159|329:169|298:185,1,195.999994018555,10|0,0:0|0:0,0:0:0:0:
130,244,143996,2,0,B|27:318|27:318|53:287|69:255,1,195.999994018555,2|0,1:2|0:0,0:0:0:0:
156,100,144483,6,0,B|195:-20|195:-20|192:20|198:54,1,195.999994018555,2|8,1:2|0:0,0:0:0:0:
225,255,144969,2,0,B|264:375|264:375|242:340|217:316,1,195.999994018555,2|0,0:0|0:0,0:0:0:0:
55,187,145456,6,0,P|199:175|352:163,1,293.999991027832,6|0,1:2|0:0,0:0:0:0:
432,146,146104,6,0,L|431:190,1,35,10|0,0:0|0:0,0:0:0:0:
434,32,146429,2,0,L|433:74,1,35,0|2,0:0|0:0,0:0:0:0:
433,67,146915,1,0,0:0:0:0:
381,237,147077,6,0,B|522:237|522:237|490:222|461:209,1,195.999994018555,2|8,1:2|0:0,0:0:0:0:
420,336,147564,2,0,P|373:255|272:243,1,195.999994018555,2|0,1:2|0:0,0:0:0:0:
237,68,148050,6,0,P|155:170|9:142,1,293.999991027832,2|0,1:2|0:0,0:0:0:0:
82,227,148699,6,0,P|76:211|67:197,1,35,10|0,0:0|0:0,0:0:0:0:
89,342,149023,2,0,P|93:325|95:308,1,35,0|2,0:0|0:0,0:0:0:0:
95,307,149510,1,0,0:0:0:0:
238,323,149672,6,0,B|322:323|322:323|349:336|349:336|432:337,1,195.999994018555,2|8,1:2|0:0,0:0:0:0:
512,227,150158,2,0,P|495:133|380:104,1,195.999994018555,2|0,1:2|0:0,0:0:0:0:
232,117,150645,6,0,P|352:127|461:7,1,293.999991027832,2|0,1:2|0:0,0:0:0:0:
503,107,151294,6,0,L|501:154,1,35,10|0,0:0|0:0,0:0:0:0:
500,221,151618,2,0,L|498:268,1,35,0|2,0:0|0:0,0:0:0:0:
499,255,152104,1,0,0:0:0:0:
388,379,152267,6,0,P|306:329|205:353,1,195.999994018555,2|8,1:2|0:0,0:0:0:0:
239,133,152753,1,0,1:2:0:0:
239,133,152915,2,0,P|241:183|243:237,1,97.9999970092774,2|0,0:0|0:0,0:0:0:0:
212,347,153240,6,0,P|215:209|219:49,1,293.999991027832,2|0,1:2|0:0,0:0:0:0:
343,145,153888,6,0,P|437:157|512:72,1,195.999994018555,10|0,0:0|0:0,0:0:0:0:
257,235,154375,2,0,P|293:322|404:344,1,195.999994018555,2|0,1:2|0:0,0:0:0:0:
136,202,154861,5,0,1:2:0:0:
136,202,155023,2,0,P|92:285|99:314,1,97.9999970092774,2|8,0:0|0:0,0:0:0:0:
46,142,155348,1,0,0:0:0:0:
2,10,155510,2,0,P|65:46|152:44,1,146.999995513916,2|0,0:0|0:0,0:0:0:0:
172,15,155834,6,0,P|181:171|191:318,1,293.999991027832,6|0,1:2|0:0,0:0:0:0:
295,226,156483,5,10,0:0:0:0:
281,308,156645,2,0,L|273:352,1,35,2|0,0:0|0:0,0:0:0:0:
390,269,156969,5,0,0:0:0:0:
365,348,157131,2,0,L|351:391,1,35,2|0,0:0|0:0,0:0:0:0:
467,189,157456,6,0,P|388:242|294:225,1,195.999994018555,2|8,1:2|0:0,0:0:0:0:
281,378,157942,2,0,P|309:287|392:241,1,195.999994018555,2|0,1:2|0:0,0:0:0:0:
168,293,158429,6,0,B|-28:294|-28:294|29:282|65:252,1,293.999991027832,2|0,1:2|0:0,0:0:0:0:
246,247,159077,5,10,0:0:0:0:
250,331,159240,2,0,L|252:375,1,35,2|0,0:0|0:0,0:0:0:0:
334,255,159564,5,0,0:0:0:0:
339,339,159727,2,0,L|341:383,1,35,2|0,0:0|0:0,0:0:0:0:
442,263,160050,5,0,1:2:0:0:
442,263,160213,2,0,L|541:259,1,97.9999970092774,2|8,0:0|0:0,0:0:0:0:
334,255,160537,1,0,1:2:0:0:
224,252,160699,2,0,P|153:255|75:258,1,146.999995513916,2|0,0:0|0:0,0:0:0:0:
45,220,161023,6,0,P|173:227|246:96,1,293.999991027832,2|0,1:2|0:0,0:0:0:0:
409,81,161672,5,10,0:0:0:0:
327,65,161834,2,0,L|329:110,1,35,2|0,0:0|0:0,0:0:0:0:
253,202,162158,5,0,0:0:0:0:
333,183,162320,2,0,L|335:228,1,35,2|0,0:0|0:0,0:0:0:0:
390,379,162645,6,0,P|302:337|206:351,1,195.999994018555,2|8,1:2|0:0,0:0:0:0:
78,191,163131,1,0,1:2:0:0:
78,191,163294,2,0,P|81:238|85:298,1,97.9999970092774,2|0,0:0|0:0,0:0:0:0:
245,254,163618,6,0,P|381:246|445:109,1,293.999991027832,2|0,1:2|0:0,0:0:0:0:
195,177,164267,6,0,B|203:338|203:338|169:300,1,195.999994018555,10|0,0:0|0:0,0:0:0:0:
49,233,164753,2,0,B|41:72|41:72|75:110,1,195.999994018555,2|0,1:2|0:0,0:0:0:0:
199,181,165240,5,0,1:2:0:0:
199,181,165402,2,0,L|299:181,1,97.9999970092774,2|8,0:0|0:0,0:0:0:0:
416,131,165726,1,0,0:0:0:0:
508,221,165888,2,0,P|466:281|395:271,1,146.999995513916,2|0,0:0|0:0,0:0:0:0:
356,250,166213,6,0,P|301:233|337:365,1,293.999991027832,6|0,1:2|0:0,0:0:0:0:
434,286,166861,5,10,0:0:0:0:
426,200,167023,2,0,L|422:153,1,35,2|0,0:0|0:0,0:0:0:0:
356,250,167348,5,0,0:0:0:0:
273,258,167510,2,0,L|226:262,1,35,2|0,0:0|0:0,0:0:0:0:
139,372,167834,6,0,P|76:299|-26:279,1,195.999994018555,2|8,1:2|0:0,0:0:0:0:
127,198,168321,2,0,P|121:100|116:2,1,195.999994018555,2|0,1:2|0:0,0:0:0:0:
246,101,168807,6,0,B|325:132|392:101|392:101|463:66|531:104,1,293.999991027832,2|0,1:2|0:0,0:0:0:0:
387,207,169456,5,10,0:0:0:0:
491,189,169618,2,0,L|525:183,1,35,2|0,0:0|0:0,0:0:0:0:
450,259,169942,5,0,0:0:0:0:
430,139,170104,2,0,L|422:91,1,35,2|0,0:0|0:0,0:0:0:0:
272,135,170429,5,0,1:2:0:0:
272,135,170591,2,0,P|223:135|168:135,1,97.9999970092774,2|8,0:0|0:0,0:0:0:0:
87,234,170915,1,0,1:2:0:0:
0,335,171077,2,0,P|70:337|142:388,1,146.999995513916,2|0,0:0|0:0,0:0:0:0:
157,337,171402,6,0,B|254:337|254:337|302:354|302:354|349:337|349:337|450:337,1,293.999991027832,2|0,1:2|0:0,0:0:0:0:
490,241,172050,5,10,0:0:0:0:
413,225,172213,2,0,L|414:267,1,35,2|0,0:0|0:0,0:0:0:0:
335,135,172537,5,0,0:0:0:0:
411,113,172699,2,0,L|412:155,1,35,2|0,0:0|0:0,0:0:0:0:
476,18,173023,6,0,P|401:78|302:70,1,195.999994018555,2|8,1:2|0:0,0:0:0:0:
131,158,173510,1,0,1:2:0:0:
131,158,173672,2,0,L|230:152,1,97.9999970092774,2|0,0:0|0:0,0:0:0:0:
86,30,173996,6,0,B|120:103|87:170|87:170|48:242|86:314,1,293.999991027832,2|0,1:2|0:0,0:0:0:0:
327,233,174645,6,0,P|279:149|189:115,1,195.999994018555,10|0,0:0|0:0,0:0:0:0:
154,379,175131,6,0,P|249:370|309:312,1,167.999994873047,2|0,1:2|0:0,0:0:0:0:
472,383,175618,6,0,P|469:313|465:233,1,140,2|8,1:2|0:0,0:0:0:0:
458,114,176104,6,0,P|455:59|451:-7,1,112,2|0,0:2|0:0,0:0:0:0:
376,187,176591,5,2,0:0:0:0:
