osu file format v14

[General]
AudioFilename: audio.mp3
AudioLeadIn: 0
PreviewTime: 50713
Countdown: 0
SampleSet: Soft
StackLeniency: 0.4
Mode: 0
LetterboxInBreaks: 0
WidescreenStoryboard: 0

[Editor]
DistanceSpacing: 1.65
BeatDivisor: 4
GridSize: 32
TimelineZoom: 2.2

[Metadata]
Title:About You (feat. Luna)
TitleUnicode:About You (feat. Luna)
Artist:Lexurus
ArtistUnicode:Lexurus
Creator:Niva
Version:Hard
Source:osu!
Tags:maartje keijzer high tea music static groove featured artist mappers' guild
BeatmapID:1928496
BeatmapSetID:903055

[Difficulty]
HPDrainRate:6
CircleSize:3.8
OverallDifficulty:6
ApproachRate:8
SliderMultiplier:1.4
SliderTickRate:1

[Events]
//Background and Video events
0,0,"undefined.jpg",0,0
//Break Periods
//Storyboard Layer 0 (Background)
//Storyboard Layer 1 (Fail)
//Storyboard Layer 2 (Pass)
//Storyboard Layer 3 (Foreground)
//Storyboard Sound Samples

[TimingPoints]
159,324.324324324324,4,2,77,100,1,0
7942,-131.578947368421,4,2,77,40,0,0
8267,-131.578947368421,4,2,77,42,0,0
8591,-131.578947368421,4,2,77,44,0,0
8915,-131.578947368421,4,2,77,46,0,0
9240,-131.578947368421,4,2,77,48,0,0
9564,-131.578947368421,4,2,77,50,0,0
9888,-131.578947368421,4,2,77,52,0,0
10050,-131.578947368421,4,2,77,55,0,0
10537,-131.578947368421,4,2,77,50,0,0
11510,-131.578947368421,4,2,77,50,0,0
13050,-131.578947368421,4,2,77,20,0,0
13131,-131.578947368421,4,2,77,50,0,0
13942,-131.578947368421,4,2,77,50,0,0
15645,-131.578947368421,4,2,77,20,0,0
15726,-131.578947368421,4,2,77,50,0,0
16537,-131.578947368421,4,2,77,50,0,0
18240,-131.578947368421,4,2,77,20,0,0
18321,-131.578947368421,4,2,77,50,0,0
19456,-131.578947368421,4,2,77,50,0,0
20834,-131.578947368421,4,2,77,20,0,0
20915,-131.578947368421,4,2,77,50,0,0
21888,-131.578947368421,4,2,77,50,0,0
26023,-131.578947368421,4,2,77,20,0,0
26104,-131.578947368421,4,2,77,50,0,0
27077,-131.578947368421,4,2,77,50,0,0
28618,-131.578947368421,4,2,77,20,0,0
28699,-131.578947368421,4,2,77,50,0,0
29672,-131.578947368421,4,2,77,50,0,0
31375,-131.578947368421,4,2,77,30,0,0
36158,-147.058823529412,4,2,78,40,0,0
41672,-131.578947368421,4,2,78,50,0,0
44267,-131.578947368421,4,2,78,50,0,0
46861,-131.578947368421,4,2,78,50,0,0
50104,-131.578947368421,4,2,78,45,0,0
50429,-131.578947368421,4,2,78,40,0,0
50753,-147.058823529412,4,2,78,35,0,0
51077,-131.578947368421,4,2,78,40,0,0
51321,-131.578947368421,4,2,78,45,0,0
51564,-131.578947368421,4,2,78,50,0,0
52050,-100,4,2,79,70,0,1
52699,-142.857142857143,4,2,79,70,0,1
53672,-100,4,2,79,70,0,1
55294,-142.857142857143,4,2,79,70,0,1
56267,-100,4,2,79,70,0,1
57888,-142.857142857143,4,2,79,70,0,1
58861,-100,4,2,79,70,0,1
59834,-100,4,2,79,70,0,1
63077,-142.857142857143,4,2,79,70,0,1
64050,-100,4,2,79,70,0,1
65672,-142.857142857143,4,2,79,70,0,1
66645,-100,4,2,79,70,0,1
68267,-142.857142857143,4,2,79,70,0,1
69240,-100,4,2,79,70,0,1
70213,-100,4,2,79,70,0,1
71834,-100,4,2,79,70,0,0
72726,-142.857142857143,4,2,79,20,0,0
72807,-100,4,2,79,70,0,1
73456,-142.857142857143,4,2,79,70,0,1
74429,-100,4,2,79,70,0,1
76050,-142.857142857143,4,2,79,70,0,1
77023,-100,4,2,79,70,0,1
77915,-142.857142857143,4,2,79,20,0,1
77996,-100,4,2,79,70,0,1
78645,-142.857142857143,4,2,79,70,0,1
79618,-100,4,2,79,70,0,1
83104,-142.857142857143,4,2,79,20,0,1
83186,-100,4,2,79,70,0,1
83834,-142.857142857143,4,2,79,70,0,1
84807,-100,4,2,79,70,0,1
86429,-142.857142857143,4,2,79,70,0,1
87402,-100,4,2,79,70,0,1
88294,-142.857142857143,4,2,79,20,0,1
88375,-100,4,2,79,70,0,1
89023,-142.857142857143,4,2,79,70,0,1
89996,-100,4,2,79,70,0,1
92104,-108.695652173913,4,2,79,70,0,1
92429,-142.857142857143,4,2,79,70,0,1
92591,-116.279069767442,4,2,79,63,0,1
92753,-142.857142857143,4,2,79,63,0,1
93077,-131.578947368421,4,2,79,56,0,1
93402,-142.857142857143,4,2,79,50,0,1
93564,-142.857142857143,4,2,77,50,0,0
94375,-131.578947368421,4,2,77,50,0,0
96077,-131.578947368421,4,2,77,20,0,0
96158,-131.578947368421,4,2,77,50,0,0
97131,-131.578947368421,4,2,77,50,0,0
98672,-131.578947368421,4,2,77,20,0,0
98753,-131.578947368421,4,2,77,50,0,0
99564,-131.578947368421,4,2,77,50,0,0
101267,-131.578947368421,4,2,77,20,0,0
101348,-131.578947368421,4,2,77,50,0,0
102240,-131.578947368421,4,2,77,50,0,0
103861,-131.578947368421,4,2,77,20,0,0
103942,-131.578947368421,4,2,77,50,0,0
105240,-131.578947368421,4,2,77,50,0,0
109050,-131.578947368421,4,2,77,20,0,0
109131,-131.578947368421,4,2,77,50,0,0
110267,-131.578947368421,4,2,77,50,0,0
111645,-131.578947368421,4,2,77,20,0,0
111726,-131.578947368421,4,2,77,50,0,0
112861,-131.578947368421,4,2,77,50,0,0
114402,-131.578947368421,4,2,77,30,0,0
119186,-147.058823529412,4,2,78,40,0,0
124699,-131.578947368421,4,2,78,50,0,0
127294,-131.578947368421,4,2,78,50,0,0
129888,-131.578947368421,4,2,78,50,0,0
133131,-131.578947368421,4,2,78,45,0,0
133456,-131.578947368421,4,2,78,40,0,0
133780,-147.058823529412,4,2,78,35,0,0
134104,-147.058823529412,4,2,78,40,0,0
134348,-147.058823529412,4,2,78,45,0,0
134591,-147.058823529412,4,2,78,50,0,0
135077,-100,4,2,79,70,0,1
135726,-142.857142857143,4,2,79,70,0,1
136699,-100,4,2,79,70,0,1
138321,-142.857142857143,4,2,79,70,0,1
139294,-100,4,2,79,70,0,1
140915,-142.857142857143,4,2,79,70,0,1
141888,-100,4,2,79,70,0,1
146104,-142.857142857143,4,2,79,70,0,1
147077,-100,4,2,79,70,0,1
148699,-142.857142857143,4,2,79,70,0,1
149672,-100,4,2,79,70,0,1
151294,-142.857142857143,4,2,79,70,0,1
152267,-100,4,2,79,70,0,1
154861,-100,4,2,79,70,0,0
155753,-142.857142857143,4,2,79,20,0,0
155834,-100,4,2,79,70,0,1
156483,-142.857142857143,4,2,79,70,0,1
157456,-100,4,2,79,70,0,1
159077,-142.857142857143,4,2,79,70,0,1
160050,-100,4,2,79,70,0,1
160942,-142.857142857143,4,2,79,20,0,1
161023,-100,4,2,79,70,0,1
161672,-142.857142857143,4,2,79,70,0,1
162645,-100,4,2,79,70,0,1
166131,-142.857142857143,4,2,79,20,0,1
166213,-100,4,2,79,70,0,1
166861,-142.857142857143,4,2,79,70,0,1
167834,-100,4,2,79,70,0,1
169456,-142.857142857143,4,2,79,70,0,1
170429,-100,4,2,79,70,0,1
171321,-142.857142857143,4,2,79,20,0,1
171402,-100,4,2,79,70,0,1
172050,-142.857142857143,4,2,79,70,0,1
173023,-100,4,2,79,70,0,1
175131,-108.695652173913,4,2,79,70,0,1
175618,-116.279069767442,4,2,79,63,0,1
176104,-131.578947368421,4,2,79,56,0,1
176591,-142.857142857143,4,2,79,50,0,0

[Colours]
Combo1 : 255,253,174
Combo2 : 151,255,255
Combo3 : 43,253,190

[HitObjects]
256,192,7942,12,2,10050,0:0:0:0:
43,28,10537,6,0,P|97:114|205:108,1,212.799997402344,4|8,1:2|0:0,0:0:0:0:
282,77,11348,1,0,0:0:0:0:
282,77,11510,2,0,L|286:139,1,53.1999993505859,2|0,0:0|1:2,0:0:0:0:
267,216,11834,2,0,B|305:214|305:214|334:223|334:223|383:221,2,106.399998701172,2|2|10,0:0|1:2|0:0,0:0:0:0:
191,260,12645,1,2,0:0:0:0:
115,303,12807,1,2,0:0:0:0:
105,312,13131,6,0,P|72:215|-35:178,1,212.799997402344,0|8,1:2|0:0,0:0:0:0:
15,93,13942,1,0,0:0:0:0:
15,93,14104,2,0,L|11:26,1,53.1999993505859,2|0,0:0|1:2,0:0:0:0:
100,64,14429,2,0,P|153:64|214:64,1,106.399998701172,2|2,0:0|1:2,0:0:0:0:
293,78,14915,1,0,0:0:0:0:
380,92,15077,2,0,L|439:92,2,53.1999993505859,10|2|2,0:0|0:0|0:0,0:0:0:0:
370,82,15726,6,0,B|395:138|372:185|372:185|347:233|372:291,1,212.799997402344,0|8,1:2|0:0,0:0:0:0:
355,371,16537,1,0,0:0:0:0:
355,371,16699,2,0,L|425:365,1,53.1999993505859,2|0,0:0|1:2,0:0:0:0:
370,287,17023,2,0,P|320:291|257:296,1,106.399998701172,2|2,0:0|1:2,0:0:0:0:
187,338,17510,1,0,0:0:0:0:
105,309,17672,2,0,L|43:314,2,53.1999993505859,10|2|2,0:0|0:0|0:0,0:0:0:0:
114,318,18321,6,0,P|145:223|67:157,1,212.799997402344,0|8,1:2|0:0,0:0:0:0:
308,28,19456,1,0,1:2:0:0:
308,28,19618,2,0,L|310:94,1,53.1999993505859,2|0,0:0|0:0,0:0:0:0:
397,112,19942,2,0,L|395:57,2,53.1999993505859,2|0|10,1:2|0:0|0:0,0:0:0:0:
402,200,20429,1,2,0:0:0:0:
406,288,20591,1,2,0:0:0:0:
412,300,20915,6,0,P|340:375|223:349,1,212.799997402344,0|8,1:2|0:0,0:0:0:0:
1,278,22051,1,0,1:2:0:0:
1,278,22213,2,0,P|5:328|10:387,1,106.399998701172,2|0,0:0|1:2,0:0:0:0:
92,354,22699,2,0,B|122:354|122:354|145:360|145:360|169:354|169:354|198:353,1,106.399998701172,2|0,0:0|0:0,0:0:0:0:
281,384,23186,1,2,0:0:0:0:
416,277,23510,5,0,1:2:0:0:
416,277,23672,2,0,P|412:222|407:156,1,106.399998701172,2|0,0:0|0:0,0:0:0:0:
488,136,24158,2,0,P|413:107|376:29,2,159.599998051758,10|0|2,0:0|1:2|1:2,0:0:0:0:
343,237,25456,1,10,0:0:0:0:
256,234,25618,1,2,0:0:0:0:
169,231,25780,1,2,0:0:0:0:
155,230,26104,6,0,P|251:196|296:101,1,212.799997402344,0|8,1:2|0:0,0:0:0:0:
503,273,27240,2,0,P|505:326|509:393,1,106.399998701172,0|0,1:2|0:0,0:0:0:0:
421,372,27726,2,0,L|360:375,1,53.1999993505859,2|0,1:2|0:0,0:0:0:0:
280,372,28050,2,0,L|222:374,2,53.1999993505859,10|0|2,0:0|0:0|0:0,0:0:0:0:
291,380,28699,6,0,P|342:293|287:196,1,212.799997402344,0|8,1:2|0:0,0:0:0:0:
123,3,29834,1,2,1:2:0:0:
123,3,29996,2,0,L|189:3,1,53.1999993505859,2|0,0:0|0:0,0:0:0:0:
216,82,30321,1,0,1:2:0:0:
259,159,30483,2,0,P|226:198|173:201,1,106.399998701172,2|0,0:0|0:0,0:0:0:0:
119,270,30969,1,2,0:0:0:0:
256,384,31294,5,6,0:0:0:0:
256,192,31375,12,2,33888,0:0:0:0:
134,95,36158,6,0,L|139:163,1,47.6000002905273,2|0,0:0|0:0,0:0:0:0:
101,211,36483,2,0,P|141:198|198:202,2,95.2000005810547,2|2|2,0:0|0:0|0:0,0:0:0:0:
190,79,37456,1,0,0:0:0:0:
190,79,37618,2,0,P|256:101|327:83,1,142.800000871582,2|0,0:0|0:0,0:0:0:0:
345,74,38753,6,0,P|349:126|355:190,2,95.2000005810547,2|2|2,0:0|0:0|0:0,0:0:0:0:
205,137,39726,2,0,P|158:147|106:137,1,95.2000005810547,2|0,0:0|0:0,0:0:0:0:
120,219,40213,2,0,P|83:186|36:177,2,95.2000005810547,2|2|2,0:0|0:0|0:0,0:0:0:0:
254,304,41186,1,0,0:0:0:0:
254,304,41348,1,2,0:0:0:0:
390,221,41672,6,0,P|441:236|492:221,1,106.399998701172,10|0,0:0|0:0,0:0:0:0:
512,136,42158,2,0,P|508:83|503:11,1,106.399998701172,8|0,0:0|0:0,0:0:0:0:
423,0,42645,1,8,0:0:0:0:
428,10,42969,2,0,P|372:10|305:10,1,106.399998701172,8|0,0:0|0:0,0:0:0:0:
238,40,43456,2,0,P|184:41|121:41,1,106.399998701172,8|0,0:0|0:0,0:0:0:0:
45,24,43942,1,8,0:0:0:0:
16,105,44104,1,8,0:0:0:0:
9,119,44186,1,8,0:0:0:0:
1,132,44267,6,0,P|51:115|107:124,1,106.399998701172,8|0,0:0|0:0,0:0:0:0:
181,164,44753,2,0,P|209:208|213:265,1,106.399998701172,8|0,0:0|0:0,0:0:0:0:
203,348,45240,1,8,0:0:0:0:
197,360,45564,2,0,P|252:360|313:360,1,106.399998701172,8|0,0:0|0:0,0:0:0:0:
389,330,46050,2,0,P|406:279|384:229,1,106.399998701172,8|0,0:0|0:0,0:0:0:0:
405,146,46537,1,10,0:0:0:0:
419,60,46699,1,8,0:0:0:0:
422,46,46780,1,8,0:0:0:0:
426,32,46861,6,0,L|365:32,1,53.1999993505859,10|0,0:0|0:0,0:0:0:0:
282,8,47186,2,0,B|287:64,1,53.1999993505859,10|0,0:0|0:0,0:0:0:0:
196,32,47510,2,0,L|135:32,1,53.1999993505859,10|0,0:0|0:0,0:0:0:0:
56,8,47835,2,0,B|61:64,1,53.1999993505859,8|2,0:0|0:0,0:0:0:0:
71,147,48158,5,8,0:0:0:0:
89,321,48483,1,8,0:0:0:0:
71,147,48807,1,8,0:0:0:0:
89,321,49131,1,10,0:0:0:0:
40,237,49294,1,10,0:0:0:0:
55,237,49375,1,8,0:0:0:0:
70,237,49456,6,0,L|128:235,1,53.1999993505859,10|8,0:0|0:0,0:0:0:0:
211,233,49780,2,0,L|269:231,1,53.1999993505859,10|10,0:0|0:0,0:0:0:0:
329,289,50104,1,8,0:0:0:0:
408,250,50267,1,8,0:0:0:0:
397,163,50429,1,10,0:0:0:0:
309,154,50591,1,8,0:0:0:0:
264,231,50753,6,0,L|212:231,1,47.6000002905273,4|0,3:3|0:0,0:0:0:0:
137,268,51077,2,0,P|64:258|5:174,1,159.599998051758,2|2,0:0|0:3,0:0:0:0:
73,369,52050,6,0,P|155:312|275:315,1,210,6|0,1:2|0:0,0:0:0:0:
350,333,52699,6,0,L|347:279,1,48.9999985046387,10|0,0:0|0:0,0:0:0:0:
436,326,53023,2,0,L|433:272,1,48.9999985046387,0|2,0:0|0:0,0:0:0:0:
432,260,53510,1,0,0:0:0:0:
495,184,53672,6,0,P|519:122|488:54,1,140,2|8,1:2|0:0,0:0:0:0:
415,18,54158,2,0,B|373:18|373:18|348:24|348:24|322:18|322:18|274:18,1,140,2|0,1:2|0:0,0:0:0:0:
196,79,54645,6,0,P|109:102|21:21,1,210,2|0,1:2|0:0,0:0:0:0:
32,111,55294,6,0,L|35:169,1,48.9999985046387,10|0,0:0|0:0,0:0:0:0:
40,243,55618,2,0,L|43:301,1,48.9999985046387,0|2,0:0|0:0,0:0:0:0:
43,307,56104,1,0,0:0:0:0:
141,275,56267,6,0,P|212:274|288:272,1,140,2|8,1:2|0:0,0:0:0:0:
341,208,56753,2,0,P|318:274|351:334,1,140,2|0,1:2|0:0,0:0:0:0:
448,357,57240,6,0,B|465:311|487:261|487:261|457:217|429:166,1,210,2|0,1:2|0:0,0:0:0:0:
434,84,57888,6,0,L|377:100,1,48.9999985046387,10|0,0:0|0:0,0:0:0:0:
438,0,58213,2,0,L|381:16,1,48.9999985046387,0|2,0:0|0:0,0:0:0:0:
377,19,58699,1,0,0:0:0:0:
279,51,58861,6,0,P|253:114|286:179,1,140,2|8,1:2|0:0,0:0:0:0:
260,261,59348,1,0,1:2:0:0:
260,261,59510,2,0,L|334:258,1,70,2|0,0:0|0:0,0:0:0:0:
383,350,59834,6,0,P|272:354|172:358,1,210,2|0,1:2|0:0,0:0:0:0:
82,365,60483,6,0,P|139:333|159:256,1,140,10|0,0:0|0:0,0:0:0:0:
255,277,60969,2,0,P|242:212|175:170,1,140,2|0,1:2|0:0,0:0:0:0:
225,88,61456,6,0,P|160:80|98:130,1,140,2|8,1:2|0:0,0:0:0:0:
36,57,61942,2,0,P|8:116|37:190,1,140,2|0,0:2|0:0,0:0:0:0:
0,279,62429,6,0,P|74:214|183:214,1,210,6|0,1:2|0:0,0:0:0:0:
266,239,63077,6,0,L|264:172,1,48.9999985046387,10|0,0:0|0:0,0:0:0:0:
349,213,63402,2,0,L|347:158,1,48.9999985046387,0|2,0:0|0:0,0:0:0:0:
347,149,63888,1,0,0:0:0:0:
398,62,64050,6,0,P|337:96|264:87,1,140,2|8,1:2|0:0,0:0:0:0:
210,155,64537,2,0,B|169:141|169:141|112:142|112:142|70:122,1,140,2|0,1:2|0:0,0:0:0:0:
31,35,65023,6,0,P|33:133|36:261,1,210,2|0,1:2|0:0,0:0:0:0:
111,292,65672,6,0,L|128:240,1,48.9999985046387,10|0,0:0|0:0,0:0:0:0:
167,359,65996,2,0,L|201:313,1,48.9999985046387,0|2,0:0|0:0,0:0:0:0:
206,308,66483,1,0,0:0:0:0:
301,278,66645,6,0,P|236:260|184:199,1,140,2|8,1:2|0:0,0:0:0:0:
160,124,67131,2,0,P|168:57|221:-2,1,140,2|0,1:2|0:0,0:0:0:0:
316,40,67618,6,0,B|368:58|419:39|419:39|470:24|528:40,1,210,2|0,1:2|0:0,0:0:0:0:
499,119,68267,6,0,L|451:119,1,48.9999985046387,10|0,0:0|0:0,0:0:0:0:
499,200,68591,2,0,L|451:200,1,48.9999985046387,0|2,0:0|0:0,0:0:0:0:
435,200,69077,1,0,0:0:0:0:
365,135,69240,6,0,P|390:201|362:270,1,140,2|8,1:2|0:0,0:0:0:0:
397,346,69726,1,0,1:2:0:0:
397,346,69888,2,0,L|325:346,1,70,2|0,0:0|0:0,0:0:0:0:
220,368,70213,6,0,P|117:370|61:289,1,210,2|0,1:2|0:0,0:0:0:0:
38,197,70861,6,0,B|42:95|42:95|54:113|70:128,1,140,10|0,0:0|0:0,0:0:0:0:
144,164,71348,2,0,B|178:175|212:164|212:164|250:153|284:162,1,140,2|0,1:2|0:0,0:0:0:0:
369,125,71834,5,0,1:2:0:0:
369,125,71996,2,0,L|443:125,1,70,2|8,0:0|0:0,0:0:0:0:
476,205,72321,1,0,0:0:0:0:
512,284,72483,2,0,P|467:328|423:324,1,105,2|0,0:0|0:0,0:0:0:0:
436,339,72807,6,0,B|373:339|373:339|332:351|332:351|292:339|292:339|225:340,1,210,4|0,1:2|0:0,0:0:0:0:
143,323,73456,6,0,L|148:387,2,48.9999985046387,10|2|0,0:0|0:0|0:0,0:0:0:0:
57,328,73942,2,0,L|62:392,2,48.9999985046387,0|2|0,0:0|0:0|0:0,0:0:0:0:
8,233,74429,6,0,B|55:236|55:236|96:220|96:220|146:222,1,140,2|8,1:2|0:0,0:0:0:0:
222,263,74915,2,0,P|285:288|353:262,1,140,2|0,1:2|0:0,0:0:0:0:
371,361,75402,6,0,P|398:254|502:211,1,210,2|0,1:2|0:0,0:0:0:0:
506,125,76050,6,0,L|501:68,2,48.9999985046387,10|2|0,0:0|0:0|0:0,0:0:0:0:
418,109,76537,2,0,L|414:56,2,48.9999985046387,0|2|0,0:0|0:0|0:0,0:0:0:0:
313,97,77023,5,0,1:2:0:0:
313,97,77186,2,0,L|243:97,1,70,2|8,0:0|0:0,0:0:0:0:
161,62,77510,1,0,1:2:0:0:
91,115,77672,2,0,P|72:163|98:213,1,105,2|0,0:0|0:0,0:0:0:0:
88,224,77996,6,0,B|158:219|158:219|226:235|226:235|301:229,1,210,2|0,1:2|0:0,0:0:0:0:
375,191,78645,6,0,L|400:140,2,48.9999985046387,10|2|0,0:0|0:0|0:0,0:0:0:0:
372,277,79131,2,0,L|403:324,2,48.9999985046387,0|2|0,0:0|0:0|0:0,0:0:0:0:
274,318,79618,6,0,P|207:335|138:319,1,140,2|8,1:2|0:0,0:0:0:0:
51,287,80104,1,0,1:2:0:0:
51,287,80267,2,0,L|54:363,1,70,2|0,0:0|0:0,0:0:0:0:
133,221,80591,6,0,P|130:117|127:11,1,210,2|0,1:2|0:0,0:0:0:0:
222,59,81240,6,0,P|292:59|365:59,1,140,10|0,0:0|0:0,0:0:0:0:
423,122,81726,2,0,P|407:186|334:196,1,140,2|0,1:2|0:0,0:0:0:0:
282,289,82213,5,0,1:2:0:0:
282,289,82375,2,0,L|288:374,1,70,2|8,0:0|0:0,0:0:0:0:
201,326,82699,1,0,0:0:0:0:
119,355,82861,2,0,P|75:357|19:329,1,105,2|0,0:0|0:0,0:0:0:0:
8,322,83186,6,0,P|-22:249|49:129,1,210,6|0,1:2|0:0,0:0:0:0:
121,141,83834,6,0,L|110:82,2,48.9999985046387,10|2|0,0:0|0:0|0:0,0:0:0:0:
206,141,84321,2,0,L|195:82,2,48.9999985046387,0|2|0,0:0|0:0|0:0,0:0:0:0:
158,229,84807,6,0,P|228:193|302:203,1,140,2|8,1:2|0:0,0:0:0:0:
324,117,85294,2,0,P|390:159|418:228,1,140,2|0,1:2|0:0,0:0:0:0:
512,172,85780,6,0,P|526:259|465:364,1,210,2|0,1:2|0:0,0:0:0:0:
388,322,86429,6,0,L|388:271,2,48.9999985046387,10|2|0,0:0|0:0|0:0,0:0:0:0:
309,364,86915,2,0,P|287:344|266:314,2,48.9999985046387,0|2|0,0:0|0:0|0:0,0:0:0:0:
190,366,87402,5,0,1:2:0:0:
190,366,87564,2,0,L|111:366,1,70,2|8,0:0|0:0,0:0:0:0:
65,298,87888,1,0,1:2:0:0:
10,230,88050,2,0,P|13:182|17:123,1,105,2|0,0:0|0:0,0:0:0:0:
8,114,88375,6,0,P|110:142|182:62,1,210,2|0,1:2|0:0,0:0:0:0:
250,133,89023,6,0,P|274:131|298:133,2,48.9999985046387,10|2|0,0:0|0:0|0:0,0:0:0:0:
265,50,89510,2,0,P|251:29|240:7,2,48.9999985046387,0|2|0,0:0|0:0|0:0,0:0:0:0:
371,69,89996,6,0,P|441:67|514:65,1,140,2|8,1:2|0:0,0:0:0:0:
468,150,90483,1,0,1:2:0:0:
468,150,90645,2,0,L|539:148,1,70,2|0,0:0|0:0,0:0:0:0:
512,250,90969,6,0,P|452:345|348:339,1,210,2|0,1:2|0:0,0:0:0:0:
263,384,91618,6,0,P|262:313|261:234,1,140,10|0,0:0|0:0,0:0:0:0:
191,182,92104,2,0,P|190:111|188:38,1,128.79999567627,2|0,1:2|0:0,0:0:0:0:
297,80,92591,6,0,P|355:96|414:80,1,120.400001837158,2|8,1:2|0:0,0:0:0:0:
496,100,93077,2,0,P|453:117|420:166,1,106.399998701172,2|0,0:0|0:0,0:0:0:0:
507,188,93564,5,0,1:2:0:0:
510,191,94375,5,0,0:0:0:0:
510,191,94537,2,0,L|517:254,1,53.1999993505859,2|0,0:0|0:0,0:0:0:0:
445,297,94861,2,0,L|452:360,1,53.1999993505859,2|0,0:0|0:0,0:0:0:0:
361,333,95186,2,0,P|310:346|252:333,1,106.399998701172,2|2,0:0|0:0,0:0:0:0:
172,352,95672,1,2,0:0:0:0:
86,369,95834,1,2,0:0:0:0:
73,373,96158,6,0,B|90:236|90:236|64:271|37:295,1,212.799997402344,0|8,1:2|0:0,0:0:0:0:
216,277,97131,2,0,L|288:271,1,53.1999993505859,2|0,0:0|1:2,0:0:0:0:
349,310,97456,2,0,P|403:316|450:288,1,106.399998701172,2|2,0:0|1:2,0:0:0:0:
477,209,97942,1,0,0:0:0:0:
439,130,98104,2,0,L|436:70,2,53.1999993505859,10|2|2,0:0|0:0|0:0,0:0:0:0:
449,140,98753,6,0,B|377:140|377:140|346:153|346:153|312:140|312:140|236:140,1,212.799997402344,0|8,1:2|0:0,0:0:0:0:
118,96,99645,2,0,L|117:69,1,26.599999675293,0|2,0:0|0:0,0:0:0:0:
70,169,99888,1,0,1:2:0:0:
20,242,100050,2,0,P|23:299|26:359,2,106.399998701172,2|2|10,0:0|1:2|0:0,0:0:0:0:
70,169,100861,1,2,0:0:0:0:
118,96,101023,1,2,0:0:0:0:
110,82,101348,6,0,P|212:88|282:3,1,212.799997402344,0|8,1:2|0:0,0:0:0:0:
371,110,102240,2,0,L|369:75,1,26.599999675293,0|2,0:0|0:0,0:0:0:0:
456,133,102483,1,0,1:2:0:0:
393,196,102645,2,0,P|396:249|399:313,1,106.399998701172,2|0,0:0|1:2,0:0:0:0:
231,364,103294,2,0,L|223:304,2,53.1999993505859,10|2|2,0:0|0:0|0:0,0:0:0:0:
233,378,103942,6,0,B|181:392|127:378|127:378|75:364|22:376,1,212.799997402344,0|8,1:2|0:0,0:0:0:0:
237,216,105077,1,0,1:2:0:0:
237,216,105240,2,0,P|279:246|347:250,1,106.399998701172,2|0,0:0|1:2,0:0:0:0:
416,225,105726,2,0,P|446:183|451:115,1,106.399998701172,2|0,0:0|0:0,0:0:0:0:
425,47,106213,1,2,0:0:0:0:
315,184,106537,5,0,1:2:0:0:
315,184,106699,2,0,P|317:238|320:299,1,106.399998701172,2|0,0:0|0:0,0:0:0:0:
257,354,107186,2,0,P|329:318|418:320,1,159.599998051758,8|0,0:0|1:2,0:0:0:0:
478,156,107996,1,0,0:0:0:0:
478,156,108158,2,0,P|425:156|362:156,1,106.399998701172,2|10,1:2|0:0,0:0:0:0:
283,156,108645,1,2,0:0:0:0:
195,156,108807,1,2,0:0:0:0:
181,150,109131,6,0,P|212:231|326:250,1,212.799997402344,0|8,1:2|0:0,0:0:0:0:
89,362,110267,2,0,P|35:359|-25:356,1,106.399998701172,0|0,1:2|0:0,0:0:0:0:
8,272,110753,2,0,L|3:214,1,53.1999993505859,2|0,1:2|0:0,0:0:0:0:
4,131,111077,2,0,L|-1:73,2,53.1999993505859,10|0|2,0:0|0:0|0:0,0:0:0:0:
0,145,111726,6,0,B|52:124|104:145|104:145|159:168|213:149,1,212.799997402344,0|8,1:2|0:0,0:0:0:0:
382,347,112861,1,2,1:2:0:0:
382,347,113023,2,0,L|324:354,1,53.1999993505859,2|0,0:0|0:0,0:0:0:0:
247,322,113348,1,0,1:2:0:0:
163,295,113510,2,0,P|147:247|172:189,1,106.399998701172,2|0,0:0|0:0,0:0:0:0:
247,163,113996,1,2,0:0:0:0:
256,345,114321,5,6,0:0:0:0:
256,192,114402,12,2,116915,0:0:0:0:
377,83,119186,6,0,L|382:142,1,47.6000002905273,2|0,0:0|0:0,0:0:0:0:
328,188,119510,2,0,P|387:186|436:210,2,95.2000005810547,2|2|2,0:0|0:0|0:0,0:0:0:0:
188,110,120483,1,0,0:0:0:0:
188,110,120645,2,0,B|145:110|145:110|116:117|116:117|88:110|88:110|41:110,1,142.800000871582,2|0,0:0|0:0,0:0:0:0:
31,103,121780,6,0,P|67:133|77:182,2,95.2000005810547,2|2|2,0:0|0:0|0:0,0:0:0:0:
190,119,122753,2,0,P|237:116|285:113,1,95.2000005810547,2|0,0:0|0:0,0:0:0:0:
362,134,123240,2,0,P|410:131|457:128,2,95.2000005810547,2|2|2,0:0|0:0|0:0,0:0:0:0:
374,291,124213,1,0,0:0:0:0:
374,291,124375,1,2,0:0:0:0:
216,306,124699,6,0,P|164:318|109:304,1,106.399998701172,10|0,0:0|0:0,0:0:0:0:
38,257,125185,2,0,P|13:210|14:153,1,106.399998701172,8|0,0:0|0:0,0:0:0:0:
45,75,125672,1,8,0:0:0:0:
38,63,125996,6,0,P|90:62|159:62,1,106.399998701172,8|0,0:0|0:0,0:0:0:0:
229,35,126483,2,0,B|258:48|258:48|299:48|299:48|331:64,1,106.399998701172,8|0,0:0|0:0,0:0:0:0:
403,112,126969,1,8,0:0:0:0:
477,160,127131,1,8,0:0:0:0:
491,168,127213,1,8,0:0:0:0:
504,175,127294,6,0,P|474:219|472:273,1,106.399998701172,8|0,0:0|0:0,0:0:0:0:
388,238,127780,2,0,P|337:239|281:239,1,106.399998701172,8|0,0:0|0:0,0:0:0:0:
195,259,128267,1,8,0:0:0:0:
182,263,128591,6,0,P|132:264|76:264,1,106.399998701172,8|0,0:0|0:0,0:0:0:0:
11,205,129077,2,0,P|-7:155|13:104,1,106.399998701172,8|0,0:0|0:0,0:0:0:0:
0,19,129564,1,10,0:0:0:0:
81,54,129726,1,10,0:0:0:0:
95,53,129807,1,8,0:0:0:0:
109,52,129888,6,0,L|186:45,1,53.1999993505859,10|0,0:0|0:0,0:0:0:0:
206,141,130213,2,0,L|129:134,1,53.1999993505859,10|0,0:0|0:0,0:0:0:0:
109,230,130537,2,0,L|186:223,1,53.1999993505859,10|0,0:0|0:0,0:0:0:0:
206,319,130862,2,0,L|129:312,1,53.1999993505859,8|2,0:0|0:0,0:0:0:0:
85,371,131186,5,8,0:0:0:0:
280,358,131510,1,8,0:0:0:0:
85,371,131834,1,8,0:0:0:0:
280,358,132158,1,10,0:0:0:0:
179,328,132321,1,10,0:0:0:0:
178,313,132402,1,8,0:0:0:0:
178,298,132483,6,0,L|175:239,1,53.1999993505859,10|8,0:0|0:0,0:0:0:0:
171,160,132807,2,0,L|168:101,1,53.1999993505859,10|10,0:0|0:0,0:0:0:0:
208,28,133131,1,8,0:0:0:0:
118,31,133294,1,8,0:0:0:0:
92,121,133456,1,10,0:0:0:0:
172,174,133618,1,8,0:0:0:0:
247,116,133780,6,0,L|308:114,1,47.6000002905273,4|0,3:0|0:0,0:0:0:0:
374,88,134104,2,0,P|327:142|317:216,1,142.800000871582,2|2,0:0|0:3,0:0:0:0:
58,158,135077,6,0,P|81:225|201:298,1,210,6|0,1:2|0:0,0:0:0:0:
276,266,135726,6,0,L|331:264,1,48.9999985046387,10|0,0:0|0:0,0:0:0:0:
267,348,136050,2,0,L|322:346,1,48.9999985046387,0|2,0:0|0:0,0:0:0:0:
334,346,136537,1,0,0:0:0:0:
413,284,136699,6,0,P|438:220|407:157,1,140,2|8,1:2|0:0,0:0:0:0:
457,87,137186,2,0,P|399:125|324:116,1,140,2|0,1:2|0:0,0:0:0:0:
240,69,137672,6,0,B|226:50|208:30|208:30|214:114|220:199,1,210,2|0,1:2|0:0,0:0:0:0:
250,272,138321,6,0,L|202:274,1,48.9999985046387,10|0,0:0|0:0,0:0:0:0:
257,356,138645,2,0,L|209:358,1,48.9999985046387,0|2,0:0|0:0,0:0:0:0:
190,359,139131,1,0,0:0:0:0:
104,302,139294,6,0,B|88:271|70:242|70:242|81:207|92:170,1,140,2|8,1:2|0:0,0:0:0:0:
163,124,139780,2,0,P|232:124|304:124,1,140,2|0,1:2|0:2,0:0:0:0:
400,158,140267,6,0,P|466:153|510:31,1,210,2|0,1:2|0:0,0:0:0:0:
431,0,140915,6,0,L|380:0,1,48.9999985046387,10|0,0:0|0:0,0:0:0:0:
299,16,141240,2,0,L|248:16,1,48.9999985046387,0|2,0:0|0:0,0:0:0:0:
233,16,141726,1,0,0:0:0:0:
199,114,141888,6,0,P|269:114|343:114,1,140,2|8,1:2|0:0,0:0:0:0:
419,70,142375,1,0,1:2:0:0:
419,70,142537,2,0,L|428:139,1,70,2|0,0:0|0:0,0:0:0:0:
474,237,142861,6,0,P|370:261|322:364,1,210,2|0,1:2|0:0,0:0:0:0:
223,311,143510,6,0,P|152:313|84:315,1,140,10|0,0:0|0:0,0:0:0:0:
35,384,143996,2,0,P|33:313|31:245,1,140,2|0,1:2|0:0,0:0:0:0:
74,147,144483,6,0,P|145:145|213:143,1,140,2|8,1:2|0:0,0:0:0:0:
271,211,144969,2,0,P|269:141|266:71,1,140,2|0,0:0|0:0,0:0:0:0:
366,34,145456,6,0,B|390:78|418:125|418:125|397:174|378:222,1,210,6|0,1:2|0:0,0:0:0:0:
383,311,146104,6,0,P|355:304|328:301,1,48.9999985046387,10|0,0:0|0:0,0:0:0:0:
250,302,146429,2,0,P|225:305|202:311,1,48.9999985046387,0|2,0:0|0:0,0:0:0:0:
188,318,146915,1,0,0:0:0:0:
201,211,147077,6,0,P|189:147|176:71,1,140,2|8,1:2|0:0,0:0:0:0:
121,5,147564,2,0,P|181:38|256:31,1,140,2|0,1:2|0:0,0:0:0:0:
351,70,148050,6,0,P|397:163|356:253,1,210,2|0,1:2|0:0,0:0:0:0:
278,294,148699,6,0,L|319:342,1,48.9999985046387,10|0,0:0|0:0,0:0:0:0:
242,384,149023,2,0,L|210:346,1,48.9999985046387,0|2,0:0|0:0,0:0:0:0:
200,334,149510,1,0,0:0:0:0:
136,257,149672,6,0,P|202:279|272:256,1,140,2|8,1:2|0:0,0:0:0:0:
347,296,150158,2,0,B|397:294|397:294|432:310|432:310|486:309,1,140,2|0,1:2|0:0,0:0:0:0:
498,201,150645,6,0,B|513:46|513:46|492:67|474:84,1,210,2|0,1:2|0:0,0:0:0:0:
391,48,151294,6,0,P|384:76|385:98,1,48.9999985046387,10|0,0:0|0:0,0:0:0:0:
296,109,151618,2,0,P|303:136|315:155,1,48.9999985046387,0|2,0:0|0:0,0:0:0:0:
327,166,152104,1,0,0:0:0:0:
384,248,152267,6,0,P|320:221|247:228,1,140,2|8,1:2|0:0,0:0:0:0:
169,192,152753,1,0,1:2:0:0:
169,192,152915,2,0,L|93:192,1,70,2|0,0:0|0:0,0:0:0:0:
48,285,153240,6,0,P|94:367|201:363,1,210,2|0,1:2|0:0,0:0:0:0:
291,328,153888,6,0,B|337:328|337:328|360:335|360:335|381:328|381:328|440:328,1,140,10|0,0:0|0:0,0:0:0:0:
511,355,154375,2,0,P|459:309|456:229,1,140,2|0,1:2|0:0,0:0:0:0:
482,152,154861,5,0,1:2:0:0:
482,152,155023,2,0,L|498:83,1,70,2|8,0:0|0:0,0:0:0:0:
409,104,155348,1,0,0:0:0:0:
322,123,155510,2,0,P|270:131|218:111,1,105,2|0,0:0|0:0,0:0:0:0:
214,126,155834,6,0,P|111:128|54:209,1,210,6|0,1:2|0:0,0:0:0:0:
58,295,156483,6,0,L|5:297,2,48.9999985046387,10|2|0,0:0|0:0|0:0,0:0:0:0:
64,379,156969,2,0,L|11:381,2,48.9999985046387,0|2|0,0:0|0:0|0:0,0:0:0:0:
159,333,157456,6,0,B|197:342|228:332|228:332|261:322|301:330,1,140,2|8,1:2|0:0,0:0:0:0:
382,351,157942,2,0,P|455:357|502:314,1,140,2|0,1:2|0:0,0:0:0:0:
496,210,158429,6,0,P|492:113|487:-3,1,210,2|0,1:2|0:0,0:0:0:0:
400,31,159077,6,0,L|400:83,2,48.9999985046387,10|2|0,0:0|0:0|0:0,0:0:0:0:
314,2,159564,2,0,L|311:52,2,48.9999985046387,0|2|0,0:0|0:0|0:0,0:0:0:0:
213,26,160050,5,0,1:2:0:0:
213,26,160213,2,0,L|124:26,1,70,2|8,0:0|0:0,0:0:0:0:
72,76,160537,1,0,1:2:0:0:
0,125,160699,2,0,P|11:169|74:204,1,105,2|0,0:0|0:0,0:0:0:0:
52,215,161023,6,0,B|123:209|123:209|186:235|186:235|257:229,1,210,2|0,1:2|0:0,0:0:0:0:
307,301,161672,6,0,L|268:345,2,48.9999985046387,10|2|0,0:0|0:0|0:0,0:0:0:0:
391,321,162158,2,0,L|394:379,2,48.9999985046387,0|2|0,0:0|0:0|0:0,0:0:0:0:
444,231,162645,6,0,P|466:166|425:98,1,140,2|8,1:2|0:0,0:0:0:0:
455,21,163131,1,0,1:2:0:0:
455,21,163294,2,0,L|381:26,1,70,2|0,0:0|0:0,0:0:0:0:
300,92,163618,6,0,P|190:89|85:87,1,210,2|0,1:2|0:0,0:0:0:0:
28,23,164267,6,0,P|33:95|39:166,1,140,10|0,0:0|0:0,0:0:0:0:
47,250,164753,2,0,P|99:296|187:280,1,140,2|0,1:2|0:0,0:0:0:0:
254,345,165240,5,0,1:2:0:0:
254,345,165402,2,0,L|342:345,1,70,2|8,0:0|0:0,0:0:0:0:
406,377,165726,1,0,0:0:0:0:
488,345,165888,2,0,P|507:295|482:247,1,105,2|0,0:0|0:0,0:0:0:0:
496,237,166213,6,0,B|340:229|340:229|365:213|386:198,1,210,6|0,1:2|0:0,0:0:0:0:
460,147,166861,6,0,L|454:95,2,48.9999985046387,10|2|0,0:0|0:0|0:0,0:0:0:0:
384,198,167348,2,0,L|326:198,2,48.9999985046387,0|2|0,0:0|0:0|0:0,0:0:0:0:
473,261,167834,6,0,P|468:328|381:368,1,140,2|8,1:2|0:0,0:0:0:0:
325,351,168321,2,0,B|285:351|285:351|256:357|256:357|228:351|228:351|183:351,1,140,2|0,1:2|0:0,0:0:0:0:
107,282,168807,6,0,B|80:231|107:180|107:180|130:134|109:75,1,210,2|0,1:2|0:0,0:0:0:0:
204,86,169456,6,0,P|213:63|219:39,2,48.9999985046387,10|2|0,0:0|0:0|0:0,0:0:0:0:
276,141,169942,2,0,P|300:138|323:131,2,48.9999985046387,0|2|0,0:0|0:0|0:0,0:0:0:0:
212,224,170429,5,0,1:2:0:0:
212,224,170591,2,0,L|217:297,1,70,2|8,0:0|0:0,0:0:0:0:
190,377,170915,1,0,1:2:0:0:
275,361,171077,2,0,P|325:361|398:361,1,105,2|0,0:0|0:0,0:0:0:0:
371,347,171402,6,0,P|459:344|484:231,1,210,2|0,1:2|0:0,0:0:0:0:
459,160,172050,6,0,L|459:99,2,48.9999985046387,10|2|0,0:0|0:0|0:0,0:0:0:0:
373,160,172537,2,0,L|373:99,2,48.9999985046387,0|2|0,0:0|0:0|0:0,0:0:0:0:
271,138,173023,6,0,B|240:149|202:138|202:138|166:127|120:138,1,140,2|8,1:2|0:0,0:0:0:0:
49,173,173510,1,0,1:2:0:0:
49,173,173672,2,0,L|44:103,1,70,2|0,0:0|0:0,0:0:0:0:
0,9,173996,6,0,B|47:44|47:44|139:44|139:44|192:75,1,210,2|0,1:2|0:0,0:0:0:0:
193,173,174645,6,0,P|226:112|301:96,1,140,10|0,0:0|0:0,0:0:0:0:
375,58,175131,2,0,P|379:123|384:204,1,128.79999567627,2|0,1:2|0:0,0:0:0:0:
427,279,175618,6,0,P|398:338|327:346,1,120.400001837158,2|8,1:2|0:0,0:0:0:0:
263,338,176104,2,0,P|210:338|155:338,1,106.399998701172,2|0,0:2|0:0,0:0:0:0:
63,338,176591,5,2,0:0:0:0:
