osu file format v14

[General]
AudioFilename: audio.mp3
AudioLeadIn: 0
PreviewTime: -1
Countdown: 0
SampleSet: Normal
StackLeniency: 0.6
Mode: 0
LetterboxInBreaks: 0
WidescreenStoryboard: 0

[Editor]
DistanceSpacing: 0.1
BeatDivisor: 4
GridSize: 4
TimelineZoom: 0.6999999

[Metadata]
Title:dontmineat2am
TitleUnicode:dontmineat2am
Artist:Lexion
ArtistUnicode:Lexion
Creator:Nidasimno
Version:Bitcoin Mining
Source:
Tags:
BeatmapID:1824916
BeatmapSetID:873033

[Difficulty]
HPDrainRate:8
CircleSize:4
OverallDifficulty:8
ApproachRate:0
SliderMultiplier:2
SliderTickRate:1

[Events]
//Background and Video events
0,0,"letlts.png",0,0
//Break Periods
//Storyboard Layer 0 (Background)
//Storyboard Layer 1 (Fail)
//Storyboard Layer 2 (Pass)
//Storyboard Layer 3 (Foreground)
//Storyboard Sound Samples

[TimingPoints]
0,238.095238095238,4,1,0,50,1,0

[HitObjects]
0,22,15238,5,0,0:0:0:0:
42,89,15476,1,0,0:0:0:0:
87,154,15714,1,0,0:0:0:0:
0,22,15952,1,0,0:0:0:0:
42,89,16190,1,0,0:0:0:0:
42,89,16428,1,0,0:0:0:0:
87,154,16666,1,0,0:0:0:0:
42,89,16904,1,0,0:0:0:0:
0,362,17142,5,0,0:0:0:0:
42,295,17380,1,0,0:0:0:0:
87,230,17618,1,0,0:0:0:0:
0,362,17856,1,0,0:0:0:0:
42,295,18094,1,0,0:0:0:0:
42,295,18332,1,0,0:0:0:0:
87,230,18570,1,0,0:0:0:0:
42,295,18808,1,0,0:0:0:0:
250,22,19047,5,0,0:0:0:0:
208,89,19285,1,0,0:0:0:0:
163,154,19523,1,0,0:0:0:0:
250,22,19761,1,0,0:0:0:0:
208,89,19999,1,0,0:0:0:0:
208,89,20237,1,0,0:0:0:0:
163,154,20475,1,0,0:0:0:0:
208,89,20713,1,0,0:0:0:0:
250,362,20951,5,0,0:0:0:0:
208,295,21189,1,0,0:0:0:0:
163,230,21427,1,0,0:0:0:0:
250,362,21666,1,0,0:0:0:0:
208,295,21903,1,0,0:0:0:0:
208,295,22141,1,0,0:0:0:0:
163,230,22379,1,0,0:0:0:0:
208,295,22617,1,0,0:0:0:0:
301,40,22857,5,0,0:0:0:0:
301,119,23095,1,0,0:0:0:0:
301,198,23333,1,0,0:0:0:0:
301,40,23571,1,0,0:0:0:0:
301,119,23809,1,0,0:0:0:0:
301,119,24047,1,0,0:0:0:0:
301,198,24285,1,0,0:0:0:0:
301,119,24523,1,0,0:0:0:0:
301,344,24761,5,0,0:0:0:0:
301,265,24999,1,0,0:0:0:0:
301,186,25237,1,0,0:0:0:0:
301,344,25475,1,0,0:0:0:0:
301,265,25713,1,0,0:0:0:0:
301,265,25951,1,0,0:0:0:0:
301,186,26189,1,0,0:0:0:0:
301,265,26427,1,0,0:0:0:0:
394,49,26666,5,0,0:0:0:0:
461,91,26904,1,0,0:0:0:0:
497,162,27142,1,0,0:0:0:0:
394,49,27380,1,0,0:0:0:0:
461,91,27619,1,0,0:0:0:0:
461,91,27857,1,0,0:0:0:0:
497,162,28095,1,0,0:0:0:0:
461,91,28333,1,0,0:0:0:0:
394,335,28571,5,0,0:0:0:0:
461,293,28809,1,0,0:0:0:0:
497,222,29047,1,0,0:0:0:0:
394,335,29285,1,0,0:0:0:0:
461,293,29524,1,0,0:0:0:0:
461,293,29762,1,0,0:0:0:0:
497,222,30000,1,0,0:0:0:0:
461,293,30238,1,0,0:0:0:0:
0,22,30476,5,0,0:0:0:0:
4,28,30595,1,0,0:0:0:0:
9,36,30714,1,0,0:0:0:0:
15,43,30833,1,0,0:0:0:0:
21,52,30952,1,0,0:0:0:0:
26,58,31071,1,0,0:0:0:0:
32,66,31190,1,0,0:0:0:0:
38,73,31309,1,0,0:0:0:0:
43,81,31428,1,0,0:0:0:0:
49,88,31547,1,0,0:0:0:0:
54,96,31666,1,0,0:0:0:0:
60,103,31785,1,0,0:0:0:0:
65,111,31904,1,0,0:0:0:0:
70,118,32023,1,0,0:0:0:0:
76,126,32142,1,0,0:0:0:0:
82,134,32261,1,0,0:0:0:0:
87,142,32380,1,0,0:0:0:0:
93,150,32499,1,0,0:0:0:0:
98,157,32618,1,0,0:0:0:0:
105,165,32737,1,0,0:0:0:0:
110,172,32856,1,0,0:0:0:0:
115,180,32975,1,0,0:0:0:0:
121,187,33095,1,0,0:0:0:0:
126,195,33214,1,0,0:0:0:0:
131,202,33333,1,0,0:0:0:0:
137,210,33452,1,0,0:0:0:0:
143,217,33571,1,0,0:0:0:0:
148,225,33690,1,0,0:0:0:0:
154,232,33809,1,0,0:0:0:0:
159,240,33928,1,0,0:0:0:0:
165,247,34047,1,0,0:0:0:0:
171,255,34166,1,0,0:0:0:0:
177,263,34285,1,0,0:0:0:0:
183,270,34404,1,0,0:0:0:0:
188,278,34523,1,0,0:0:0:0:
194,285,34642,1,0,0:0:0:0:
199,293,34761,1,0,0:0:0:0:
205,300,34880,1,0,0:0:0:0:
211,308,34999,1,0,0:0:0:0:
217,315,35119,1,0,0:0:0:0:
222,323,35238,1,0,0:0:0:0:
228,330,35357,1,0,0:0:0:0:
233,338,35476,1,0,0:0:0:0:
239,345,35595,1,0,0:0:0:0:
245,353,35714,1,0,0:0:0:0:
256,14,35833,1,0,0:0:0:0:
250,23,35952,1,0,0:0:0:0:
245,29,36071,1,0,0:0:0:0:
240,38,36190,1,0,0:0:0:0:
234,44,36309,1,0,0:0:0:0:
229,53,36428,1,0,0:0:0:0:
223,59,36547,1,0,0:0:0:0:
218,67,36666,1,0,0:0:0:0:
212,74,36785,1,0,0:0:0:0:
206,82,36904,1,0,0:0:0:0:
200,89,37023,1,0,0:0:0:0:
196,96,37142,1,0,0:0:0:0:
190,104,37261,1,0,0:0:0:0:
184,111,37380,1,0,0:0:0:0:
179,119,37499,1,0,0:0:0:0:
173,126,37618,1,0,0:0:0:0:
168,134,37737,1,0,0:0:0:0:
162,141,37856,1,0,0:0:0:0:
157,149,37975,1,0,0:0:0:0:
151,156,38094,1,0,0:0:0:0:
145,164,38213,1,0,0:0:0:0:
139,171,38332,1,0,0:0:0:0:
135,179,38451,1,0,0:0:0:0:
130,186,38570,1,0,0:0:0:0:
124,194,38689,1,0,0:0:0:0:
118,202,38808,1,0,0:0:0:0:
112,210,38927,1,0,0:0:0:0:
107,218,39046,1,0,0:0:0:0:
101,225,39165,1,0,0:0:0:0:
95,233,39284,1,0,0:0:0:0:
90,240,39403,1,0,0:0:0:0:
85,248,39522,1,0,0:0:0:0:
79,255,39642,1,0,0:0:0:0:
74,263,39761,1,0,0:0:0:0:
68,270,39880,1,0,0:0:0:0:
63,278,39999,1,0,0:0:0:0:
57,285,40118,1,0,0:0:0:0:
52,293,40237,1,0,0:0:0:0:
46,300,40356,1,0,0:0:0:0:
40,308,40475,1,0,0:0:0:0:
34,315,40594,1,0,0:0:0:0:
29,323,40713,1,0,0:0:0:0:
23,331,40832,1,0,0:0:0:0:
256,192,40952,8,0,49523,0:0:0:0:
301,40,53333,5,0,0:0:0:0:
301,344,55238,5,0,0:0:0:0:
301,344,55476,5,0,0:0:0:0:
301,344,55714,5,0,0:0:0:0:
301,344,55952,5,0,0:0:0:0:
301,344,56190,5,0,0:0:0:0:
301,344,56428,5,0,0:0:0:0:
301,40,57142,5,0,0:0:0:0:
301,40,59047,5,0,0:0:0:0:
301,40,59285,5,0,0:0:0:0:
301,344,59999,5,0,0:0:0:0:
301,344,60237,5,0,0:0:0:0:
301,40,60952,5,0,0:0:0:0:
461,91,62857,5,0,0:0:0:0:
497,162,63333,5,0,0:0:0:0:
497,222,63809,5,0,0:0:0:0:
461,293,64761,5,0,0:0:0:0:
461,293,66666,5,0,0:0:0:0:
