osu file format v14

[General]
AudioFilename: audio.mp3
AudioLeadIn: 0
PreviewTime: 0
Countdown: 1
SampleSet: Soft
StackLeniency: 0.7
Mode: 0
LetterboxInBreaks: 0
WidescreenStoryboard: 0

[Editor]
DistanceSpacing: 1
BeatDivisor: 4
GridSize: 4
TimelineZoom: 1

[Metadata]
Title:Conveyor Belts
TitleUnicode:Conveyor Belts
Artist:Lexi & The Cheap Disaster
ArtistUnicode:Lexi & The Cheap Disaster
Creator:CypherConjured
Version:Normal
Source:
Tags:Chiptune disasterpeace famicom 8bit
BeatmapID:1295346
BeatmapSetID:614006

[Difficulty]
HPDrainRate:4
CircleSize:4
OverallDifficulty:4
ApproachRate:4
SliderMultiplier:0.7
SliderTickRate:1

[Events]
//Background and Video events
0,0,"s2-misc-betaimg11.png",0,0
//Break Periods
//Storyboard Layer 0 (Background)
//Storyboard Layer 1 (Fail)
//Storyboard Layer 2 (Pass)
//Storyboard Layer 3 (Foreground)
//Storyboard Sound Samples

[TimingPoints]
0,333.333333333333,4,2,0,100,1,0
37333,333.333333333333,4,2,0,100,1,0
65999,333.333333333333,4,2,0,100,1,0

[HitObjects]
188,192,0,6,0,L|116:192,2,70
256,192,999,1,0,0:0:0:0:
320,220,1333,2,0,P|388:216|368:168,1,140
324,124,2333,5,0,0:0:0:0:
256,124,2666,1,0,0:0:0:0:
188,124,2999,2,0,L|116:124,2,70
256,124,3999,1,0,0:0:0:0:
324,124,4333,1,0,0:0:0:0:
392,124,4666,2,0,P|440:160|388:192,1,140
320,192,5666,5,0,0:0:0:0:
252,192,5999,2,0,L|176:192,1,70
116,192,6666,2,0,L|40:192,2,70
180,192,7666,2,0,L|246:224,1,70
304,240,8333,2,0,L|380:240,2,70
240,240,9333,2,0,L|168:240,1,70
160,148,9999,5,0,0:0:0:0:
220,116,10333,1,0,0:0:0:0:
260,172,10666,2,0,P|328:228|416:168,1,210
444,104,11999,2,0,P|420:64|384:52,1,70
332,40,12666,2,0,L|272:80,1,70
216,116,13333,1,0,0:0:0:0:
216,184,13666,1,0,0:0:0:0:
80,96,14333,5,0,0:0:0:0:
64,164,14666,1,0,0:0:0:0:
100,224,14999,1,0,0:0:0:0:
168,248,15333,1,0,0:0:0:0:
228,212,15666,1,0,0:0:0:0:
292,184,15999,2,0,P|352:144|336:80,2,140
224,188,17666,2,0,P|160:232|196:324,2,175
296,188,19666,1,0,0:0:0:0:
368,192,20000,2,0,P|416:152|360:124,1,140
296,120,21000,5,0,0:0:0:0:
228,120,21333,1,0,0:0:0:0:
160,120,21666,2,0,L|88:120,2,70
228,120,22666,1,0,0:0:0:0:
296,120,23000,1,0,0:0:0:0:
364,120,23333,2,0,P|396:152|384:184,1,70
392,244,23999,6,0,B|168:276|168:276|92:260|60:216,1,350
12,168,25999,2,0,B|12:72|12:72|84:192|312:84,1,420
380,100,28333,1,0,0:0:0:0:
336,168,28666,1,0,0:0:0:0:
268,208,28999,1,0,0:0:0:0:
196,232,29333,6,0,P|104:264|120:176,1,210
168,152,30666,2,0,L|312:152,1,140
368,192,31666,1,0,0:0:0:0:
432,160,31999,1,0,0:0:0:0:
436,232,32333,1,0,0:0:0:0:
300,256,32999,5,0,0:0:0:0:
236,288,33333,2,0,L|236:216,1,70
176,256,33999,1,2,0:0:0:0:
116,156,34666,2,0,B|236:84|236:84|348:156|348:156|480:156|480:156|480:240,1,490
412,284,37333,6,0,L|336:284,1,70
272,284,37999,2,0,L|192:284,1,70
132,288,38666,2,0,L|56:288,2,70
132,216,39666,1,0,0:0:0:0:
128,148,39999,2,0,L|204:148,1,70
268,148,40666,2,0,P|344:148|348:148,3,70
408,148,41999,6,0,P|424:184|404:208,1,70
340,216,42666,2,0,L|264:216,1,70
200,220,43333,2,0,L|124:220,3,70
60,224,44666,2,0,L|92:288,1,70
116,344,45333,6,0,L|192:344,1,70
256,344,45999,2,0,L|328:344,3,70
328,272,47333,1,0,0:0:0:0:
328,204,47666,1,0,0:0:0:0:
328,136,47999,6,0,P|368:56|304:76,1,210
260,132,49333,2,0,L|180:132,3,70
152,72,50666,1,0,0:0:0:0:
124,136,50999,1,0,0:0:0:0:
140,276,51666,1,0,0:0:0:0:
280,276,52333,1,0,0:0:0:0:
420,276,52999,1,2,0:0:0:0:
256,192,53333,12,0,55999,0:0:0:0:
256,192,56999,6,0,L|328:192,1,70
396,192,57666,1,0,0:0:0:0:
256,188,58333,2,0,L|172:188,1,70
116,188,58999,1,0,0:0:0:0:
256,188,59666,2,0,L|336:188,1,70
396,188,60333,1,0,0:0:0:0:
256,192,60999,2,0,L|172:192,2,70
256,192,61999,12,0,65999,0:0:0:0:
