osu file format v14

[General]
AudioFilename: audio.mp3
AudioLeadIn: 0
PreviewTime: 0
Countdown: 1
SampleSet: Normal
StackLeniency: 0.7
Mode: 0
LetterboxInBreaks: 0
WidescreenStoryboard: 1

[Editor]
DistanceSpacing: 1
BeatDivisor: 3
GridSize: 4
TimelineZoom: 1.300001

[Metadata]
Title:Conveyor Belts
TitleUnicode:Conveyor Belts
Artist:Lexi & The Cheap Disaster
ArtistUnicode:Lexi & The Cheap Disaster
Creator:CypherConjured
Version:Advanced
Source:
Tags:Chiptune disasterpeace famicom 8bit
BeatmapID:1300221
BeatmapSetID:614006

[Difficulty]
HPDrainRate:6
CircleSize:5
OverallDifficulty:6
ApproachRate:6
SliderMultiplier:0.8
SliderTickRate:1

[Events]
//Background and Video events
0,0,"s2-misc-betaimg11.png",0,0
//Break Periods
//Storyboard Layer 0 (Background)
//Storyboard Layer 1 (Fail)
//Storyboard Layer 2 (Pass)
//Storyboard Layer 3 (Foreground)
//Storyboard Sound Samples

[TimingPoints]
0,333.333333333333,4,1,0,100,1,0

[HitObjects]
204,260,0,5,0,0:0:0:0:
248,192,333,1,0,0:0:0:0:
288,260,666,1,0,0:0:0:0:
328,192,999,1,0,0:0:0:0:
372,260,1333,1,0,0:0:0:0:
412,192,1666,1,0,0:0:0:0:
456,260,1999,1,0,0:0:0:0:
492,192,2333,2,0,L|492:152,3,26.6666666666667
420,136,2999,1,0,0:0:0:0:
340,136,3333,1,0,0:0:0:0:
260,136,3666,1,0,0:0:0:0:
180,136,3999,1,0,0:0:0:0:
100,136,4333,1,0,0:0:0:0:
20,136,4666,2,0,L|20:204,1,53.3333333333333
20,216,4999,1,0,0:0:0:0:
76,272,5333,5,0,0:0:0:0:
156,272,5666,1,0,0:0:0:0:
236,272,5999,1,0,0:0:0:0:
316,272,6333,1,0,0:0:0:0:
396,272,6666,1,0,0:0:0:0:
396,192,6999,1,0,0:0:0:0:
316,192,7332,1,0,0:0:0:0:
236,192,7666,2,0,L|196:192,3,26.6666666666667,8|0|0|0,0:0|0:0|0:0|0:0,0:0:0:0:
128,196,8332,1,0,0:0:0:0:
128,276,8665,1,0,0:0:0:0:
128,356,8999,1,0,0:0:0:0:
208,356,9332,1,0,0:0:0:0:
288,356,9666,1,0,0:0:0:0:
360,344,9998,5,0,0:0:0:0:
356,264,10332,1,0,0:0:0:0:
276,264,10666,2,0,B|116:264|116:264|136:184,1,240
212,160,11999,2,0,B|164:116|164:116|129:116,2,80
292,144,12999,2,0,B|336:144|336:144|292:180|292:180|292:252,1,160
212,232,13999,2,0,L|152:232,1,53.3333333333333
108,232,14444,2,0,L|108:268,2,26.6666666666667
56,232,14888,2,0,L|0:232,1,53.3333333333333
4,180,15333,2,0,L|4:152,4,26.6666666666667
68,180,15999,6,10,B|80:204|80:204|92:180|92:180|104:204|104:204|116:180|116:180,1,106.666666666667
152,192,16666,2,0,B|152:304|236:304|236:304|236:224|236:224|256:224|256:224,1,240
288,224,17999,2,0,P|352:268|420:220,1,160
484,124,18999,6,0,B|501:74|501:74|484:51,1,80
412,20,19666,2,0,B|362:3|362:3|339:20,1,80
288,80,20333,2,0,B|271:130|271:130|288:153,1,80
356,192,20999,2,0,L|356:236,3,26.6666666666667
340,296,21666,2,0,B|290:313|290:313|267:296,1,80
228,228,22333,2,0,B|178:211|178:211|155:228,1,80
96,284,22999,1,0,0:0:0:0:
96,212,23333,2,0,L|96:156,1,53.3333333333333
96,132,23666,1,0,0:0:0:0:
96,52,23999,2,0,B|146:35|146:35|169:52,1,80
180,132,24666,2,0,B|130:115|130:115|107:132,1,80
100,212,25333,2,0,B|150:195|150:195|173:212,1,80
212,280,25999,1,0,0:0:0:0:
256,192,26333,12,0,28999,0:0:0:0:
488,220,29333,6,0,L|400:120,1,133.333333333333
380,104,29999,2,0,L|244:104,1,133.333333333333
220,108,30666,2,0,L|60:136,1,160
4,176,31666,2,0,L|4:256,1,80
76,292,32333,1,0,0:0:0:0:
152,276,32666,1,0,0:0:0:0:
228,260,32999,2,0,L|256:260,3,26.6666666666667
256,184,33666,2,0,L|228:184,3,26.6666666666667
152,184,34333,2,0,B|120:184|120:184|120:156,1,53.3333333333333
120,136,34666,2,0,L|220:136,1,80
272,168,35332,2,0,L|272:272,1,80
320,312,35998,2,0,P|396:216|328:128,1,240
260,120,37333,5,0,0:0:0:0:
180,120,37666,1,0,0:0:0:0:
96,120,37999,1,0,0:0:0:0:
96,40,38333,1,0,0:0:0:0:
176,40,38666,1,0,0:0:0:0:
256,40,38999,1,0,0:0:0:0:
256,120,39333,1,0,0:0:0:0:
256,200,39666,2,0,L|216:200,3,26.6666666666667
148,200,40333,2,0,L|148:120,1,80
148,40,40999,2,0,L|228:40,1,80
308,40,41666,1,0,0:0:0:0:
388,40,41999,1,0,0:0:0:0:
388,92,42222,2,0,L|388:128,1,26.6666666666667
384,200,42666,2,0,B|384:248|384:248|328:248,1,80
288,200,43333,2,0,B|288:248|288:248|232:248,1,80
196,196,43999,2,0,B|196:244|196:244|140:244,1,80
104,192,44666,2,0,B|104:240|104:240|48:240,2,80
104,112,45666,1,0,0:0:0:0:
176,148,45999,2,0,L|176:56,1,80
248,104,46666,2,0,L|248:184,1,80
320,152,47333,2,0,L|320:56,1,80
384,40,47999,6,0,B|544:40|544:40|544:120,1,240
508,192,49333,1,0,0:0:0:0:
436,228,49666,2,0,B|412:228|412:228|368:188,1,80
292,192,50333,1,0,0:0:0:0:
212,192,50666,2,0,B|212:272|212:272|296:272,1,160
376,272,51666,1,0,0:0:0:0:
376,192,51999,1,0,0:0:0:0:
292,192,52333,1,0,0:0:0:0:
216,220,52666,2,0,P|192:191|214:161,1,80
256,192,53111,12,0,53999,0:0:0:0:
256,192,54333,6,0,B|256:112|256:112|336:112,1,160
336,192,55333,2,0,L|256:192,1,80
176,192,55999,1,0,0:0:0:0:
176,272,56333,1,0,0:0:0:0:
256,272,56666,1,0,0:0:0:0:
336,272,56999,2,0,B|353:222|353:222|336:199,1,80
288,136,57666,2,0,B|238:119|238:119|215:136,1,80
160,192,58333,2,0,L|160:232,3,26.6666666666667
160,300,58999,2,0,B|160:348|160:348|216:348,1,80
256,300,59666,2,0,B|256:348|256:348|312:348,1,80
352,300,60333,2,0,B|352:348|352:348|408:348,2,80
256,192,61333,12,0,65333,0:0:0:0:
