osu file format v14

[General]
AudioFilename: audio.mp3
AudioLeadIn: 0
PreviewTime: -1
Countdown: 0
SampleSet: None
StackLeniency: 0.2
Mode: 2
LetterboxInBreaks: 0
WidescreenStoryboard: 1

[Editor]
DistanceSpacing: 0.3
BeatDivisor: 4
GridSize: 4
TimelineZoom: 2.5

[Metadata]
Title:Overdrive
TitleUnicode:Overdrive
Artist:Levela & Dub zero
ArtistUnicode:Levela & Dub zero
Creator:-Kaguya
Version:Ta
Source:
Tags:
BeatmapID:1967618
BeatmapSetID:745970

[Difficulty]
HPDrainRate:5
CircleSize:4
OverallDifficulty:7.5
ApproachRate:9.5
SliderMultiplier:2
SliderTickRate:1

[Events]
//Background and Video events
//Break Periods
2,44927,77459
//Storyboard Layer 0 (Background)
//Storyboard Layer 1 (Fail)
//Storyboard Layer 2 (Pass)
//Storyboard Layer 3 (Foreground)
//Storyboard Sound Samples

[TimingPoints]
21756,342.857142857143,4,1,0,100,1,0
21756,-133.333333333333,4,1,0,100,0,0
34098,-100,4,1,0,100,0,0
36156,-80,4,1,0,100,0,0
36841,-100,4,1,0,100,0,0
38898,-80,4,1,0,100,0,0
39584,-100,4,1,0,100,0,0
56041,-66.6666666666667,4,1,0,100,0,0
60498,-200,4,1,0,100,0,0
61184,-100,4,1,0,100,0,0
61527,-66.6666666666667,4,1,0,100,0,0
67013,-100,4,1,0,100,0,0
77984,-66.6666666666667,4,1,0,60,0,0
82441,-50,4,1,0,70,0,0
83127,-100,4,1,0,50,0,0
87584,-200,4,1,0,60,0,0
88956,-66.6666666666667,4,1,0,65,0,0
93413,-133.333333333333,4,1,0,60,0,0
94098,-100,4,1,0,55,0,0
94441,-66.6666666666667,4,1,0,65,0,0
99927,-57.1428571428571,4,1,0,70,0,0
104384,-133.333333333333,4,1,0,65,0,0
105070,-100,4,1,0,60,0,0
105413,-57.1428571428571,4,1,0,70,0,0
109527,-200,4,1,0,75,0,0
110898,-100,4,1,0,100,0,0

[HitObjects]
152,276,41641,6,0,P|220:308|288:296,1,100
324,160,41984,2,0,P|284:128|216:108,1,100
110,55,42327,6,0,L|73:89,1,50
336,220,42498,2,0,L|290:267,1,50
175,126,42670,2,0,L|138:159,1,50
406,280,42841,2,0,L|371:316,1,50
236,192,43013,2,0,L|200:226,1,50
481,336,43184,2,0,L|434:384,1,50
265,289,43356,2,0,L|301:255,1,50
481,336,43527,2,0,L|434:384,1,50
256,192,43698,12,0,44727,0:0:0:0:
128,120,77984,6,0,B|0:192|0:192|136:280,1,300.000011444092
128,275,78327,2,0,B|256:203|256:203|120:115,1,300.000011444092
128,120,78670,2,0,B|0:192|0:192|136:280,1,300.000011444092
128,275,79013,1,0,0:0:0:0:
312,324,79184,1,0,0:0:0:0:
440,216,79356,1,0,0:0:0:0:
196,60,79698,5,0,0:0:0:0:
84,308,79870,1,0,0:0:0:0:
312,168,80041,1,0,0:0:0:0:
56,136,80213,1,0,0:0:0:0:
264,320,80384,1,0,0:0:0:0:
196,60,80556,1,0,0:0:0:0:
84,308,80727,6,0,P|208:304|128:228,1,300.000011444092
129,227,81070,2,0,P|11:213|83:307,1,300.000011444092
84,308,81413,2,0,P|208:304|128:228,1,300.000011444092
129,227,81756,2,0,P|60:144|84:84,1,150.000005722046
184,60,82098,1,0,0:0:0:0:
332,68,82441,6,0,B|208:320|208:320|448:320|448:320|332:64,1,800
168,192,83470,5,0,0:0:0:0:
168,192,83641,1,0,0:0:0:0:
352,136,83813,1,0,0:0:0:0:
168,192,83984,1,0,0:0:0:0:
344,336,84156,5,0,0:0:0:0:
232,76,84327,1,0,0:0:0:0:
108,324,84498,1,0,0:0:0:0:
108,324,84670,1,0,0:0:0:0:
412,248,84841,1,0,0:0:0:0:
108,324,85013,1,0,0:0:0:0:
260,232,85184,5,0,0:0:0:0:
124,148,85356,1,0,0:0:0:0:
124,148,85527,1,0,0:0:0:0:
260,232,85698,1,0,0:0:0:0:
420,168,85870,1,0,0:0:0:0:
216,56,86041,1,0,0:0:0:0:
48,104,86213,5,0,0:0:0:0:
56,168,86298,1,0,0:0:0:0:
80,228,86384,1,0,0:0:0:0:
128,260,86470,1,0,0:0:0:0:
184,248,86555,1,0,0:0:0:0:
236,284,86641,1,0,0:0:0:0:
272,328,86727,1,0,0:0:0:0:
332,320,86813,5,0,0:0:0:0:
376,280,86898,1,0,0:0:0:0:
408,232,86984,1,0,0:0:0:0:
464,208,87070,1,0,0:0:0:0:
480,144,87155,1,0,0:0:0:0:
464,84,87241,1,0,0:0:0:0:
416,52,87327,1,0,0:0:0:0:
356,64,87413,1,0,0:0:0:0:
256,192,87584,12,0,88613,0:0:0:0:
184,72,88956,6,0,B|112:224|136:316|136:316|216:316,1,300.000011444092
181,316,89298,2,0,B|253:164|229:72|229:72|149:72,1,300.000011444092
182,72,89641,2,0,B|229:72|229:72|253:164|181:316,1,300.000011444092
182,316,89984,2,0,P|296:352|356:336,1,150.000005722046
424,232,90327,1,0,0:0:0:0:
172,48,90670,5,0,0:0:0:0:
60,160,90841,1,0,0:0:0:0:
216,200,91013,1,0,0:0:0:0:
188,16,91184,5,0,0:0:0:0:
8,196,91356,1,0,0:0:0:0:
252,240,91527,1,0,0:0:0:0:
152,128,91698,6,0,P|320:116|364:236,1,300.000011444092
366,216,92041,2,0,P|198:228|154:108,1,300.000011444092
152,128,92384,2,0,P|320:116|364:236,1,300.000011444092
366,216,92727,2,0,P|340:312|280:344,1,150.000005722046
132,312,93070,6,0,B|220:248|220:248|140:216|140:216|252:144,1,300.000011444092
228,159,93413,2,0,P|263:83|439:151,1,300.000011444092
436,134,94098,2,0,P|323:191|315:295,1,200
307,255,94441,6,0,L|4:256,1,300.000011444092
7,255,94784,2,0,L|307:255,1,300.000011444092
307,255,95127,2,0,L|4:256,1,300.000011444092
7,255,95470,2,0,P|32:168|96:116,1,150.000005722046
268,100,95813,1,0,0:0:0:0:
400,304,96156,5,0,0:0:0:0:
175,304,96327,1,0,0:0:0:0:
175,79,96498,1,0,0:0:0:0:
400,80,96670,1,0,0:0:0:0:
175,304,96841,5,0,0:0:0:0:
400,80,97013,1,0,0:0:0:0:
175,78,97184,2,0,P|60:192|160:280,1,300.000011444092
127,274,97527,2,0,P|242:161|142:73,1,300.000011444092
175,79,97870,2,0,P|60:192|160:280,1,300.000011444092
127,274,98213,2,0,P|208:264|288:312,1,150.000005722046
408,288,98556,6,0,L|344:340,1,75.0000028610231
408,288,98641,2,0,L|336:264,1,75.0000028610231
408,288,98727,2,0,L|380:216,1,75.0000028610231
408,288,98813,2,0,L|456:224,1,75.0000028610231
408,288,98898,2,0,L|492:304,1,75.0000028610231
408,288,98984,2,0,L|456:372,1,75.0000028610231
408,288,99070,2,0,L|372:360,1,75.0000028610231
408,288,99156,6,0,L|336:308,1,75.0000028610231
408,288,99241,2,0,L|340:236,1,75.0000028610231
408,288,99327,2,0,L|400:212,1,75.0000028610231
400,280,99413,2,0,L|460:224,1,75.0000028610231
408,288,99498,2,0,L|503:299,1,75.0000028610231
408,288,99584,1,0,0:0:0:0:
224,108,99927,6,0,P|60:248|108:272,1,350.00000333786
42,229,100270,2,0,P|206:89|158:65,1,350.00000333786
224,108,100613,2,0,P|60:248|108:272,1,350.00000333786
42,229,100956,2,0,P|120:280|204:256,1,175.00000166893
300,152,101298,1,0,0:0:0:0:
456,244,101641,5,0,0:0:0:0:
456,64,101813,1,0,0:0:0:0:
248,64,101984,1,0,0:0:0:0:
456,64,102156,1,0,0:0:0:0:
248,64,102327,1,0,0:0:0:0:
248,244,102498,1,0,0:0:0:0:
456,244,102670,6,0,B|288:340|280:360|280:360|200:336|204:252,1,350.00000333786
203,258,103013,2,0,B|371:162|379:142|379:142|459:166|455:250,1,350.00000333786
456,244,103356,2,0,B|288:340|280:360|280:360|200:336|204:252,1,350.00000333786
203,258,103698,2,0,B|112:256|112:256|72:176|188:152,1,175.00000166893
260,104,104041,1,0,0:0:0:0:
140,44,104384,6,0,P|72:160|152:304,1,300.000011444092
140,297,105070,2,0,P|228:220|316:216,1,200
307,214,105413,6,0,P|400:304|360:176,1,350.00000333786
369,175,105756,2,0,P|276:85|316:213,1,350.00000333786
307,214,106098,2,0,P|400:304|360:176,1,350.00000333786
369,175,106441,2,0,P|420:104|388:24,1,175.00000166893
240,80,106784,1,0,0:0:0:0:
144,164,107127,5,0,0:0:0:0:
48,316,107298,1,0,0:0:0:0:
144,164,107470,1,0,0:0:0:0:
232,316,107641,1,0,0:0:0:0:
48,316,107813,1,0,0:0:0:0:
144,164,107984,1,0,0:0:0:0:
268,188,108156,6,0,B|244:84|244:84|308:52|376:84|376:84|348:188,1,350.00000333786
348,186,108498,2,0,B|372:290|372:290|308:322|240:290|240:290|268:186,1,350.00000333786
268,188,108841,2,0,B|244:84|244:84|308:52|376:84|376:84|348:188,1,350.00000333786
348,186,109184,2,0,B|372:288|372:288|356:304|304:308|304:308,1,175.00000166893
136,180,109527,5,0,0:0:0:0:
136,180,109698,1,0,0:0:0:0:
408,316,110041,1,0,0:0:0:0:
152,268,110384,1,0,0:0:0:0:
304,196,110556,1,0,0:0:0:0:
72,88,110898,1,0,0:0:0:0:
