osu file format v14

[General]
AudioFilename: audio.mp3
AudioLeadIn: 0
PreviewTime: 55771
Countdown: 0
SampleSet: Soft
StackLeniency: 0.3
Mode: 0
LetterboxInBreaks: 0
WidescreenStoryboard: 0

[Editor]
Bookmarks: 45070
DistanceSpacing: 1.1
BeatDivisor: 4
GridSize: 32
TimelineZoom: 2.899999

[Metadata]
Title:Overdrive
TitleUnicode:Overdrive
Artist:Levela & Dub Zero
ArtistUnicode:Levela & Dub Zero
Creator:Testo
Version:Trynna's Hard
Source:
Tags:drum aram dnb step Messy Single and bass Trynna
BeatmapID:1491257
BeatmapSetID:585794

[Difficulty]
HPDrainRate:5
CircleSize:4
OverallDifficulty:6.4
ApproachRate:7.4
SliderMultiplier:1.5
SliderTickRate:1

[Events]
//Background and Video events
0,0,"44403643.jpg",0,0
//Break Periods
//Storyboard Layer 0 (Background)
//Storyboard Layer 1 (Fail)
//Storyboard Layer 2 (Pass)
//Storyboard Layer 3 (Foreground)
//Storyboard Sound Samples

[TimingPoints]
21756,342.857142857143,4,2,1,75,1,0
21756,-114.942528735632,4,2,1,75,0,0
23127,-166.666666666667,4,2,1,75,0,0
25184,-100,4,2,1,75,0,0
25784,-100,4,2,1,20,0,0
25870,-166.666666666667,4,2,1,75,0,0
27927,-100,4,2,1,75,0,0
28527,-100,4,2,1,20,0,0
28613,-166.666666666667,4,2,1,75,0,0
30670,-100,4,2,1,75,0,0
31270,-100,4,2,1,20,0,0
31356,-166.666666666667,4,2,1,75,0,0
34098,-111.111111111111,4,2,1,75,0,0
36156,-100,4,2,1,75,0,0
36841,-111.111111111111,4,2,1,75,0,0
38898,-100,4,2,1,75,0,0
43698,-133.333333333333,4,2,1,45,0,0
44727,-111.111111111111,4,2,1,60,0,0
45070,-100,4,2,1,80,0,0
56041,-83.3333333333333,4,2,1,85,0,1
60498,-133.333333333333,4,2,1,85,0,0
61527,-83.3333333333333,4,2,1,85,0,1
65641,-100,4,2,1,65,0,0
67013,-100,4,2,1,80,0,0
77984,-83.3333333333333,4,2,1,85,0,1
82441,-133.333333333333,4,2,1,85,0,0
83470,-133.333333333333,4,2,1,65,0,0
88956,-100,4,2,1,75,0,0
93413,-133.333333333333,4,2,1,75,0,0
94441,-100,4,2,1,75,0,0
99584,-100,4,2,2,75,0,0
99927,-83.3333333333333,4,2,1,85,0,1
104384,-133.333333333333,4,2,1,85,0,0
105413,-83.3333333333333,4,2,1,85,0,1
109527,-100,4,2,1,65,0,0
117756,-100,4,2,1,30,0,0

[Colours]
Combo1 : 0,204,204
Combo2 : 112,112,112
Combo3 : 206,206,0
Combo4 : 255,102,204
Combo5 : 255,153,0
Combo6 : 255,0,51

[HitObjects]
152,96,21756,5,0,3:0:0:0:
152,96,21927,1,0,3:0:0:0:
288,48,22270,1,0,3:0:0:0:
428,88,22613,1,0,3:0:0:0:
428,88,22784,2,0,P|438:137|428:185,1,97.8750008213997,0|0,3:0|0:0,0:0:0:0:
440,204,23127,6,0,B|416:256|352:268|300:236|284:176|284:176|264:196|228:200,1,269.999991760254,8|0,0:0|0:0,0:0:0:0:
148,256,24498,2,0,L|56:252,1,89.999997253418,0|0,0:0|0:0,0:0:0:0:
38,88,25184,6,0,P|73:97|110:91,2,75,0|0|0,0:0|0:0|0:0,0:0:0:0:
80,20,25698,1,0,0:0:0:0:
172,36,25870,6,0,B|213:37|236:56|236:56|313:29|313:29|369:69|429:41,1,269.999991760254,8|0,0:0|0:0,0:0:0:0:
428,140,27241,2,0,L|428:236,1,89.999997253418,0|0,0:0|0:0,0:0:0:0:
314,344,27927,6,0,P|279:353|242:345,2,75,0|0|0,0:0|0:0|0:0,0:0:0:0:
276,272,28441,1,0,0:0:0:0:
184,288,28613,6,0,B|111:302|111:302|52:288|16:192|76:136,1,269.999991760254,8|0,0:0|0:0,0:0:0:0:
36,48,29984,2,0,L|128:57,1,89.9999972534181,0|0,0:0|0:0,0:0:0:0:
288,32,30670,6,0,P|324:23|361:30,2,75,0|0|0,0:0|0:0|0:0,0:0:0:0:
323,108,31184,1,0,0:0:0:0:
291,184,31356,6,0,P|268:280|408:332,1,269.999991760254,8|0,0:0|0:0,0:0:0:0:
504,328,32727,2,0,B|499:277|480:244|480:244|516:160|516:160|496:129|494:72,1,269.999991760254,8|0,0:0|0:0,0:0:0:0:
352,28,34098,5,4,0:0:0:0:
212,72,34441,1,8,0:0:0:0:
268,208,34784,1,8,3:0:0:0:
120,192,35127,1,8,0:0:0:0:
212,308,35470,2,0,L|346:300,1,134.999995880127,0|8,3:0|0:0,0:0:0:0:
460,184,36156,6,0,P|430:203|408:241,1,75,10|0,3:0|0:0,0:0:0:0:
408,116,36498,2,0,P|372:118|334:140,1,75,8|2,0:0|0:0,0:0:0:0:
448,40,36841,6,0,L|308:24,1,134.999995880127,4|8,0:0|0:0,0:0:0:0:
196,116,37527,1,0,3:0:0:0:
72,32,37870,1,8,0:0:0:0:
100,176,38213,2,0,B|112:211|108:244|92:244|85:274|98:307,1,134.999995880127,0|8,3:0|0:0,0:0:0:0:
264,300,38898,6,0,L|190:285,1,75,0|0,3:0|1:0,0:0:0:0:
312,232,39241,2,0,L|238:217,1,75,8|0,0:0|3:0,0:0:0:0:
184,112,39584,5,12,0:0:0:0:
256,72,39756,1,0,3:0:0:0:
324,120,39927,2,0,L|400:116,1,75,8|0,0:0|3:0,0:0:0:0:
476,84,40270,1,8,0:0:0:0:
476,84,40441,1,0,3:0:0:0:
468,168,40613,2,0,P|473:204|464:240,1,75,8|0,0:0|3:0,0:0:0:0:
380,308,40956,5,8,0:0:0:0:
308,268,41127,1,0,3:0:0:0:
240,316,41298,1,8,0:0:0:0:
312,356,41470,1,0,3:0:0:0:
308,268,41641,2,0,L|304:184,1,75,8|0,0:0|3:0,0:0:0:0:
228,164,41984,2,0,L|231:238,1,75,8|0,0:0|3:0,0:0:0:0:
144,292,42327,6,0,L|104:300,7,37.5,0|0|0|0|8|0|0|0,3:0|3:0|3:0|3:0|3:0|3:0|3:0|3:0,0:0:0:0:
76,272,43013,2,0,L|36:280,7,37.5,0|0|0|0|8|0|0|0,3:0|3:0|3:0|3:0|3:0|3:0|3:0|3:0,0:0:0:0:
12,260,43698,6,0,B|-20:184|16:108|16:108|24:140|60:176,1,225.000008583069,0|0,0:0|0:0,0:0:0:0:
50,165,44727,1,8,0:0:0:0:
224,80,45070,6,0,L|300:76,1,75,4|0,0:0|0:0,0:0:0:0:
360,32,45413,1,8,0:0:0:0:
368,112,45584,1,0,3:0:0:0:
436,156,45756,2,0,P|451:189|452:227,1,75,0|0,3:0|0:0,0:0:0:0:
400,288,46098,2,0,P|362:284|329:267,1,75,8|0,0:0|0:0,0:0:0:0:
228,228,46441,6,0,L|152:228,1,75,2|2,3:0|0:0,0:0:0:0:
72,228,46784,1,8,0:0:0:0:
112,156,46956,2,0,P|113:119|104:76,1,75,2|2,0:0|0:0,0:0:0:0:
168,28,47298,2,0,P|184:61|192:97,1,75,2|10,0:0|0:0,0:0:0:0:
256,152,47641,1,2,0:0:0:0:
344,80,47813,6,0,L|419:80,1,75,0|0,3:0|0:0,0:0:0:0:
476,140,48156,1,10,0:0:0:0:
424,204,48327,1,2,3:0:0:0:
464,276,48498,2,0,L|464:352,1,75,0|8,3:0|3:0,0:0:0:0:
388,316,48841,2,0,P|350:321|313:316,1,75,8|0,0:0|0:0,0:0:0:0:
210,358,49184,6,0,P|175:348|137:350,1,75,2|2,3:0|0:0,0:0:0:0:
60,376,49527,1,8,0:0:0:0:
24,300,49698,1,0,0:0:0:0:
64,228,49870,2,0,B|52:172|52:172|66:118,2,112.5,2|0|2,0:0|0:0|0:0,0:0:0:0:
172,268,50556,6,0,L|252:268,1,75,4|0,0:0|0:0,0:0:0:0:
300,204,50898,1,8,0:0:0:0:
224,172,51070,1,0,3:0:0:0:
280,112,51241,2,0,P|274:72|280:36,1,75,0|8,3:0|3:0,0:0:0:0:
364,40,51584,2,0,P|369:79|364:116,1,75,8|0,0:0|0:0,0:0:0:0:
448,192,51927,6,0,L|448:268,1,75,2|2,3:0|0:0,0:0:0:0:
432,348,52270,1,10,0:0:0:0:
352,324,52441,1,0,3:0:0:0:
280,364,52613,2,0,P|243:372|208:362,1,75,2|2,0:0|3:0,0:0:0:0:
164,292,52956,1,10,0:0:0:0:
244,284,53127,1,2,0:0:0:0:
199,183,53298,6,0,P|191:147|199:111,1,75,4|0,0:0|0:0,0:0:0:0:
276,144,53641,2,0,P|312:148|351:144,1,75,10|0,0:0|0:0,0:0:0:0:
392,72,53984,1,2,0:0:0:0:
332,16,54156,1,0,3:0:0:0:
248,24,54327,2,0,L|172:20,1,75,8|0,0:0|0:0,0:0:0:0:
112,112,54670,6,0,L|72:120,7,37.5,0|0|0|0|0|0|0|0,1:0|0:0|0:0|0:0|1:0|0:0|0:0|0:0,0:0:0:0:
52,152,55356,2,0,L|56:232,1,75,0|4,1:0|0:0,0:0:0:0:
24,304,55698,1,12,0:0:0:0:
160,365,56041,6,2,B|188:368|188:368|216:360|216:360|248:364,1,89.9999972534181,6|0,0:0|0:0,0:0:0:0:
272,288,56384,2,2,B|300:291|300:291|328:283|328:283|360:287,1,89.9999972534181,10|0,0:0|0:0,0:0:0:0:
428,332,56727,2,2,P|440:288|428:244,1,89.9999972534181,2|0,0:0|0:0,0:0:0:0:
368,192,57070,1,10,0:0:0:0:
288,212,57241,1,2,0:0:0:0:
192,168,57413,6,2,B|148:160|148:160|103:170,1,89.9999972534181,2|2,3:0|2:0,0:0:0:0:
32,212,57756,1,8,1:2:0:0:
32,300,57927,1,0,1:0:0:0:
108,252,58098,1,0,1:0:0:0:
104,344,58270,1,0,1:0:0:0:
176,304,58441,2,0,L|268:304,1,89.9999972534181,8|0,1:2|1:0,0:0:0:0:
344,364,58784,6,2,B|388:372|388:372|432:364,1,89.9999972534181,10|0,3:0|0:0,0:0:0:0:
428,272,59127,2,2,B|384:264|384:264|340:272,1,89.9999972534181,10|0,0:0|0:0,0:0:0:0:
500,320,59470,2,2,P|512:276|500:228,1,89.9999972534181,2|0,0:0|0:0,0:0:0:0:
440,184,59813,1,10,0:0:0:0:
468,108,59984,1,2,0:0:0:0:
364,64,60156,6,2,L|274:64,1,89.9999972534181,2|2,0:0|0:0,0:0:0:0:
204,120,60498,6,2,P|123:124|78:57,1,168.750006437302,10|2,0:0|0:0,0:0:0:0:
12,104,61184,2,0,L|12:160,1,56.2500021457673,10|2,0:0|0:0,0:0:0:0:
60,248,61527,6,2,P|54:291|60:338,1,89.9999972534181,10|0,3:0|0:0,0:0:0:0:
140,336,61870,2,2,P|145:292|140:246,1,89.9999972534181,10|0,0:0|0:0,0:0:0:0:
200,192,62213,2,2,L|292:192,1,89.9999972534181,2|0,0:0|0:0,0:0:0:0:
360,232,62556,1,10,0:0:0:0:
356,144,62727,1,2,0:0:0:0:
464,160,62898,6,2,B|476:120|476:120|464:72,1,89.9999972534181,2|2,0:0|0:0,0:0:0:0:
392,32,63241,1,8,1:2:0:0:
320,72,63413,1,0,1:0:0:0:
248,32,63584,1,0,1:0:0:0:
248,113,63756,1,0,1:0:0:0:
176,72,63927,2,0,P|132:80|88:71,1,89.9999972534181,8|0,1:2|1:0,0:0:0:0:
136,192,64270,6,2,L|140:281,1,89.9999972534181,10|0,3:0|0:0,0:0:0:0:
204,336,64613,2,2,L|293:339,1,89.9999972534181,10|0,0:0|0:0,0:0:0:0:
368,304,64956,2,2,P|380:261|370:217,1,89.9999972534181,2|0,0:0|0:0,0:0:0:0:
312,160,65298,1,10,0:0:0:0:
384,120,65470,1,2,0:0:0:0:
308,72,65641,5,2,3:0:0:0:
308,72,65813,1,0,3:0:0:0:
164,148,66156,1,0,3:0:0:0:
20,68,66498,1,0,3:0:0:0:
52,144,66670,2,0,L|52:256,1,112.5,8|0,0:0|0:0,0:0:0:0:
40,279,67013,6,0,P|32:316|44:360,1,75,4|0,0:0|0:0,0:0:0:0:
116,316,67356,2,0,L|196:316,1,75,8|0,0:0|3:0,0:0:0:0:
260,360,67698,1,0,3:0:0:0:
260,276,67870,1,8,3:0:0:0:
332,316,68041,2,0,P|368:312|407:316,1,75,8|0,0:0|0:0,0:0:0:0:
504,256,68384,6,0,L|504:181,1,75,2|2,3:0|0:0,0:0:0:0:
476,104,68727,1,10,0:0:0:0:
404,64,68898,2,0,P|396:100|403:137,1,75,2|2,0:0|0:0,0:0:0:0:
328,168,69241,2,0,P|303:140|292:105,1,75,2|10,3:0|0:0,0:0:0:0:
272,24,69584,1,2,0:0:0:0:
172,76,69756,6,0,L|96:80,1,75,0|0,3:0|0:0,0:0:0:0:
24,44,70098,2,0,P|16:80|20:118,1,75,10|2,0:0|0:0,0:0:0:0:
68,188,70441,1,0,3:0:0:0:
4,240,70613,1,8,3:0:0:0:
8,324,70784,2,0,B|44:332|44:332|81:324,1,75,8|0,0:0|0:0,0:0:0:0:
168,252,71127,6,0,L|244:252,1,75,2|2,3:0|0:0,0:0:0:0:
324,276,71470,1,8,0:0:0:0:
376,212,71641,1,0,0:0:0:0:
320,152,71813,2,0,B|304:96|304:96|322:44,2,112.5,2|0|2,0:0|3:0|0:0,0:0:0:0:
428,140,72498,6,0,L|428:65,1,75,0|0,3:0|0:0,0:0:0:0:
492,200,72841,2,0,L|492:275,1,75,8|0,0:0|3:0,0:0:0:0:
492,356,73184,1,0,3:0:0:0:
412,380,73356,1,8,3:0:0:0:
336,348,73527,2,0,P|330:310|334:273,1,75,8|0,0:0|0:0,0:0:0:0:
236,220,73870,6,0,B|196:212|196:212|160:220,1,75,2|2,3:0|0:0,0:0:0:0:
84,244,74213,1,8,0:0:0:0:
52,168,74384,1,0,3:0:0:0:
92,96,74556,2,0,L|168:96,1,75,2|2,0:0|3:0,0:0:0:0:
196,20,74898,2,0,L|120:20,1,75,10|2,0:0|0:0,0:0:0:0:
260,92,75241,6,0,P|296:100|333:93,1,75,4|0,0:0|0:0,0:0:0:0:
404,52,75584,2,0,P|440:43|477:50,1,75,10|0,0:0|0:0,0:0:0:0:
512,124,75927,1,2,0:0:0:0:
512,208,76098,1,0,3:0:0:0:
456,272,76270,2,0,L|381:268,1,75,8|0,0:0|0:0,0:0:0:0:
300,196,76613,6,0,L|252:200,7,37.5,0|0|0|0|0|0|0|0,1:0|0:0|0:0|0:0|1:0|0:0|0:0|0:0,0:0:0:0:
232,228,77298,2,0,P|193:222|156:224,1,75,0|0,1:0|0:0,0:0:0:0:
88,268,77641,1,12,0:0:0:0:
44,112,77984,6,2,L|140:104,1,89.9999972534181,2|0,0:0|0:0,0:0:0:0:
184,40,78327,2,2,L|273:47,1,89.9999972534181,10|0,0:0|0:0,0:0:0:0:
356,36,78670,2,2,P|368:76|364:132,1,89.9999972534181,2|0,0:0|0:0,0:0:0:0:
336,200,79013,1,10,0:0:0:0:
420,192,79184,1,2,0:0:0:0:
400,304,79356,6,2,L|310:304,1,89.9999972534181,2|2,3:0|0:0,0:0:0:0:
240,348,79698,1,8,1:2:0:0:
240,264,79870,1,0,1:0:0:0:
156,264,80041,1,0,1:0:0:0:
156,348,80213,1,0,1:0:0:0:
84,308,80384,2,0,P|72:264|84:220,1,89.9999972534181,8|0,1:2|1:0,0:0:0:0:
126,122,80727,6,2,P|82:131|39:119,1,89.9999972534181,10|0,3:0|0:0,0:0:0:0:
40,36,81070,2,2,P|83:26|126:38,1,89.9999972534181,10|0,0:0|0:0,0:0:0:0:
196,80,81413,2,2,L|296:76,1,89.9999972534181,2|0,0:0|0:0,0:0:0:0:
368,76,81756,1,10,0:0:0:0:
324,4,81927,1,2,0:0:0:0:
448,36,82098,6,2,L|444:132,1,89.9999972534181,2|2,3:0|0:0,0:0:0:0:
500,216,82441,6,2,B|412:196|432:268|341:248,1,168.750006437302,10|2,0:0|0:0,0:0:0:0:
268,280,83127,2,0,P|241:277|213:281,1,56.2500021457673,10|2,0:0|0:0,0:0:0:0:
153,333,83470,6,0,L|93:329,1,56.2500021457673,8|0,3:0|3:0,0:0:0:0:
49,265,83813,2,0,L|53:205,1,56.2500021457673,8|0,3:0|3:0,0:0:0:0:
113,156,84156,2,0,L|173:160,1,56.2500021457673,8|0,3:0|3:0,0:0:0:0:
217,224,84499,2,0,L|213:284,1,56.2500021457673,8|0,3:0|3:0,0:0:0:0:
293,257,84841,6,0,L|349:253,1,56.2500021457673,8|0,3:0|3:0,0:0:0:0:
389,185,85184,2,0,L|445:189,1,56.2500021457673,8|0,3:0|3:0,0:0:0:0:
481,265,85527,2,0,L|425:269,1,56.2500021457673,8|0,3:0|3:0,0:0:0:0:
385,337,85870,2,0,L|329:333,1,56.2500021457673,8|0,3:0|3:0,0:0:0:0:
256,192,86213,12,8,87584,0:0:0:0:
256,192,88613,5,8,0:0:0:0:
360,64,88956,6,0,B|404:48|432:60|432:76|460:88|504:72,2,150,4|8|0,0:0|0:0|0:0,0:0:0:0:
312,132,89813,1,0,0:0:0:0:
376,184,89984,2,0,P|379:222|376:259,1,75,8|0,0:0|0:0,0:0:0:0:
424,328,90327,5,0,3:0:0:0:
260,332,90670,1,8,1:2:0:0:
188,376,90841,1,0,1:0:0:0:
116,332,91013,1,0,1:0:0:0:
188,288,91184,1,0,1:0:0:0:
124,236,91356,2,0,L|124:161,1,75,8|0,1:2|1:0,0:0:0:0:
60,109,91698,6,0,P|124:77|192:113,2,150,0|8|0,3:0|0:0|0:0,0:0:0:0:
124,161,92556,1,0,0:0:0:0:
204,188,92727,2,0,L|280:188,1,75,8|0,0:0|0:0,0:0:0:0:
360,164,93070,5,0,3:0:0:0:
508,212,93413,6,0,B|503:276|503:276|480:316|480:316|476:377,1,168.750006437302,10|2,0:0|0:0,0:0:0:0:
392,348,94098,2,0,B|368:344|368:344|336:348,1,56.2500021457673,8|0,0:0|0:0,0:0:0:0:
244,308,94441,6,0,B|188:328|188:328|92:308,2,150,0|8|0,3:0|0:0|0:0,0:0:0:0:
184,249,95298,1,0,0:0:0:0:
128,188,95470,2,0,L|128:112,1,75,8|0,0:0|0:0,0:0:0:0:
128,32,95813,5,0,3:0:0:0:
288,80,96156,1,8,1:2:0:0:
376,80,96327,1,0,1:0:0:0:
332,8,96498,1,0,1:0:0:0:
288,80,96670,1,0,1:0:0:0:
332,152,96841,2,0,L|332:232,1,75,8|0,1:2|1:0,0:0:0:0:
388,293,97184,6,0,B|360:293|333:311|333:311|292:285|245:299,2,150,0|8|0,3:0|0:0|0:0,0:0:0:0:
332,227,98041,1,0,0:0:0:0:
252,212,98213,2,0,P|214:205|177:212,1,75,8|0,0:0|0:0,0:0:0:0:
84,192,98556,6,0,L|76:148,7,37.5,10|0|0|0|8|0|0|0,3:0|3:0|3:0|3:0|3:0|3:0|3:0|3:0,0:0:0:0:
44,132,99241,2,0,L|48:40,1,75,8|0,3:0|3:0,0:0:0:0:
116,12,99584,1,12,0:0:0:0:
256,96,99927,6,2,B|300:104|300:104|344:96,1,89.9999972534181,6|0,0:0|0:0,0:0:0:0:
420,64,100270,2,2,B|464:56|464:56|508:64,1,89.9999972534181,10|0,0:0|0:0,0:0:0:0:
468,136,100613,2,2,L|468:232,1,89.9999972534181,2|0,0:0|0:0,0:0:0:0:
432,300,100956,1,10,0:0:0:0:
364,252,101127,1,2,0:0:0:0:
272,316,101298,6,2,B|232:328|232:328|184:317,1,89.9999972534181,2|2,0:0|0:0,0:0:0:0:
132,252,101641,1,8,1:2:0:0:
132,168,101813,1,0,1:0:0:0:
204,208,101984,1,0,1:0:0:0:
204,124,102156,1,0,1:0:0:0:
276,164,102327,2,0,L|368:164,1,89.9999972534181,8|0,1:2|1:0,0:0:0:0:
456,99,102670,6,2,P|467:57|457:13,1,89.9999972534181,10|0,3:0|0:0,0:0:0:0:
384,56,103013,2,2,P|340:66|297:54,1,89.9999972534181,10|0,0:0|0:0,0:0:0:0:
220,24,103356,2,2,P|176:13|133:25,1,89.9999972534181,2|0,0:0|0:0,0:0:0:0:
60,60,103698,1,10,0:0:0:0:
76,140,103870,1,2,0:0:0:0:
36,240,104041,6,2,L|128:236,1,89.9999972534181,2|2,2:0|2:0,0:0:0:0:
204,292,104384,6,2,B|244:284|263:260|263:260|309:252|352:297,1,168.750006437302,10|2,0:0|0:0,0:0:0:0:
420,256,105070,2,0,L|420:192,1,56.2500021457673,10|2,0:0|0:0,0:0:0:0:
480,104,105413,6,2,L|390:100,1,89.9999972534181,10|0,3:0|0:0,0:0:0:0:
392,16,105756,2,2,L|481:19,1,89.9999972534181,10|0,0:0|0:0,0:0:0:0:
320,60,106098,2,2,L|230:63,1,89.9999972534181,2|0,0:0|0:0,0:0:0:0:
156,24,106441,1,10,0:0:0:0:
156,108,106613,1,2,0:0:0:0:
88,192,106784,6,2,P|63:229|58:273,1,89.9999972534181,2|2,0:0|0:0,0:0:0:0:
112,336,107127,1,8,1:2:0:0:
168,276,107298,1,0,1:0:0:0:
252,276,107470,1,0,1:0:0:0:
308,336,107641,1,0,1:0:0:0:
364,276,107813,2,0,P|358:231|334:194,1,89.9999972534181,8|0,1:2|1:0,0:0:0:0:
380,96,108156,6,2,P|424:104|468:97,1,89.9999972534181,0|0,3:0|0:0,0:0:0:0:
428,24,108498,2,2,P|383:16|339:22,1,89.9999972534181,8|0,0:0|0:0,0:0:0:0:
256,12,108841,2,2,L|256:104,1,89.9999972534181,0|0,0:0|0:0,0:0:0:0:
188,148,109184,1,8,0:0:0:0:
116,108,109356,1,0,0:0:0:0:
256,192,109527,12,8,110556,0:0:0:0:
256,192,110898,12,0,117756,0:0:0:0:
