osu file format v14

[General]
AudioFilename: audio.mp3
AudioLeadIn: 0
PreviewTime: 55771
Countdown: 0
SampleSet: Soft
StackLeniency: 0.3
Mode: 0
LetterboxInBreaks: 0
WidescreenStoryboard: 0

[Editor]
Bookmarks: 154356
DistanceSpacing: 1
BeatDivisor: 4
GridSize: 32
TimelineZoom: 1

[Metadata]
Title:Overdrive
TitleUnicode:Overdrive
Artist:Levela & Dub Zero
ArtistUnicode:Levela & Dub Zero
Creator:Testo
Version:Normal
Source:
Tags:drum aram dnb step Messy Single and bass Trynna
BeatmapID:1493924
BeatmapSetID:585794

[Difficulty]
HPDrainRate:3
CircleSize:3.5
OverallDifficulty:4
ApproachRate:4
SliderMultiplier:1.1
SliderTickRate:1

[Events]
//Background and Video events
0,0,"44403643.jpg",0,0
//Break Periods
//Storyboard Layer 0 (Background)
//Storyboard Layer 1 (Fail)
//Storyboard Layer 2 (Pass)
//Storyboard Layer 3 (Foreground)
//Storyboard Sound Samples

[TimingPoints]
21756,342.857142857143,4,2,1,75,1,0
25784,-100,4,2,1,20,0,0
25870,-100,4,2,1,75,0,0
28527,-100,4,2,1,20,0,0
28613,-100,4,2,1,75,0,0
31270,-100,4,2,1,20,0,0
31356,-100,4,2,1,75,0,0
34098,-100,4,2,1,75,0,0
43698,-100,4,2,1,45,0,0
44727,-100,4,2,1,60,0,0
45070,-100,4,2,1,80,0,0
56041,-100,4,2,1,85,0,0
56384,-100,4,2,1,85,0,0
56727,-100,4,2,1,85,0,0
57756,-100,4,2,1,85,0,0
58784,-100,4,2,1,85,0,0
59127,-100,4,2,1,85,0,0
59470,-100,4,2,1,85,0,0
61527,-100,4,2,1,85,0,0
61870,-100,4,2,1,85,0,0
62213,-100,4,2,1,85,0,0
63241,-100,4,2,1,85,0,0
64270,-100,4,2,1,85,0,0
64613,-100,4,2,1,85,0,0
64956,-100,4,2,1,85,0,0
65641,-100,4,2,1,65,0,0
67013,-100,4,2,1,80,0,0
77984,-100,4,2,1,85,0,0
78327,-100,4,2,1,85,0,0
78670,-100,4,2,1,85,0,0
79698,-100,4,2,1,85,0,0
80727,-100,4,2,1,85,0,0
81070,-100,4,2,1,85,0,0
81413,-100,4,2,1,85,0,0
83470,-100,4,2,1,65,0,0
88956,-100,4,2,1,75,0,0
89298,-100,4,2,1,75,0,0
89641,-100,4,2,1,75,0,0
90670,-100,4,2,1,75,0,0
91698,-100,4,2,1,75,0,0
92041,-100,4,2,1,75,0,0
92384,-100,4,2,1,75,0,0
93413,-100,4,2,1,75,0,0
94441,-100,4,2,1,75,0,0
94784,-100,4,2,1,75,0,0
95127,-100,4,2,1,75,0,0
96156,-100,4,2,1,75,0,0
97184,-100,4,2,1,75,0,0
97527,-100,4,2,1,75,0,0
97870,-100,4,2,1,75,0,0
99584,-100,4,2,2,75,0,0
99927,-100,4,2,1,85,0,0
100270,-100,4,2,1,85,0,0
100613,-100,4,2,1,85,0,0
101641,-100,4,2,1,85,0,0
102670,-100,4,2,1,85,0,0
103013,-100,4,2,1,85,0,0
103356,-100,4,2,1,85,0,0
105413,-100,4,2,1,85,0,0
105756,-100,4,2,1,85,0,0
106098,-100,4,2,1,85,0,0
107127,-100,4,2,1,85,0,0
108156,-100,4,2,1,85,0,0
108498,-100,4,2,1,85,0,0
108841,-100,4,2,1,85,0,0
109527,-100,4,2,1,65,0,0
117756,-100,4,2,1,30,0,0

[Colours]
Combo1 : 0,204,204
Combo2 : 112,112,112
Combo3 : 206,206,0
Combo4 : 255,102,204
Combo5 : 255,153,0
Combo6 : 255,0,51

[HitObjects]
256,192,23127,12,0,25184,0:0:0:0:
256,192,25870,12,0,27927,0:0:0:0:
256,192,28613,12,0,30670,0:0:0:0:
256,192,31356,12,8,32727,0:0:0:0:
28,47,34098,5,4,0:0:0:0:
120,107,34441,2,0,P|175:114|229:93,1,110,8|8,0:0|3:0,0:0:0:0:
332,69,35127,1,8,0:0:0:0:
380,167,35470,2,0,P|392:221|430:264,1,110,0|8,3:0|0:0,0:0:0:0:
350,341,36156,2,0,P|328:334|296:330,1,55,10|0,3:0|0:0,0:0:0:0:
242,342,36498,2,0,P|220:348|188:352,1,55,8|2,0:0|0:0,0:0:0:0:
144,318,36841,6,0,P|141:263|130:202,2,110,4|8|0,0:0|0:0|3:0,0:0:0:0:
40,356,37870,1,8,0:0:0:0:
4,251,38213,2,0,P|7:196|18:135,1,110,0|8,3:0|0:0,0:0:0:0:
102,73,38898,2,0,L|166:65,1,55,0|0,3:0|1:0,0:0:0:0:
211,60,39241,1,8,0:0:0:0:
296,129,39584,6,0,P|289:187|306:251,1,110,12|8,0:0|0:0,0:0:0:0:
358,330,40270,1,8,0:0:0:0:
463,297,40613,1,8,0:0:0:0:
496,192,40956,2,0,P|506:138|499:84,1,110,8|8,0:0|0:0,0:0:0:0:
406,25,41641,1,8,0:0:0:0:
296,11,41984,1,8,0:0:0:0:
256,192,42327,12,0,43698,0:0:0:0:
349,150,44727,5,8,0:0:0:0:
384,256,45070,5,4,0:0:0:0:
299,325,45413,2,0,P|236:291|119:364,1,220,8|8,0:0|0:0,0:0:0:0:
24,306,46441,2,0,P|26:268|40:178,1,110,2|8,3:0|0:0,0:0:0:0:
77,160,46956,2,0,L|71:45,1,110,2|2,0:0|0:0,0:0:0:0:
116,19,47470,1,10,0:0:0:0:
226,19,47813,5,0,3:0:0:0:
286,110,48156,2,0,B|292:208|292:208|310:231|310:231|318:354,1,220,10|8,0:0|0:0,0:0:0:0:
223,382,49184,2,0,P|174:382|159:379,1,55,2|2,3:0|0:0,0:0:0:0:
119,356,49527,1,8,0:0:0:0:
52,270,49870,2,0,B|59:151,1,110,2|10,0:0|0:0,0:0:0:0:
123,70,50556,5,4,0:0:0:0:
232,78,50898,2,0,B|352:50|338:129|462:91,1,220,8|8,0:0|0:0,0:0:0:0:
483,199,51927,2,0,P|480:232|482:269,1,55,2|2,3:0|0:0,0:0:0:0:
491,307,52270,1,10,0:0:0:0:
385,337,52613,2,0,P|346:327|274:345,1,110,2|10,0:0|0:0,0:0:0:0:
169,349,53298,5,4,0:0:0:0:
76,289,53641,2,0,P|91:181|143:69,1,220,10|8,0:0|0:0,0:0:0:0:
246,76,54670,6,0,P|290:176|305:284,1,220,0|0,1:0|1:0,0:0:0:0:
404,332,55698,1,12,0:0:0:0:
443,229,56041,6,0,L|430:97,2,110,6|10|2,0:0|0:0|0:0,0:0:0:0:
341,271,57070,2,0,L|270:276,1,55,10|2,0:0|0:0,0:0:0:0:
231,277,57413,2,0,L|96:288,1,110,2|8,3:0|1:2,0:0:0:0:
37,214,58098,1,0,1:0:0:0:
48,103,58441,2,0,L|122:87,1,55,8|0,1:2|1:0,0:0:0:0:
156,86,58784,6,0,P|163:142|143:228,2,110,10|10|2,3:0|0:0|0:0,0:0:0:0:
264,63,59813,2,0,L|289:122,1,55,10|2,0:0|0:0,0:0:0:0:
311,162,60156,1,2,0:0:0:0:
323,270,60498,2,0,B|195:236|248:325|80:289,1,220,10|10,0:0|0:0,0:0:0:0:
44,206,61527,6,0,P|37:158|59:94,2,110,10|10|2,3:0|0:0|0:0,0:0:0:0:
110,294,62556,2,0,P|142:292|184:272,1,55,10|2,0:0|0:0,0:0:0:0:
213,258,62898,2,0,P|265:242|318:252,1,110,2|8,0:0|1:2,0:0:0:0:
420,295,63584,1,0,1:0:0:0:
419,184,63927,2,0,L|415:112,1,55,8|0,1:2|1:0,0:0:0:0:
396,77,64270,6,0,P|447:69|511:85,2,110,10|10|2,3:0|0:0|0:0,0:0:0:0:
290,107,65298,1,10,0:0:0:0:
181,125,65641,5,2,3:0:0:0:
181,125,65813,2,0,L|72:141,2,110,0|0|0,3:0|3:0|3:0,0:0:0:0:
235,117,66670,1,8,0:0:0:0:
219,226,67013,5,4,0:0:0:0:
124,282,67356,2,0,B|222:242|211:325|345:272,1,220,8|8,0:0|0:0,0:0:0:0:
404,185,68384,2,0,P|405:147|437:78,1,110,2|10,3:0|0:0,0:0:0:0:
403,35,68899,2,0,L|290:27,1,110,2|2,0:0|3:0,0:0:0:0:
238,21,69413,1,10,0:0:0:0:
148,85,69756,5,0,3:0:0:0:
98,183,70099,2,0,B|148:206|188:188|188:188|213:204|213:204|261:193|322:212,1,220,10|8,0:0|0:0,0:0:0:0:
414,239,71127,2,0,P|456:232|488:224,1,55,2|2,3:0|0:0,0:0:0:0:
504,187,71470,1,8,0:0:0:0:
428,106,71813,2,0,P|395:102|313:121,1,110,2|10,0:0|0:0,0:0:0:0:
215,152,72498,5,0,3:0:0:0:
161,248,72841,2,0,P|258:282|376:239,1,220,8|8,0:0|0:0,0:0:0:0:
475,233,73870,2,0,P|472:266|474:303,1,55,2|2,3:0|0:0,0:0:0:0:
487,341,74213,1,8,0:0:0:0:
383,377,74556,2,0,P|343:369|273:381,1,110,2|10,0:0|0:0,0:0:0:0:
169,349,75241,5,4,0:0:0:0:
88,273,75584,2,0,B|136:161|44:171|93:30,1,220,10|8,0:0|0:0,0:0:0:0:
185,102,76613,6,0,P|260:213|343:272,1,220,0|0,1:0|1:0,0:0:0:0:
420,324,77641,1,12,0:0:0:0:
426,213,77984,6,0,L|413:72,2,110,2|10|2,0:0|0:0|0:0,0:0:0:0:
420,324,79013,2,0,L|349:329,1,55,10|2,0:0|0:0,0:0:0:0:
310,316,79356,2,0,L|189:305,1,110,2|8,3:0|1:2,0:0:0:0:
114,237,80041,1,0,1:0:0:0:
145,131,80384,2,0,L|218:120,1,55,8|0,1:2|1:0,0:0:0:0:
254,114,80727,6,0,P|264:167|256:235,2,110,10|10|2,3:0|0:0|0:0,0:0:0:0:
185,27,81756,2,0,P|155:44|126:51,1,55,10|2,0:0|0:0,0:0:0:0:
85,72,82098,1,2,3:0:0:0:
36,170,82441,2,0,B|35:220|13:255|13:255|18:335|110:342,1,220,10|10,0:0|0:0,0:0:0:0:
256,192,83470,12,8,87584,0:0:0:0:
222,177,88956,6,0,L|230:287,2,110,4|8|0,0:0|0:0|0:0,0:0:0:0:
216,68,89984,2,0,P|247:68|294:62,1,55,8|0,0:0|0:0,0:0:0:0:
325,72,90327,2,0,L|435:80,1,110,0|8,3:0|1:2,0:0:0:0:
440,190,91013,2,0,L|330:198,1,110,0|8,1:0|1:2,0:0:0:0:
229,242,91698,6,0,P|221:289|234:362,2,110,0|8|0,3:0|0:0|0:0,0:0:0:0:
159,156,92727,2,0,L|106:121,1,55,8|0,0:0|0:0,0:0:0:0:
68,93,93070,1,0,3:0:0:0:
12,187,93413,2,0,B|1:253|37:325|37:325|78:311|159:332,1,220,10|8,0:0|0:0,0:0:0:0:
223,333,94441,6,0,P|271:323|333:339,2,110,0|8|0,3:0|0:0|0:0,0:0:0:0:
163,239,95470,2,0,P|177:207|198:177,1,55,8|0,0:0|0:0,0:0:0:0:
216,142,95813,2,0,P|229:89|220:35,1,110,0|8,3:0|1:2,0:0:0:0:
110,38,96498,2,0,P|96:90|105:144,1,110,0|8,1:0|1:2,0:0:0:0:
163,239,97184,6,0,L|155:372,2,110,0|8|0,3:0|0:0|0:0,0:0:0:0:
228,150,98213,2,0,L|218:48,1,55,8|0,0:0|0:0,0:0:0:0:
213,40,98556,1,10,3:0:0:0:
118,96,98898,2,0,L|130:224,1,110,8|8,3:0|3:0,0:0:0:0:
141,315,99584,1,12,0:0:0:0:
211,230,99927,6,0,P|272:239|339:200,2,110,6|10|2,0:0|0:0|0:0,0:0:0:0:
101,212,100956,2,0,P|78:191|50:180,1,55,10|2,0:0|0:0,0:0:0:0:
21,139,101298,2,0,P|26:88|57:18,1,110,2|8,0:0|1:2,0:0:0:0:
155,10,101984,1,0,1:0:0:0:
262,33,102327,2,0,P|304:38|337:34,1,55,8|0,1:2|1:0,0:0:0:0:
359,71,102670,6,0,P|349:125|364:200,2,110,10|10|2,3:0|0:0|0:0,0:0:0:0:
468,64,103698,2,0,P|476:88|482:133,1,55,10|2,0:0|0:0,0:0:0:0:
491,171,104042,1,2,2:0:0:0:
421,255,104384,2,0,B|382:273|337:276|337:276|283:243|184:261,1,220,10|10,0:0|0:0,0:0:0:0:
113,314,105413,6,0,P|98:268|118:192,2,110,10|10|2,3:0|0:0|0:0,0:0:0:0:
207,371,106441,2,0,P|239:357|272:331,1,55,10|2,0:0|0:0,0:0:0:0:
300,313,106784,2,0,P|353:302|405:317,1,110,2|8,0:0|1:2,0:0:0:0:
506,272,107470,1,0,1:0:0:0:
454,175,107813,2,0,P|420:179|391:171,1,55,8|0,1:2|1:0,0:0:0:0:
347,158,108156,6,0,P|338:103|344:49,2,110,0|8|0,3:0|0:0|0:0,0:0:0:0:
382,262,109184,2,0,P|350:274|311:279,1,55,8|0,0:0|0:0,0:0:0:0:
274,280,109527,5,0,3:0:0:0:
274,280,109698,2,0,P|226:271|162:274,2,110,0|0|0,3:0|3:0|3:0,0:0:0:0:
280,335,110556,1,8,0:0:0:0:
256,192,110898,12,0,117756,0:0:0:0:
