osu file format v14

[General]
AudioFilename: audio.mp3
AudioLeadIn: 0
PreviewTime: 55771
Countdown: 0
SampleSet: Soft
StackLeniency: 0.3
Mode: 0
LetterboxInBreaks: 0
WidescreenStoryboard: 0

[Editor]
Bookmarks: 34428,70613,77714,83299,86642,98213,109613,110628,120671,154356
DistanceSpacing: 1.5
BeatDivisor: 4
GridSize: 32
TimelineZoom: 1

[Metadata]
Title:Overdrive
TitleUnicode:Overdrive
Artist:Levela & Dub Zero
ArtistUnicode:Levela & Dub Zero
Creator:Testo
Version:Insane
Source:
Tags:drum aram dnb step Messy Single and bass Trynna
BeatmapID:1493486
BeatmapSetID:585794

[Difficulty]
HPDrainRate:5
CircleSize:3.8
OverallDifficulty:8
ApproachRate:9
SliderMultiplier:1.7
SliderTickRate:1

[Events]
//Background and Video events
0,0,"44403643.jpg",0,0
//Break Periods
//Storyboard Layer 0 (Background)
//Storyboard Layer 1 (Fail)
//Storyboard Layer 2 (Pass)
//Storyboard Layer 3 (Foreground)
//Storyboard Sound Samples

[TimingPoints]
21756,342.857142857143,4,2,1,75,1,0
25784,-100,4,2,1,20,0,0
25870,-100,4,2,1,75,0,0
28527,-100,4,2,1,20,0,0
28613,-100,4,2,1,75,0,0
31270,-100,4,2,1,20,0,0
31356,-125,4,2,1,75,0,0
34098,-111.111111111111,4,2,1,75,0,0
43698,-111.111111111111,4,2,1,45,0,0
44727,-111.111111111111,4,2,1,60,0,0
45070,-100,4,2,1,80,0,0
56041,-71.4285714285714,4,2,1,85,0,0
56384,-71.4285714285714,4,2,1,85,0,0
56727,-71.4285714285714,4,2,1,85,0,0
57756,-83.3333333333333,4,2,1,85,0,0
58784,-71.4285714285714,4,2,1,85,0,0
59127,-71.4285714285714,4,2,1,85,0,0
59470,-71.4285714285714,4,2,1,85,0,0
61527,-71.4285714285714,4,2,1,85,0,0
61870,-71.4285714285714,4,2,1,85,0,0
62213,-71.4285714285714,4,2,1,85,0,0
63241,-83.3333333333333,4,2,1,85,0,0
64270,-71.4285714285714,4,2,1,85,0,0
64613,-71.4285714285714,4,2,1,85,0,0
64956,-71.4285714285714,4,2,1,85,0,0
65641,-55.5555555555556,4,2,1,65,0,0
67013,-100,4,2,1,80,0,0
77984,-71.4285714285714,4,2,1,85,0,0
78327,-71.4285714285714,4,2,1,85,0,0
78670,-71.4285714285714,4,2,1,85,0,0
79698,-83.3333333333333,4,2,1,85,0,0
80727,-71.4285714285714,4,2,1,85,0,0
81070,-71.4285714285714,4,2,1,85,0,0
81413,-71.4285714285714,4,2,1,85,0,0
83470,-100,4,2,1,65,0,0
88956,-100,4,2,1,75,0,0
89298,-100,4,2,1,75,0,0
89641,-100,4,2,1,75,0,0
90670,-100,4,2,1,75,0,0
91698,-100,4,2,1,75,0,0
92041,-100,4,2,1,75,0,0
92384,-100,4,2,1,75,0,0
93413,-83.3333333333333,4,2,1,75,0,0
94441,-100,4,2,1,75,0,0
94784,-100,4,2,1,75,0,0
95127,-100,4,2,1,75,0,0
96156,-100,4,2,1,75,0,0
97184,-100,4,2,1,75,0,0
97527,-100,4,2,1,75,0,0
97870,-100,4,2,1,75,0,0
99584,-71.4285714285714,4,2,2,75,0,0
99927,-71.4285714285714,4,2,1,85,0,0
100270,-71.4285714285714,4,2,1,85,0,0
100613,-71.4285714285714,4,2,1,85,0,0
101641,-83.3333333333333,4,2,1,85,0,0
102670,-71.4285714285714,4,2,1,85,0,0
103013,-71.4285714285714,4,2,1,85,0,0
103356,-71.4285714285714,4,2,1,85,0,0
105413,-71.4285714285714,4,2,1,85,0,0
105756,-71.4285714285714,4,2,1,85,0,0
106098,-71.4285714285714,4,2,1,85,0,0
107127,-83.3333333333333,4,2,1,85,0,0
108156,-71.4285714285714,4,2,1,85,0,0
108498,-71.4285714285714,4,2,1,85,0,0
108841,-71.4285714285714,4,2,1,85,0,0
109527,-55.5555555555556,4,2,1,65,0,0
117756,-55.5555555555556,4,2,1,30,0,0

[Colours]
Combo1 : 0,204,204
Combo2 : 112,112,112
Combo3 : 206,206,0
Combo4 : 255,102,204
Combo5 : 255,153,0
Combo6 : 255,0,51

[HitObjects]
288,64,21756,5,0,3:0:0:0:
204,77,21927,1,0,3:0:0:0:
372,52,22270,1,0,3:0:0:0:
204,77,22613,1,0,3:0:0:0:
288,64,22784,1,0,3:0:0:0:
119,89,23127,1,8,0:0:0:0:
256,192,23213,12,0,25784,0:0:0:0:
256,192,25870,5,8,0:0:0:0:
256,192,25956,12,0,28527,0:0:0:0:
256,192,28613,5,8,0:0:0:0:
256,192,28698,12,0,31270,0:0:0:0:
120,99,31356,6,0,B|255:140|358:42|358:42|440:58|477:140,1,408,8|0,0:0|0:0,0:0:0:0:
416,338,32727,2,0,P|305:357|418:245,1,408,8|0,0:0|0:0,0:0:0:0:
491,253,34098,6,0,P|458:254|413:242,1,76.4999976654053,4|0,0:0|0:0,0:0:0:0:
373,136,34441,2,0,P|405:137|450:125,1,76.4999976654053,8|0,0:0|0:0,0:0:0:0:
324,42,34784,1,8,3:0:0:0:
277,147,34956,1,0,0:0:0:0:
326,250,35127,2,0,P|284:249|243:261,1,76.4999976654053,8|0,0:0|0:0,0:0:0:0:
88,315,35470,6,0,L|78:230,1,76.4999976654053,0|0,3:0|0:0,0:0:0:0:
259,181,35813,2,0,L|249:265,1,76.4999976654053,8|0,0:0|0:0,0:0:0:0:
79,239,36156,2,0,B|62:219|62:219|54:153,1,76.4999976654053,10|0,3:0|0:0,0:0:0:0:
97,61,36499,1,8,0:0:0:0:
187,131,36670,1,2,0:0:0:0:
225,254,36841,6,0,B|174:268|174:268|57:232,2,152.999995330811,4|8|0,0:0|0:0|3:0,0:0:0:0:
331,209,37698,1,8,1:0:0:0:
414,129,37870,2,0,P|419:90|414:52,1,76.4999976654053,8|0,0:0|0:0,0:0:0:0:
281,33,38213,6,0,P|242:28|204:33,1,76.4999976654053,0|0,3:0|0:0,0:0:0:0:
118,131,38556,2,0,P|157:126|195:131,1,76.4999976654053,8|0,0:0|0:0,0:0:0:0:
331,209,38898,2,0,B|311:225|311:225|245:233,1,76.4999976654053,0|0,3:0|1:0,0:0:0:0:
398,139,39241,1,8,0:0:0:0:
394,301,39413,1,0,3:0:0:0:
394,301,39498,1,0,3:0:0:0:
394,301,39584,6,0,P|433:303|485:290,1,76.4999976654053,12|0,0:0|3:0,0:0:0:0:
253,361,39927,2,0,P|214:363|162:350,1,76.4999976654053,8|0,0:0|3:0,0:0:0:0:
75,244,40270,5,8,0:0:0:0:
75,244,40441,1,0,3:0:0:0:
229,187,40613,1,8,0:0:0:0:
229,187,40784,1,0,3:0:0:0:
383,244,40956,6,0,P|381:205|394:153,1,76.4999976654053,8|0,0:0|3:0,0:0:0:0:
223,111,41298,2,0,P|230:148|228:186,1,76.4999976654053,8|0,0:0|3:0,0:0:0:0:
140,308,41641,5,8,0:0:0:0:
140,308,41813,1,0,3:0:0:0:
31,164,41984,1,8,0:0:0:0:
31,164,42156,1,0,3:0:0:0:
196,51,42327,6,0,L|191:112,3,38.2499988327027,0|0|0|0,3:0|3:0|3:0|3:0,0:0:0:0:
327,135,42670,2,0,L|323:96,3,38.2499988327027,8|0|0|0,3:0|3:0|3:0|3:0,0:0:0:0:
188,189,43013,2,0,L|183:250,3,38.2499988327027,0|0|0|0,3:0|3:0|3:0|3:0,0:0:0:0:
337,279,43356,2,0,L|333:240,3,38.2499988327027,8|0|0|0,3:0|3:0|3:0|3:0,0:0:0:0:
177,333,43698,5,0,0:0:0:0:
42,112,44727,5,8,0:0:0:0:
42,112,45070,6,0,L|137:101,1,85,4|0,0:0|0:0,0:0:0:0:
253,91,45413,1,8,0:0:0:0:
291,228,45584,1,0,3:0:0:0:
259,233,45669,1,0,3:0:0:0:
228,229,45755,1,0,3:0:0:0:
198,217,45841,1,0,3:0:0:0:
174,197,45926,1,8,3:0:0:0:
291,228,46098,2,0,P|300:264|286:339,1,85,8|0,0:0|0:0,0:0:0:0:
142,378,46441,6,0,P|137:334|148:294,1,85,2|2,3:0|0:0,0:0:0:0:
255,125,46784,1,8,0:0:0:0:
129,149,46956,2,2,L|64:157,2,42.5,2|2|2,0:0|0:0|0:0,0:0:0:0:
255,125,47298,1,2,0:0:0:0:
381,149,47470,2,2,L|446:157,2,42.5,10|0|2,0:0|0:0|0:0,0:0:0:0:
255,125,47813,6,0,L|255:230,1,85,0|0,3:0|0:0,0:0:0:0:
299,339,48156,2,0,B|269:346|256:352|256:352|234:345|194:339,2,85,10|2|0,0:0|3:0|3:0,0:0:0:0:
255,210,48670,1,8,3:0:0:0:
152,285,48841,2,0,P|135:325|147:398,1,85,8|0,0:0|0:0,0:0:0:0:
255,210,49184,6,0,P|254:167|238:129,1,85,2|2,3:0|0:0,0:0:0:0:
40,95,49527,2,0,L|131:85,1,85,8|0,0:0|0:0,0:0:0:0:
255,210,49870,2,2,B|196:217|196:217|187:228|187:228|122:235,2,127.5,2|0|2,0:0|0:0|0:0,0:0:0:0:
408,271,50556,6,0,L|418:180,1,85,4|0,0:0|0:0,0:0:0:0:
431,60,50898,1,8,0:0:0:0:
249,147,51070,1,0,3:0:0:0:
252,178,51155,1,0,3:0:0:0:
255,210,51241,1,0,3:0:0:0:
259,242,51327,1,0,3:0:0:0:
262,273,51412,1,8,3:0:0:0:
398,355,51584,2,0,L|407:270,1,85,8|0,0:0|0:0,0:0:0:0:
175,204,51927,6,0,L|184:288,1,85,2|2,3:0|0:0,0:0:0:0:
12,233,52270,2,2,B|79:215|79:215|99:154,1,127.5,10|0,0:0|3:0,0:0:0:0:
120,124,52613,2,0,P|162:107|219:115,1,85,2|2,0:0|3:0,0:0:0:0:
379,161,52956,2,2,P|385:184|386:207,1,42.5,10|2,0:0|0:0,0:0:0:0:
271,245,53127,2,2,P|272:223|278:203,1,42.5,2|2,0:0|0:0,0:0:0:0:
385,341,53298,6,0,P|341:348|281:331,1,85,4|0,0:0|0:0,0:0:0:0:
212,151,53641,2,0,B|309:187|295:129|400:168,1,170,10|2,0:0|0:0,0:0:0:0:
268,71,54156,1,0,3:0:0:0:
133,102,54327,2,0,P|118:144|141:209,1,85,8|0,0:0|0:0,0:0:0:0:
304,343,54670,5,0,1:0:0:0:
311,323,54755,1,0,0:0:0:0:
313,302,54841,1,0,0:0:0:0:
311,281,54927,1,0,0:0:0:0:
303,261,55012,5,0,1:0:0:0:
295,241,55099,1,0,0:0:0:0:
292,220,55185,1,0,0:0:0:0:
295,199,55271,1,0,0:0:0:0:
302,179,55356,5,0,1:0:0:0:
309,159,55441,1,0,0:0:0:0:
312,138,55526,1,4,0:0:0:0:
309,117,55612,1,0,0:0:0:0:
290,92,55699,5,12,0:0:0:0:
290,92,56041,6,0,P|221:109|148:76,1,118.999996368408,6|0,0:0|0:0,0:0:0:0:
12,208,56384,2,0,P|81:191|154:224,1,118.999996368408,10|0,0:0|0:0,0:0:0:0:
290,92,56727,2,0,P|221:109|148:76,1,118.999996368408,2|0,0:0|0:0,0:0:0:0:
213,227,57070,6,0,P|250:230|278:226,1,59.4999981842042,10|2,0:0|0:0,0:0:0:0:
290,92,57241,2,0,P|253:89|225:93,1,59.4999981842042,2|2,0:0|0:0,0:0:0:0:
158,292,57413,2,0,P|242:307|363:275,1,178.499994552612,2|0,3:0|0:0,0:0:0:0:
400,253,57756,5,8,1:2:0:0:
410,104,57927,1,0,1:0:0:0:
390,268,58098,5,0,1:0:0:0:
380,119,58269,1,0,1:0:0:0:
379,281,58441,5,8,1:2:0:0:
392,87,58612,1,0,1:0:0:0:
209,190,58784,6,0,P|166:195|86:162,1,118.999996368408,10|0,3:0|0:0,0:0:0:0:
318,174,59127,2,0,P|335:134|403:81,1,118.999996368408,10|0,0:0|0:0,0:0:0:0:
277,276,59470,2,0,P|303:310|315:396,1,118.999996368408,2|0,0:0|0:0,0:0:0:0:
310,115,59813,6,0,P|318:150|315:190,1,59.4999981842042,10|2,0:0|0:0,0:0:0:0:
202,248,59984,2,0,P|202:218|209:189,1,59.4999981842042,2|2,0:0|0:0,0:0:0:0:
381,68,60156,2,0,P|395:127|387:274,1,178.499994552612,2|0,0:0|0:0,0:0:0:0:
343,322,60498,6,0,B|295:329|262:313|262:313|213:348|144:323|144:323|141:361|141:361|212:343|273:383,1,356.999989105225,10|2,0:0|0:0,0:0:0:0:
67,362,61184,2,0,L|73:289,1,59.4999981842042,10|2,0:0|0:0,0:0:0:0:
197,188,61356,2,0,L|201:247,1,59.4999981842042,2|2,0:0|0:0,0:0:0:0:
78,117,61527,6,0,P|122:114|194:76,1,118.999996368408,10|0,3:0|0:0,0:0:0:0:
307,223,61870,2,0,P|263:220|191:182,1,118.999996368408,10|0,0:0|0:0,0:0:0:0:
72,106,62213,2,0,P|116:103|188:65,1,118.999996368408,2|0,0:0|0:0,0:0:0:0:
35,250,62556,6,0,P|73:250|104:242,1,59.4999981842042,10|2,0:0|0:0,0:0:0:0:
62,96,62727,2,0,P|24:96|-7:104,1,59.4999981842042,2|2,0:0|0:0,0:0:0:0:
191,287,62898,2,0,B|216:186|149:207|176:87,1,178.499994552612,2|0,0:0|0:0,0:0:0:0:
186,38,63241,5,8,1:2:0:0:
346,74,63413,1,0,1:0:0:0:
178,53,63584,5,0,1:0:0:0:
338,17,63756,1,0,1:0:0:0:
170,68,63927,5,8,1:2:0:0:
378,114,64099,1,0,1:0:0:0:
191,287,64270,6,0,P|186:252|139:160,1,118.999996368408,10|0,3:0|0:0,0:0:0:0:
378,114,64613,2,0,P|350:166|338:224,1,118.999996368408,10|0,0:0|0:0,0:0:0:0:
180,296,64956,2,0,P|175:261|128:169,1,118.999996368408,2|0,0:0|0:0,0:0:0:0:
322,344,65298,6,0,P|351:339|380:340,1,59.4999981842042,10|2,0:0|0:0,0:0:0:0:
489,221,65470,2,0,P|460:216|431:217,1,59.4999981842042,2|2,0:0|0:0,0:0:0:0:
278,122,65641,5,2,3:0:0:0:
322,344,65813,1,0,3:0:0:0:
322,344,66156,5,0,3:0:0:0:
322,344,66498,1,0,3:0:0:0:
278,122,66670,1,8,0:0:0:0:
278,122,67013,6,0,L|373:111,1,85,4|0,0:0|0:0,0:0:0:0:
488,90,67356,1,8,0:0:0:0:
331,229,67527,1,0,3:0:0:0:
326,197,67612,1,0,3:0:0:0:
330,166,67698,1,0,3:0:0:0:
342,136,67784,1,0,3:0:0:0:
362,112,67869,1,8,3:0:0:0:
331,229,68041,2,0,P|340:265|326:340,1,85,8|0,0:0|0:0,0:0:0:0:
165,316,68384,6,0,P|160:272|171:232,1,85,2|2,3:0|0:0,0:0:0:0:
257,88,68727,1,10,0:0:0:0:
170,233,68899,2,2,L|105:241,2,42.5,2|2|2,0:0|0:0|0:0,0:0:0:0:
257,88,69241,5,2,3:0:0:0:
331,229,69413,2,2,L|396:237,2,42.5,10|0|2,0:0|0:0|0:0,0:0:0:0:
257,88,69756,6,0,L|257:193,1,85,0|0,3:0|0:0,0:0:0:0:
302,346,70098,2,0,B|276:344|276:344|246:333|246:333|219:334,2,85,10|2|0,0:0|0:0|3:0,0:0:0:0:
453,350,70613,1,8,3:0:0:0:
363,223,70784,2,0,P|363:177|375:134,1,85,8|0,0:0|0:0,0:0:0:0:
257,29,71127,6,0,P|267:70|266:112,1,85,2|2,3:0|0:0,0:0:0:0:
114,221,71470,2,0,P|160:218|205:211,1,85,8|0,0:0|0:0,0:0:0:0:
353,322,71813,2,2,B|320:327|299:316|299:316|290:305|290:305|267:298|231:298,2,127.5,2|0|2,0:0|3:0|0:0,0:0:0:0:
450,195,72499,6,0,P|447:155|437:104,1,85,0|0,3:0|0:0,0:0:0:0:
319,46,72841,1,8,0:0:0:0:
215,177,73013,1,0,3:0:0:0:
207,207,73098,1,0,3:0:0:0:
208,239,73184,1,0,3:0:0:0:
216,270,73270,1,0,3:0:0:0:
232,298,73355,1,8,3:0:0:0:
438,341,73527,2,0,P|395:331|333:349,1,85,8|0,0:0|0:0,0:0:0:0:
149,294,73870,6,0,P|192:304|254:286,1,85,2|2,3:0|0:0,0:0:0:0:
441,208,74213,2,0,P|432:187|449:78,1,127.5,8|0,0:0|3:0,0:0:0:0:
455,46,74556,2,0,P|412:56|350:38,1,85,2|2,0:0|3:0,0:0:0:0:
185,37,74899,2,2,P|179:60|178:83,1,42.5,10|2,0:0|0:0,0:0:0:0:
294,139,75070,2,2,P|293:117|287:97,1,42.5,2|2,0:0|0:0,0:0:0:0:
103,210,75241,6,0,P|144:217|199:201,1,85,4|0,0:0|0:0,0:0:0:0:
375,317,75584,2,0,P|353:304|214:320,1,170,10|2,0:0|0:0,0:0:0:0:
102,377,76099,1,0,3:0:0:0:
16,254,76270,2,0,P|5:210|24:147,1,85,8|0,0:0|0:0,0:0:0:0:
133,48,76613,5,0,1:0:0:0:
154,49,76698,1,0,0:0:0:0:
175,51,76784,1,0,0:0:0:0:
196,52,76870,1,0,0:0:0:0:
217,54,76955,5,0,1:0:0:0:
238,52,77041,1,0,0:0:0:0:
259,50,77127,1,0,0:0:0:0:
280,49,77213,1,0,0:0:0:0:
301,47,77298,5,0,1:0:0:0:
322,49,77383,1,0,0:0:0:0:
343,50,77469,1,0,0:0:0:0:
364,52,77555,1,0,0:0:0:0:
393,63,77641,5,12,0:0:0:0:
385,178,77984,6,0,P|376:126|396:57,1,118.999996368408,2|0,0:0|0:0,0:0:0:0:
209,127,78327,2,0,P|225:183|216:242,1,118.999996368408,10|0,0:0|0:0,0:0:0:0:
377,293,78670,2,0,P|368:241|388:172,1,118.999996368408,2|0,0:0|0:0,0:0:0:0:
298,362,79013,6,0,P|264:365|233:360,1,59.4999981842042,10|2,0:0|0:0,0:0:0:0:
158,242,79184,2,0,P|192:239|223:244,1,59.4999981842042,2|2,0:0|0:0,0:0:0:0:
75,357,79356,2,0,P|110:285|78:176,1,178.499994552612,2|0,3:0|0:0,0:0:0:0:
62,121,79698,5,8,1:2:0:0:
211,131,79869,1,0,1:0:0:0:
47,111,80040,5,0,1:0:0:0:
196,101,80213,1,0,1:0:0:0:
34,100,80383,5,8,1:2:0:0:
228,113,80556,1,0,1:0:0:0:
105,236,80727,6,0,B|135:262|135:262|230:239,1,118.999996368408,10|0,3:0|0:0,0:0:0:0:
328,88,81070,2,0,B|290:100|290:100|262:194,1,118.999996368408,10|0,0:0|0:0,0:0:0:0:
344,355,81413,2,0,B|351:316|351:316|284:245,1,118.999996368408,2|0,0:0|0:0,0:0:0:0:
103,177,81756,6,0,P|101:206|105:235,1,59.4999981842042,10|2,0:0|0:0,0:0:0:0:
296,258,81927,2,0,P|301:222|292:175,1,59.4999981842042,2|2,0:0|0:0,0:0:0:0:
27,306,82098,2,0,P|133:332|197:281,1,178.499994552612,2|0,3:0|0:0,0:0:0:0:
259,246,82441,6,0,B|265:178|243:122|243:122|272:2|272:2|336:39|340:115,1,356.999989105225,10|2,0:0|0:0,0:0:0:0:
404,158,83127,2,0,P|435:150|469:149,1,59.4999981842042,10|2,0:0|0:0,0:0:0:0:
259,246,83298,2,0,P|228:238|194:237,1,59.4999981842042,2|2,0:0|0:0,0:0:0:0:
405,279,83470,5,8,3:0:0:0:
405,279,83641,1,0,3:0:0:0:
239,354,83813,1,8,3:0:0:0:
239,354,83984,1,0,3:0:0:0:
410,194,84156,6,0,L|403:304,1,85,8|0,3:0|3:0,0:0:0:0:
222,122,84498,2,0,L|229:232,1,85,8|0,3:0|3:0,0:0:0:0:
239,354,84841,5,8,3:0:0:0:
239,354,85012,1,0,3:0:0:0:
410,194,85184,5,8,3:0:0:0:
410,194,85355,1,0,3:0:0:0:
222,122,85527,5,8,3:0:0:0:
222,122,85698,1,0,3:0:0:0:
410,50,85870,5,8,3:0:0:0:
410,50,86041,1,0,3:0:0:0:
222,122,86213,6,0,L|218:177,3,42.5,8|0|0|0,3:0|3:0|3:0|3:0,0:0:0:0:
321,207,86556,2,0,L|318:164,3,42.5,8|0|0|0,3:0|3:0|3:0|3:0,0:0:0:0:
212,252,86898,2,0,L|209:294,3,42.5,8|0|0|0,3:0|3:0|3:0|3:0,0:0:0:0:
324,342,87241,2,0,L|321:299,3,42.5,8|0|0|0,3:0|3:0|3:0|3:0,0:0:0:0:
205,382,87584,5,8,0:0:0:0:
219,164,87756,1,0,3:0:0:0:
219,164,88098,5,0,3:0:0:0:
219,164,88441,1,0,3:0:0:0:
205,382,88613,1,8,0:0:0:0:
205,382,88956,6,0,P|155:364|32:372,2,170,4|8|0,0:0|0:0|0:0,0:0:0:0:
356,329,89813,1,0,0:0:0:0:
356,329,89984,2,0,P|358:302|366:273,1,42.5,8|0,0:0|0:0,0:0:0:0:
263,211,90156,2,0,P|267:231|268:253,1,42.5,0|0,0:0|0:0,0:0:0:0:
385,356,90327,2,0,P|389:309|416:221,1,127.5,0|0,3:0|0:0,0:0:0:0:
459,172,90670,5,8,1:2:0:0:
459,172,90841,1,0,1:0:0:0:
330,137,91013,5,0,1:0:0:0:
330,137,91184,1,0,1:0:0:0:
430,30,91356,5,8,1:2:0:0:
430,30,91527,1,0,1:0:0:0:
303,232,91698,6,0,L|276:44,2,170,0|8|0,3:0|0:0|0:0,0:0:0:0:
161,309,92556,1,0,0:0:0:0:
161,309,92727,2,0,L|170:243,1,42.5,8|0,0:0|0:0,0:0:0:0:
303,232,92898,2,0,L|309:274,1,42.5,0|0,0:0|0:0,0:0:0:0:
135,333,93070,2,0,L|153:206,1,127.5,0|0,3:0|0:0,0:0:0:0:
166,131,93413,6,0,P|232:202|350:61,1,305.999990661621,10|2,0:0|0:0,0:0:0:0:
166,131,94098,2,0,P|117:117|66:125,1,101.999996887207,8|0,0:0|0:0,0:0:0:0:
32,304,94441,6,0,P|109:319|215:285,2,170,0|8|0,3:0|0:0|0:0,0:0:0:0:
34,178,95298,1,0,0:0:0:0:
34,178,95470,2,0,P|36:139|39:120,1,42.5,8|0,0:0|0:0,0:0:0:0:
149,84,95641,2,0,P|151:105|151:126,1,42.5,0|0,0:0|0:0,0:0:0:0:
268,203,95813,2,0,P|270:153|316:67,1,127.5,0|0,3:0|0:0,0:0:0:0:
368,42,96156,5,8,1:2:0:0:
368,42,96327,1,0,1:0:0:0:
446,173,96498,5,0,1:0:0:0:
446,173,96669,1,0,1:0:0:0:
268,203,96841,5,8,1:2:0:0:
268,203,97012,1,0,1:0:0:0:
493,92,97184,6,0,L|481:274,2,170,0|8|0,3:0|0:0|0:0,0:0:0:0:
359,28,98041,1,0,0:0:0:0:
359,28,98213,2,0,L|300:24,1,42.5,8|0,0:0|0:0,0:0:0:0:
243,124,98384,2,0,L|301:120,1,42.5,0|0,0:0|0:0,0:0:0:0:
217,28,98556,6,0,L|158:24,3,42.5,10|0|0|0,3:0|3:0|3:0|3:0,0:0:0:0:
116,134,98898,2,0,L|158:131,3,42.5,8|0|0|0,3:0|3:0|3:0|3:0,0:0:0:0:
78,17,99241,2,0,L|19:13,3,42.5,8|0|0|0,3:0|3:0|3:0|3:0,0:0:0:0:
158,131,99584,5,12,0:0:0:0:
158,131,99927,6,0,P|166:183|164:262,1,118.999996368408,6|0,0:0|0:0,0:0:0:0:
349,136,100270,2,0,P|299:116|232:75,1,118.999996368408,10|0,0:0|0:0,0:0:0:0:
249,298,100613,2,0,P|290:265|359:227,1,118.999996368408,2|0,0:0|0:0,0:0:0:0:
48,179,100956,6,0,P|44:145|50:107,1,59.4999981842042,10|2,0:0|0:0,0:0:0:0:
165,249,101127,2,0,P|167:278|163:308,1,59.4999981842042,2|2,0:0|0:0,0:0:0:0:
242,83,101298,2,0,P|267:54|387:106,1,178.499994552612,2|0,0:0|0:0,0:0:0:0:
400,164,101641,5,8,1:2:0:0:
377,317,101813,1,0,1:0:0:0:
381,170,101984,5,0,1:0:0:0:
404,323,102156,1,0,1:0:0:0:
365,180,102327,5,8,1:2:0:0:
337,363,102499,1,0,1:0:0:0:
162,308,102670,6,0,P|127:323|42:305,1,118.999996368408,10|0,3:0|0:0,0:0:0:0:
256,168,103013,2,0,P|291:153|376:171,1,118.999996368408,10|0,0:0|0:0,0:0:0:0:
162,321,103356,2,0,P|127:336|42:318,1,118.999996368408,2|0,0:0|0:0,0:0:0:0:
256,168,103698,6,0,P|287:168|323:178,1,59.4999981842042,10|2,0:0|0:0,0:0:0:0:
421,83,103870,2,0,P|390:83|354:93,1,59.4999981842042,2|2,0:0|0:0,0:0:0:0:
211,259,104041,2,0,P|230:195|179:90,1,178.499994552612,2|0,2:0|0:0,0:0:0:0:
100,46,104384,6,0,B|189:81|270:10|270:10|357:8|421:83,1,356.999989105225,10|2,0:0|0:0,0:0:0:0:
400,249,105070,2,0,P|406:211|420:177,1,59.4999981842042,10|2,0:0|0:0,0:0:0:0:
261,252,105241,2,0,P|270:280|274:309,1,59.4999981842042,2|2,0:0|0:0,0:0:0:0:
97,133,105413,6,0,P|161:143|243:123,1,118.999996368408,10|0,3:0|0:0,0:0:0:0:
413,191,105756,2,0,P|372:241|348:322,1,118.999996368408,10|0,0:0|0:0,0:0:0:0:
152,370,106098,2,0,P|128:309|70:248,1,118.999996368408,2|0,0:0|0:0,0:0:0:0:
72,108,106441,6,0,P|69:69|76:38,1,59.4999981842042,10|2,0:0|0:0,0:0:0:0:
243,54,106613,2,0,P|246:83|243:112,1,59.4999981842042,2|2,0:0|0:0,0:0:0:0:
18,187,106784,2,0,P|50:168|186:209,1,178.499994552612,2|0,0:0|0:0,0:0:0:0:
214,267,107127,5,8,1:2:0:0:
387,287,107298,1,0,1:0:0:0:
209,286,107470,5,0,1:0:0:0:
382,266,107641,1,0,1:0:0:0:
204,305,107813,5,8,1:2:0:0:
428,331,107984,1,0,1:0:0:0:
307,127,108156,6,0,P|292:119|172:129,1,118.999996368408,0|0,3:0|0:0,0:0:0:0:
89,314,108498,2,0,P|104:306|224:316,1,118.999996368408,8|0,0:0|0:0,0:0:0:0:
315,116,108841,2,0,P|300:108|180:118,1,118.999996368408,0|0,0:0|0:0,0:0:0:0:
451,206,109184,6,0,P|445:163|449:124,1,59.4999981842042,8|0,0:0|0:0,0:0:0:0:
262,225,109356,2,0,P|261:254|256:283,1,59.4999981842042,0|0,0:0|0:0,0:0:0:0:
133,245,109527,5,0,3:0:0:0:
307,127,109698,1,0,3:0:0:0:
307,127,110041,5,0,3:0:0:0:
307,127,110384,1,0,3:0:0:0:
133,245,110555,1,8,0:0:0:0:
256,192,110898,12,0,117756,0:0:0:0:
