osu file format v14

[General]
AudioFilename: audio.mp3
AudioLeadIn: 0
PreviewTime: 55771
Countdown: 0
SampleSet: Soft
StackLeniency: 0.3
Mode: 0
LetterboxInBreaks: 0
WidescreenStoryboard: 0

[Editor]
Bookmarks: 154356
DistanceSpacing: 1
BeatDivisor: 2
GridSize: 32
TimelineZoom: 1

[Metadata]
Title:Overdrive
TitleUnicode:Overdrive
Artist:Levela & Dub Zero
ArtistUnicode:Levela & Dub Zero
Creator:Testo
Version:Easy
Source:
Tags:drum aram dnb step Messy Single and bass Trynna
BeatmapID:1491441
BeatmapSetID:585794

[Difficulty]
HPDrainRate:2
CircleSize:3
OverallDifficulty:3
ApproachRate:3
SliderMultiplier:0.899999999999999
SliderTickRate:1

[Events]
//Background and Video events
0,0,"44403643.jpg",0,0
//Break Periods
//Storyboard Layer 0 (Background)
//Storyboard Layer 1 (Fail)
//Storyboard Layer 2 (Pass)
//Storyboard Layer 3 (Foreground)
//Storyboard Sound Samples

[TimingPoints]
21756,342.857142857143,4,2,1,75,1,0
25784,-100,4,2,1,20,0,0
25870,-100,4,2,1,75,0,0
28527,-100,4,2,1,20,0,0
28613,-100,4,2,1,75,0,0
31270,-100,4,2,1,20,0,0
31356,-100,4,2,1,75,0,0
34098,-100,4,2,1,75,0,0
43698,-100,4,2,1,45,0,0
44727,-100,4,2,1,60,0,0
45070,-100,4,2,1,80,0,0
56041,-100,4,2,1,85,0,0
56384,-100,4,2,1,85,0,0
56727,-100,4,2,1,85,0,0
57756,-100,4,2,1,85,0,0
58784,-100,4,2,1,85,0,0
59127,-100,4,2,1,85,0,0
59470,-100,4,2,1,85,0,0
61527,-100,4,2,1,85,0,0
61870,-100,4,2,1,85,0,0
62213,-100,4,2,1,85,0,0
63241,-100,4,2,1,85,0,0
64270,-100,4,2,1,85,0,0
64613,-100,4,2,1,85,0,0
64956,-100,4,2,1,85,0,0
65641,-100,4,2,1,65,0,0
67013,-100,4,2,1,80,0,0
77984,-100,4,2,1,85,0,0
78327,-100,4,2,1,85,0,0
78670,-100,4,2,1,85,0,0
79698,-100,4,2,1,85,0,0
80727,-100,4,2,1,85,0,0
81070,-100,4,2,1,85,0,0
81413,-100,4,2,1,85,0,0
83470,-100,4,2,1,65,0,0
88956,-100,4,2,1,75,0,0
89298,-100,4,2,1,75,0,0
89641,-100,4,2,1,75,0,0
90670,-100,4,2,1,75,0,0
91698,-100,4,2,1,75,0,0
92041,-100,4,2,1,75,0,0
92384,-100,4,2,1,75,0,0
93413,-100,4,2,1,75,0,0
94441,-100,4,2,1,75,0,0
94784,-100,4,2,1,75,0,0
95127,-100,4,2,1,75,0,0
96156,-100,4,2,1,75,0,0
97184,-100,4,2,1,75,0,0
97527,-100,4,2,1,75,0,0
97870,-100,4,2,1,75,0,0
99584,-100,4,2,2,75,0,0
99927,-100,4,2,1,85,0,0
100270,-100,4,2,1,85,0,0
100613,-100,4,2,1,85,0,0
101641,-100,4,2,1,85,0,0
102670,-100,4,2,1,85,0,0
103013,-100,4,2,1,85,0,0
103356,-100,4,2,1,85,0,0
105413,-100,4,2,1,85,0,0
105756,-100,4,2,1,85,0,0
106098,-100,4,2,1,85,0,0
107127,-100,4,2,1,85,0,0
108156,-100,4,2,1,85,0,0
108498,-100,4,2,1,85,0,0
108841,-100,4,2,1,85,0,0
109527,-100,4,2,1,65,0,0
117756,-100,4,2,1,30,0,0

[Colours]
Combo1 : 0,204,204
Combo2 : 112,112,112
Combo3 : 206,206,0
Combo4 : 255,102,204
Combo5 : 255,153,0
Combo6 : 255,0,51

[HitObjects]
256,192,23127,12,0,25184,0:0:0:0:
256,192,25870,12,0,27927,0:0:0:0:
256,192,28613,12,0,30670,0:0:0:0:
256,192,31356,12,8,32727,0:0:0:0:
105,84,34098,5,4,0:0:0:0:
178,135,34441,2,0,P|227:139|273:124,1,89.9999999999999,8|8,0:0|3:0,0:0:0:0:
322,57,35127,1,8,0:0:0:0:
385,121,35470,2,0,P|381:170|396:216,1,89.9999999999999,0|8,3:0|0:0,0:0:0:0:
355,291,36156,2,0,P|306:287|260:302,1,89.9999999999999,10|8,3:0|0:0,0:0:0:0:
194,245,36841,6,0,L|184:151,2,89.9999999999999,4|8|0,0:0|0:0|3:0,0:0:0:0:
138,316,37870,1,8,0:0:0:0:
79,247,38213,2,0,L|89:153,1,89.9999999999999,0|8,3:0|0:0,0:0:0:0:
113,71,38898,2,0,L|202:61,1,89.9999999999999,0|8,3:0|0:0,0:0:0:0:
292,63,39584,6,0,P|286:104|293:159,1,89.9999999999999,12|8,0:0|0:0,0:0:0:0:
329,233,40270,1,8,0:0:0:0:
402,285,40613,1,8,0:0:0:0:
345,355,40956,2,0,P|304:349|249:356,1,89.9999999999999,8|8,0:0|0:0,0:0:0:0:
168,330,41641,1,8,0:0:0:0:
128,249,41984,1,8,0:0:0:0:
256,192,42327,12,0,43698,0:0:0:0:
343,284,45070,5,4,0:0:0:0:
253,290,45413,2,0,P|201:265|89:303,1,180,8|8,0:0|0:0,0:0:0:0:
31,233,46441,2,0,P|41:189|32:136,1,89.9999999999999,2|8,3:0|0:0,0:0:0:0:
96,78,47127,2,0,P|140:88|193:79,1,89.9999999999999,2|10,0:0|0:0,0:0:0:0:
269,52,47813,5,0,3:0:0:0:
342,103,48156,2,0,B|315:202|384:182|355:301,1,180,10|8,0:0|0:0,0:0:0:0:
283,325,49184,2,0,P|237:333|180:323,1,89.9999999999999,2|8,3:0|0:0,0:0:0:0:
115,284,49870,1,2,0:0:0:0:
104,194,50213,1,10,0:0:0:0:
142,112,50556,5,4,0:0:0:0:
227,139,50898,2,0,P|327:156|424:99,1,180,8|8,0:0|0:0,0:0:0:0:
466,183,51927,2,0,P|461:213|470:289,1,89.9999999999999,2|10,3:0|0:0,0:0:0:0:
385,314,52613,2,0,P|355:309|279:318,1,89.9999999999999,2|10,0:0|0:0,0:0:0:0:
210,341,53298,5,4,0:0:0:0:
125,372,53641,2,0,P|123:283|97:179,1,180,10|8,0:0|0:0,0:0:0:0:
79,107,54670,2,0,P|159:81|255:104,1,180,0|0,1:0|1:0,0:0:0:0:
323,141,55698,1,12,0:0:0:0:
311,230,56041,6,0,L|405:222,2,89.9999999999999,6|10|2,0:0|0:0|0:0,0:0:0:0:
221,238,57070,1,10,0:0:0:0:
138,201,57413,2,0,L|130:111,1,89.9999999999999,2|8,3:0|1:2,0:0:0:0:
189,44,58098,1,0,1:0:0:0:
278,36,58440,1,8,1:2:0:0:
343,99,58784,6,0,L|351:193,2,89.9999999999999,10|10|2,3:0|0:0|0:0,0:0:0:0:
401,30,59813,1,10,0:0:0:0:
447,106,60156,1,2,0:0:0:0:
448,195,60498,2,0,P|387:276|258:218,1,180,10|10,0:0|0:0,0:0:0:0:
226,295,61527,6,0,P|227:328|213:392,2,89.9999999999999,10|10|2,3:0|0:0|0:0,0:0:0:0:
187,213,62556,1,10,0:0:0:0:
236,138,62898,2,0,P|280:128|325:128,1,89.9999999999999,2|8,0:0|1:2,0:0:0:0:
414,139,63584,1,0,1:0:0:0:
494,178,63926,1,8,1:2:0:0:
511,266,64270,2,0,P|511:310|501:354,2,89.9999999999999,10|10|2,3:0|0:0|0:0,0:0:0:0:
433,220,65298,1,10,0:0:0:0:
390,140,65641,6,0,P|401:77|376:-12,2,135,2|0|8,3:0|3:0|0:0,0:0:0:0:
433,220,67013,5,4,0:0:0:0:
377,291,67356,2,0,P|325:316|213:278,1,180,8|8,0:0|0:0,0:0:0:0:
177,197,68384,2,0,P|167:153|172:108,1,89.9999999999999,2|10,3:0|0:0,0:0:0:0:
228,38,69070,2,0,P|272:48|325:39,1,89.9999999999999,2|10,0:0|0:0,0:0:0:0:
405,30,69756,5,0,3:0:0:0:
380,116,70099,2,0,B|353:215|422:195|393:314,1,180,10|8,0:0|0:0,0:0:0:0:
326,346,71127,2,0,P|281:340|237:348,1,89.9999999999999,2|8,3:0|0:0,0:0:0:0:
148,365,71813,1,2,0:0:0:0:
65,329,72156,1,10,0:0:0:0:
67,239,72499,5,0,3:0:0:0:
135,181,72841,2,0,B|210:202|210:202|343:170,1,180,8|8,0:0|0:0,0:0:0:0:
399,180,73870,2,0,P|392:230|401:311,1,89.9999999999999,2|8,3:0|0:0,0:0:0:0:
329,332,74556,2,0,P|279:325|198:334,1,89.9999999999999,2|10,0:0|0:0,0:0:0:0:
150,312,75241,5,4,0:0:0:0:
130,224,75584,2,0,B|236:262|216:192|324:233,1,180,10|8,0:0|0:0,0:0:0:0:
305,136,76613,2,0,B|221:105|231:172|129:133,1,180,0|0,1:0|1:0,0:0:0:0:
41,119,77641,1,12,0:0:0:0:
88,42,77984,6,0,L|192:32,2,89.9999999999999,2|10|2,0:0|0:0|0:0,0:0:0:0:
41,119,79013,1,10,0:0:0:0:
130,129,79356,2,0,L|219:137,1,89.9999999999999,2|8,3:0|1:2,0:0:0:0:
308,150,80041,1,0,1:0:0:0:
395,152,80383,1,8,1:2:0:0:
431,236,80727,6,0,P|439:285|437:337,2,89.9999999999999,10|10|2,3:0|0:0|0:0,0:0:0:0:
395,152,81756,1,10,0:0:0:0:
345,76,82098,1,2,3:0:0:0:
254,77,82441,2,0,B|155:115|171:35|57:79,1,180,10|10,0:0|0:0,0:0:0:0:
256,192,83470,12,8,87584,0:0:0:0:
235,182,88956,6,0,L|243:288,2,89.9999999999999,4|8|0,0:0|0:0|0:0,0:0:0:0:
275,101,89984,2,0,L|381:109,2,89.9999999999999,8|0|8,0:0|3:0|1:2,0:0:0:0:
184,107,91013,2,0,L|78:115,1,89.9999999999999,0|8,1:0|1:2,0:0:0:0:
63,198,91698,6,0,P|55:243|60:299,2,89.9999999999999,0|8|0,3:0|0:0|0:0,0:0:0:0:
152,184,92727,2,0,P|160:229|155:285,1,89.9999999999999,8|0,0:0|3:0,0:0:0:0:
110,344,93413,2,0,P|136:322|294:357,1,180,10|8,0:0|0:0,0:0:0:0:
362,332,94441,6,0,P|409:322|475:335,2,89.9999999999999,0|8|0,3:0|0:0|0:0,0:0:0:0:
338,244,95470,2,0,P|348:197|335:131,2,89.9999999999999,8|0|8,0:0|3:0|1:2,0:0:0:0:
248,240,96498,2,0,P|258:193|245:127,1,89.9999999999999,0|8,1:0|1:2,0:0:0:0:
165,133,97184,6,0,L|66:123,2,89.9999999999999,0|8|0,3:0|0:0|0:0,0:0:0:0:
253,151,98213,2,0,L|352:141,1,89.9999999999999,8|10,0:0|3:0,0:0:0:0:
361,229,98898,2,0,L|271:238,1,89.9999999999999,8|8,3:0|3:0,0:0:0:0:
180,239,99584,1,12,0:0:0:0:
178,148,99927,6,0,P|180:101|170:54,2,89.9999999999999,6|10|2,0:0|0:0|0:0,0:0:0:0:
92,178,100956,1,10,0:0:0:0:
11,216,101298,2,0,P|8:263|19:310,1,89.9999999999999,2|8,0:0|1:2,0:0:0:0:
97,345,101984,1,0,1:0:0:0:
185,330,102326,1,8,1:2:0:0:
257,276,102670,6,0,L|346:283,2,89.9999999999999,10|10|2,3:0|0:0|0:0,0:0:0:0:
183,222,103699,1,10,0:0:0:0:
135,145,104042,1,2,2:0:0:0:
175,65,104384,2,0,B|226:44|226:44|382:62,1,180,10|10,0:0|0:0,0:0:0:0:
392,138,105413,6,0,P|402:181|401:236,2,89.9999999999999,10|10|2,3:0|0:0|0:0,0:0:0:0:
350,58,106442,1,10,0:0:0:0:
276,109,106784,2,0,P|266:152|267:207,1,89.9999999999999,2|8,0:0|1:2,0:0:0:0:
279,286,107470,1,0,1:0:0:0:
338,352,107812,1,8,1:2:0:0:
425,330,108156,6,0,L|429:221,2,89.9999999999999,0|8|0,3:0|0:0|0:0,0:0:0:0:
338,352,109184,1,8,0:0:0:0:
251,377,109527,6,0,L|109:360,2,135,0|0|8,3:0|3:0|0:0,0:0:0:0:
256,192,110898,12,0,117756,0:0:0:0:
