osu file format v14

[General]
AudioFilename: mp3.mp3
AudioLeadIn: 0
PreviewTime: 31306
Countdown: 0
SampleSet: Soft
StackLeniency: 0.7
Mode: 3
LetterboxInBreaks: 0
SpecialStyle: 0
WidescreenStoryboard: 0

[Editor]
Bookmarks: 12890,96652
DistanceSpacing: 1
BeatDivisor: 4
GridSize: 32
TimelineZoom: 2.200001

[Metadata]
Title:NNRT
TitleUnicode:NNRT
Artist:Levaslater
ArtistUnicode:Levaslater
Creator:ZZHBOY
Version:bLuE aNoThEr
Source:beatmania IIDX 19 Lincle
Tags:Sakura Luminance ELECTRO GOTHIC 中原龍太郎 Ryu* Ryu☆ Ryutaro Nakahara karen avalon critical star
BeatmapID:1028171
BeatmapSetID:481786

[Difficulty]
HPDrainRate:8.3
CircleSize:4
OverallDifficulty:9
ApproachRate:7
SliderMultiplier:1.4
SliderTickRate:1

[Events]
//Background and Video events
0,0,"bg.png",0,0
//Break Periods
//Storyboard Layer 0 (Background)
//Storyboard Layer 1 (Fail)
//Storyboard Layer 2 (Pass)
//Storyboard Layer 3 (Foreground)
//Storyboard Sound Samples
Sample,40959,0,"hihat.wav",35
Sample,41108,0,"snare.wav",50
Sample,41702,0,"snare.wav",50
Sample,42147,0,"hihat.wav",35
Sample,47197,0,"kick.wav",50
Sample,117593,0,"kick.wav",50
Sample,118781,0,"hihat.wav",35
Sample,120414,0,"kick.wav",50

[TimingPoints]
415,297.029702970297,4,2,0,30,1,0
31306,-100,4,2,0,30,0,1
40811,-100,4,2,0,30,0,0
43187,-100,4,2,0,30,0,1
50315,-100,4,2,0,30,0,0
96355,-66.6666666666667,4,2,0,30,0,0
96504,-200,4,2,0,30,0,0
96652,-100,4,2,0,30,0,0
107345,-100,4,2,0,30,0,1
116850,-100,4,2,0,30,0,0
119226,-100,4,2,0,30,0,1
126355,631.578947368421,4,2,0,30,1,0
126355,-46.9483568075117,4,2,0,30,0,0

[HitObjects]
64,192,415,128,0,1009:0:0:0:0:
448,192,415,1,0,0:0:0:0:
192,192,712,1,0,0:0:0:0:
320,192,1009,128,0,1603:0:0:0:0:
448,192,1009,1,0,0:0:0:0:
192,192,1306,1,0,0:0:0:0:
192,192,1603,128,0,2197:0:0:0:0:
64,192,1603,1,0,0:0:0:0:
448,192,1900,1,0,0:0:0:0:
448,192,2197,128,0,2791:0:0:0:0:
64,192,2494,1,0,0:0:0:0:
64,192,2791,128,0,3385:0:0:0:0:
320,192,2791,1,0,0:0:0:0:
448,192,3088,1,0,0:0:0:0:
192,192,3385,128,0,3979:0:0:0:0:
320,192,3385,1,0,0:0:0:0:
448,192,3682,1,0,0:0:0:0:
320,192,3979,128,0,4573:0:0:0:0:
64,192,3979,1,0,0:0:0:0:
192,192,4276,1,0,0:0:0:0:
448,192,4573,128,0,5167:0:0:0:0:
64,192,4573,1,0,0:0:0:0:
192,192,4870,1,0,0:0:0:0:
64,192,5167,128,0,5761:0:0:0:0:
320,192,5167,1,0,0:0:0:0:
448,192,5464,1,0,0:0:0:0:
320,192,5761,128,0,6355:0:0:0:0:
192,192,5761,1,0,0:0:0:0:
64,192,6058,1,0,0:0:0:0:
448,192,6355,128,0,7543:0:0:0:0:
192,192,6355,1,0,0:0:0:0:
64,192,6652,1,0,0:0:0:0:
320,192,6949,1,0,0:0:0:0:
192,192,7246,1,0,0:0:0:0:
64,192,7543,128,0,9919:0:0:0:0:
320,192,7543,1,0,0:0:0:0:
448,192,7840,1,0,0:0:0:0:
448,192,8137,128,0,8657:0:0:0:0:
192,192,8434,1,0,0:0:0:0:
320,192,8731,128,0,9251:0:0:0:0:
448,192,9028,1,0,0:0:0:0:
192,192,9325,128,0,9919:0:0:0:0:
320,192,9622,1,0,0:0:0:0:
448,192,9919,1,0,0:0:0:0:
192,192,11405,128,0,12296:0:0:0:0:
320,192,12296,5,0,0:0:0:0:
448,192,12296,1,0,0:0:0:0:
64,192,12296,1,0,0:0:0:0:
192,192,12444,1,0,0:0:0:0:
320,192,12593,1,0,0:0:0:35:drum.wav
64,192,12593,1,0,0:0:0:0:
192,192,12741,1,0,0:0:0:0:
448,192,12741,1,0,0:0:0:0:
64,192,12890,1,0,0:0:0:0:
320,192,12890,1,0,0:0:0:0:
448,192,13038,1,0,0:0:0:0:
192,192,13038,1,0,0:0:0:0:
320,192,13088,1,0,0:0:0:0:
192,192,13137,1,0,0:0:0:0:
448,192,13187,1,0,0:0:0:35:drum.wav
64,192,13187,1,0,0:0:0:0:
320,192,13335,1,0,0:0:0:0:
192,192,13335,1,0,0:0:0:0:
320,192,13484,1,0,0:0:0:0:
448,192,13484,1,0,0:0:0:0:
192,192,13632,1,0,0:0:0:0:
320,192,13632,1,0,0:0:0:0:
448,192,13781,1,0,0:0:0:35:drum.wav
64,192,13781,1,0,0:0:0:0:
320,192,13855,1,0,0:0:0:0:
64,192,13929,1,0,0:0:0:0:
192,192,13929,1,0,0:0:0:0:
320,192,14004,1,0,0:0:0:0:
448,192,14078,1,0,0:0:0:0:
192,192,14078,1,0,0:0:0:0:
192,192,14226,1,0,0:0:0:0:
64,192,14226,1,0,0:0:0:0:
192,192,14375,1,0,0:0:0:35:drum.wav
320,192,14375,1,0,0:0:0:0:
320,192,14523,1,0,0:0:0:0:
448,192,14523,1,0,0:0:0:0:
64,192,14672,1,0,0:0:0:50:crash.wav
192,192,14672,1,0,0:0:0:0:
448,192,14672,1,0,0:0:0:0:
320,192,14820,1,0,0:0:0:0:
448,192,14820,1,0,0:0:0:0:
64,192,14969,1,0,0:0:0:35:drum.wav
320,192,14969,1,0,0:0:0:0:
192,192,15043,1,0,0:0:0:0:
320,192,15117,1,0,0:0:0:0:
448,192,15117,1,0,0:0:0:0:
64,192,15192,1,0,0:0:0:0:
192,192,15266,1,0,0:0:0:0:
448,192,15266,1,0,0:0:0:0:
320,192,15415,1,0,0:0:0:0:
64,192,15415,1,0,0:0:0:0:
192,192,15563,1,0,0:0:0:35:drum.wav
64,192,15563,1,0,0:0:0:0:
320,192,15637,1,0,0:0:0:0:
448,192,15712,1,0,0:0:0:0:
192,192,15712,1,0,0:0:0:0:
64,192,15786,1,0,0:0:0:0:
192,192,15860,1,0,0:0:0:50:crash.wav
320,192,15860,1,0,0:0:0:50:kick.wav
448,192,15860,128,0,16157:0:0:0:0:
64,192,16009,1,0,0:0:0:0:
64,192,16157,1,0,0:0:0:50:kick.wav
320,192,16157,1,0,0:0:0:50:crash.wav
192,192,16157,1,0,0:0:0:0:
448,192,16306,1,0,0:0:0:0:
192,192,16306,1,0,0:0:0:0:
64,192,16454,128,0,16603:0:0:0:50:crash.wav
320,192,16454,1,0,0:0:0:50:kick.wav
448,192,16454,1,0,0:0:0:0:
320,192,16603,128,0,16751:0:0:0:0:
192,192,16603,1,0,0:0:0:0:
448,192,16751,128,0,16900:0:0:0:0:
64,192,16751,1,0,0:0:0:0:
320,192,16900,1,0,0:0:0:0:
192,192,16900,128,0,17048:0:0:0:0:
448,192,17048,1,0,0:0:0:50:crash.wav
320,192,17048,1,0,0:0:0:50:kick.wav
64,192,17048,1,0,0:0:0:0:
192,192,17197,1,0,0:0:0:0:
64,192,17345,1,0,0:0:0:0:
320,192,17345,1,0,0:0:0:0:
448,192,17494,1,0,0:0:0:50:kick.wav
192,192,17494,1,0,0:0:0:0:
64,192,17642,1,0,0:0:0:0:
320,192,17642,1,0,0:0:0:0:
192,192,17791,1,0,0:0:0:50:kick.wav
448,192,17791,1,0,0:0:0:0:
320,192,17840,1,0,0:0:0:0:
192,192,17890,1,0,0:0:0:0:
448,192,17939,1,0,0:0:0:0:
64,192,17939,1,0,0:0:0:0:
320,192,18088,1,0,0:0:0:50:kick.wav
192,192,18088,1,0,0:0:0:0:
448,192,18236,1,0,0:0:0:50:kick.wav
64,192,18236,1,0,0:0:0:50:crash.wav
320,192,18236,1,0,0:0:0:0:
192,192,18385,1,0,0:0:0:0:
320,192,18385,1,0,0:0:0:0:
64,192,18533,1,0,0:0:0:0:
448,192,18533,1,0,0:0:0:0:
192,192,18608,1,0,0:0:0:0:
320,192,18682,1,0,0:0:0:50:kick.wav
448,192,18682,1,0,0:0:0:0:
192,192,18756,1,0,0:0:0:0:
448,192,18830,1,0,0:0:0:0:
64,192,18830,1,0,0:0:0:0:
320,192,18979,1,0,0:0:0:50:kick.wav
192,192,18979,1,0,0:0:0:0:
64,192,19127,1,0,0:0:0:50:kick.wav
192,192,19127,1,0,0:0:0:0:
448,192,19202,1,0,0:0:0:50:kick.wav
320,192,19202,1,0,0:0:0:0:
192,192,19276,1,0,0:0:0:50:kick.wav
64,192,19276,1,0,0:0:0:0:
64,192,19424,1,0,0:0:0:50:kick.wav
320,192,19424,1,0,0:0:0:50:crash.wav
448,192,19424,1,0,0:0:0:0:
192,192,19573,1,0,0:0:0:0:
64,192,19721,1,0,0:0:0:0:
320,192,19796,1,0,0:0:0:0:
64,192,19870,1,0,0:0:0:0:
320,192,19944,1,0,0:0:0:0:
448,192,20018,128,0,20315:0:0:0:50:kick.wav
192,192,20018,1,0,0:0:0:50:crash.wav
64,192,20018,1,0,0:0:0:0:
320,192,20167,1,0,0:0:0:0:
192,192,20315,1,0,0:0:0:0:
64,192,20315,1,0,0:0:0:0:
320,192,20390,1,0,0:0:0:0:
192,192,20464,1,0,0:0:0:0:
448,192,20464,1,0,0:0:0:0:
320,192,20538,1,0,0:0:0:0:
64,192,20613,128,0,20910:0:0:0:50:kick.wav
192,192,20613,1,0,0:0:0:50:crash.wav
448,192,20613,1,0,0:0:0:0:
320,192,20761,1,0,0:0:0:0:
192,192,20910,1,0,0:0:0:50:kick.wav
320,192,20910,1,0,0:0:0:50:crash.wav
448,192,20910,1,0,0:0:0:0:
320,192,21058,1,0,0:0:0:0:
64,192,21058,1,0,0:0:0:0:
448,192,21207,128,0,21504:0:0:0:50:crash.wav
64,192,21207,1,0,0:0:0:50:kick.wav
192,192,21207,1,0,0:0:0:0:
64,192,21801,1,0,0:0:0:50:kick.wav
320,192,21801,1,0,0:0:0:50:crash.wav
192,192,21801,1,0,0:0:0:0:
448,192,21801,1,0,0:0:0:0:
448,192,21949,1,0,0:0:0:35:hihat.wav
192,192,21949,1,0,0:0:0:0:
320,192,22098,1,0,0:0:0:50:snare.wav
448,192,22098,1,0,0:0:0:50:kick.wav
64,192,22098,1,0,0:0:0:0:
64,192,22246,1,0,0:0:0:35:hihat.wav
320,192,22246,1,0,0:0:0:0:
64,192,22395,1,0,0:0:0:50:kick.wav
192,192,22395,1,0,0:0:0:0:
448,192,22395,1,0,0:0:0:0:
448,192,22543,1,0,0:0:0:35:hihat.wav
192,192,22543,1,0,0:0:0:0:
320,192,22593,1,0,0:0:0:0:
192,192,22642,1,0,0:0:0:0:
64,192,22692,1,0,0:0:0:50:snare.wav
448,192,22692,1,0,0:0:0:50:kick.wav
320,192,22692,1,0,0:0:0:0:
192,192,22840,1,0,0:0:0:35:hihat.wav
320,192,22840,1,0,0:0:0:0:
448,192,22989,1,0,0:0:0:50:kick.wav
192,192,22989,1,0,0:0:0:0:
64,192,22989,1,0,0:0:0:0:
64,192,23137,1,0,0:0:0:35:hihat.wav
320,192,23137,1,0,0:0:0:0:
192,192,23286,1,0,0:0:0:50:kick.wav
64,192,23286,1,0,0:0:0:50:snare.wav
320,192,23286,1,0,0:0:0:0:
448,192,23360,1,0,0:0:0:0:
320,192,23434,1,0,0:0:0:35:hihat.wav
64,192,23434,1,0,0:0:0:0:
448,192,23509,1,0,0:0:0:0:
64,192,23583,128,0,23880:0:0:0:50:kick.wav
320,192,23583,1,0,0:0:0:0:
192,192,23583,1,0,0:0:0:0:
448,192,23731,1,0,0:0:0:35:hihat.wav
320,192,23731,1,0,0:0:0:0:
448,192,23880,128,0,24028:0:0:0:50:kick.wav
320,192,23880,1,0,0:0:0:50:snare.wav
192,192,23880,1,0,0:0:0:0:
64,192,24028,1,0,0:0:0:35:hihat.wav
192,192,24028,1,0,0:0:0:0:
320,192,24177,1,0,0:0:0:50:kick.wav
448,192,24177,1,0,0:0:0:0:
64,192,24177,1,0,0:0:0:0:
320,192,24325,1,0,0:0:0:35:hihat.wav
192,192,24325,1,0,0:0:0:0:
64,192,24474,1,0,0:0:0:50:snare.wav
448,192,24474,1,0,0:0:0:50:kick.wav
192,192,24474,1,0,0:0:0:0:
320,192,24548,1,0,0:0:0:0:
64,192,24622,1,0,0:0:0:35:hihat.wav
448,192,24622,1,0,0:0:0:0:
320,192,24697,1,0,0:0:0:0:
64,192,24771,1,0,0:0:0:50:kick.wav
192,192,24771,1,0,0:0:0:0:
448,192,24771,1,0,0:0:0:0:
448,192,24919,1,0,0:0:0:35:hihat.wav
320,192,24919,1,0,0:0:0:0:
64,192,25068,1,0,0:0:0:50:snare.wav
320,192,25068,1,0,0:0:0:50:kick.wav
192,192,25068,1,0,0:0:0:0:
448,192,25142,1,0,0:0:0:0:
320,192,25216,1,0,0:0:0:35:hihat.wav
64,192,25216,1,0,0:0:0:0:
192,192,25291,1,0,0:0:0:0:
448,192,25365,1,0,0:0:0:50:kick.wav
64,192,25365,1,0,0:0:0:0:
320,192,25514,1,0,0:0:0:35:hihat.wav
192,192,25662,1,0,0:0:0:50:kick.wav
64,192,25662,1,0,0:0:0:50:snare.wav
448,192,25662,1,0,0:0:0:0:
192,192,25811,1,0,0:0:0:35:hihat.wav
320,192,25811,1,0,0:0:0:0:
320,192,25959,1,0,0:0:0:50:kick.wav
64,192,25959,1,0,0:0:0:0:
448,192,25959,1,0,0:0:0:0:
192,192,26108,1,0,0:0:0:35:hihat.wav
320,192,26108,1,0,0:0:0:0:
448,192,26256,1,0,0:0:0:50:kick.wav
192,192,26256,1,0,0:0:0:50:snare.wav
64,192,26256,1,0,0:0:0:0:
320,192,26405,1,0,0:0:0:35:hihat.wav
192,192,26405,1,0,0:0:0:0:
64,192,26553,1,0,0:0:0:50:crash.wav
320,192,26553,1,0,0:0:0:50:kick.wav
192,192,26553,1,0,0:0:0:0:
320,192,26702,1,0,0:0:0:35:hihat.wav
448,192,26702,1,0,0:0:0:0:
192,192,26850,1,0,0:0:0:50:snare.wav
448,192,26850,1,0,0:0:0:50:kick.wav
64,192,26850,1,0,0:0:0:0:
64,192,26999,1,0,0:0:0:35:hihat.wav
320,192,26999,1,0,0:0:0:0:
64,192,27147,1,0,0:0:0:50:kick.wav
192,192,27147,1,0,0:0:0:0:
448,192,27147,1,0,0:0:0:0:
448,192,27296,1,0,0:0:0:35:hihat.wav
192,192,27296,1,0,0:0:0:0:
320,192,27345,1,0,0:0:0:0:
192,192,27395,1,0,0:0:0:0:
64,192,27444,1,0,0:0:0:50:snare.wav
448,192,27444,1,0,0:0:0:50:kick.wav
320,192,27444,1,0,0:0:0:0:
192,192,27593,1,0,0:0:0:35:hihat.wav
320,192,27593,1,0,0:0:0:0:
448,192,27741,1,0,0:0:0:50:kick.wav
192,192,27741,1,0,0:0:0:0:
64,192,27741,1,0,0:0:0:0:
64,192,27890,1,0,0:0:0:35:hihat.wav
320,192,27890,1,0,0:0:0:0:
448,192,28038,1,0,0:0:0:50:kick.wav
64,192,28038,1,0,0:0:0:50:snare.wav
320,192,28038,1,0,0:0:0:0:
192,192,28113,1,0,0:0:0:0:
320,192,28187,1,0,0:0:0:35:hihat.wav
448,192,28187,1,0,0:0:0:0:
192,192,28261,1,0,0:0:0:0:
64,192,28335,128,0,28632:0:0:0:50:kick.wav
320,192,28335,1,0,0:0:0:0:
448,192,28335,1,0,0:0:0:0:
448,192,28484,1,0,0:0:0:35:hihat.wav
448,192,28632,128,0,28781:0:0:0:50:kick.wav
320,192,28632,1,0,0:0:0:50:snare.wav
192,192,28632,1,0,0:0:0:0:
64,192,28781,1,0,0:0:0:35:hihat.wav
192,192,28781,1,0,0:0:0:0:
320,192,28929,1,0,0:0:0:50:crash.wav
448,192,28929,1,0,0:0:0:50:kick.wav
64,192,28929,1,0,0:0:0:0:
192,192,29078,1,0,0:0:0:0:
448,192,29226,1,0,0:0:0:0:
64,192,29301,1,0,0:0:0:0:
192,192,29375,1,0,0:0:0:0:
320,192,29449,1,0,0:0:0:0:
64,192,29523,1,0,0:0:0:50:kick.wav
192,192,29523,1,0,0:0:0:50:crash.wav
448,192,29523,1,0,0:0:0:0:
320,192,29672,1,0,0:0:0:0:
448,192,29820,1,0,0:0:0:0:
192,192,29969,1,0,0:0:0:0:
320,192,30117,1,0,0:0:0:50:kick.wav
64,192,30117,1,0,0:0:0:50:crash.wav
448,192,30117,1,0,0:0:0:0:
448,192,30266,1,0,0:0:0:0:
320,192,30414,1,0,0:0:0:50:crash.wav
192,192,30414,1,0,0:0:0:50:kick.wav
64,192,30414,1,0,0:0:0:0:
64,192,30563,1,0,0:0:0:0:
320,192,30712,1,0,0:0:0:50:kick.wav
192,192,30712,1,0,0:0:0:50:crash.wav
448,192,30712,128,0,31009:0:0:0:0:
64,192,31009,128,0,31306:0:0:0:0:
320,192,31306,1,0,0:0:0:50:crash.wav
448,192,31306,1,0,0:0:0:50:kick.wav
192,192,31306,128,0,31454:0:0:0:0:
320,192,31454,1,0,0:0:0:35:hihat.wav
64,192,31454,128,0,31603:0:0:0:0:
448,192,31603,1,0,0:0:0:50:kick.wav
192,192,31603,1,0,0:0:0:50:snare.wav
320,192,31677,1,0,0:0:0:0:
192,192,31751,1,0,0:0:0:35:hihat.wav
320,192,31825,1,0,0:0:0:0:
448,192,31900,1,0,0:0:0:50:kick.wav
64,192,31900,128,0,32048:0:0:0:0:
448,192,32048,1,0,0:0:0:35:hihat.wav
320,192,32098,1,0,0:0:0:0:
192,192,32147,1,0,0:0:0:0:
64,192,32197,1,0,0:0:0:50:kick.wav
448,192,32197,128,0,32345:0:0:0:50:snare.wav
192,192,32345,1,0,0:0:0:35:hihat.wav
320,192,32345,128,0,32494:0:0:0:0:
192,192,32494,1,0,0:0:0:50:kick.wav
64,192,32494,128,0,32642:0:0:0:0:
448,192,32642,1,0,0:0:0:35:hihat.wav
320,192,32642,128,0,32791:0:0:0:0:
448,192,32791,1,0,0:0:0:50:snare.wav
192,192,32791,1,0,0:0:0:50:kick.wav
64,192,32865,1,0,0:0:0:0:
192,192,32939,1,0,0:0:0:35:hihat.wav
320,192,33014,1,0,0:0:0:0:
448,192,33088,128,0,33385:0:0:0:50:kick.wav
192,192,33088,1,0,0:0:0:0:
64,192,33236,1,0,0:0:0:35:hihat.wav
320,192,33236,1,0,0:0:0:0:
192,192,33385,128,0,33533:0:0:0:50:snare.wav
64,192,33385,1,0,0:0:0:50:kick.wav
320,192,33533,1,0,0:0:0:35:hihat.wav
448,192,33533,1,0,0:0:0:0:
192,192,33682,1,0,0:0:0:50:kick.wav
448,192,33682,128,0,33830:0:0:0:0:
320,192,33830,1,0,0:0:0:35:hihat.wav
64,192,33830,128,0,33979:0:0:0:0:
192,192,33979,1,0,0:0:0:50:kick.wav
448,192,33979,1,0,0:0:0:50:snare.wav
320,192,34053,1,0,0:0:0:0:
192,192,34127,1,0,0:0:0:35:hihat.wav
320,192,34202,1,0,0:0:0:0:
64,192,34276,1,0,0:0:0:50:kick.wav
448,192,34276,128,0,34424:0:0:0:0:
192,192,34424,1,0,0:0:0:35:hihat.wav
320,192,34424,128,0,34573:0:0:0:0:
448,192,34573,1,0,0:0:0:50:kick.wav
64,192,34573,128,0,34721:0:0:0:50:snare.wav
320,192,34721,1,0,0:0:0:35:hihat.wav
192,192,34721,128,0,34870:0:0:0:0:
320,192,34870,128,0,35018:0:0:0:50:kick.wav
448,192,34870,1,0,0:0:0:0:
64,192,35018,1,0,0:0:0:35:hihat.wav
192,192,35018,128,0,35167:0:0:0:0:
320,192,35167,1,0,0:0:0:50:snare.wav
448,192,35167,128,0,35315:0:0:0:50:kick.wav
192,192,35315,1,0,0:0:0:35:hihat.wav
64,192,35315,128,0,35464:0:0:0:0:
448,192,35464,128,0,35613:0:0:0:50:kick.wav
320,192,35464,1,0,0:0:0:0:
64,192,35613,1,0,0:0:0:35:hihat.wav
192,192,35613,128,0,35761:0:0:0:0:
448,192,35761,1,0,0:0:0:50:snare.wav
320,192,35761,128,0,35910:0:0:0:50:kick.wav
64,192,35910,1,0,0:0:0:35:hihat.wav
192,192,35910,128,0,36058:0:0:0:0:
320,192,36058,1,0,0:0:0:50:crash.wav
64,192,36058,1,0,0:0:0:50:kick.wav
448,192,36058,128,0,36207:0:0:0:0:
320,192,36207,1,0,0:0:0:35:hihat.wav
192,192,36207,128,0,36355:0:0:0:0:
448,192,36355,1,0,0:0:0:50:kick.wav
64,192,36355,128,0,36504:0:0:0:50:snare.wav
320,192,36504,128,0,36652:0:0:0:35:hihat.wav
192,192,36504,1,0,0:0:0:0:
64,192,36652,1,0,0:0:0:50:kick.wav
448,192,36652,128,0,36801:0:0:0:0:
320,192,36801,1,0,0:0:0:35:hihat.wav
192,192,36801,128,0,36949:0:0:0:0:
448,192,36949,1,0,0:0:0:50:kick.wav
64,192,36949,128,0,37098:0:0:0:50:snare.wav
192,192,37098,1,0,0:0:0:35:hihat.wav
320,192,37098,128,0,37246:0:0:0:0:
64,192,37246,1,0,0:0:0:50:kick.wav
448,192,37246,128,0,37395:0:0:0:0:
320,192,37395,1,0,0:0:0:35:hihat.wav
192,192,37395,128,0,37543:0:0:0:0:
64,192,37543,1,0,0:0:0:50:snare.wav
448,192,37543,1,0,0:0:0:50:kick.wav
320,192,37617,1,0,0:0:0:0:
192,192,37692,1,0,0:0:0:35:hihat.wav
320,192,37766,1,0,0:0:0:0:
64,192,37840,128,0,38137:0:0:0:50:kick.wav
448,192,37840,1,0,0:0:0:0:
448,192,37989,1,0,0:0:0:35:hihat.wav
192,192,37989,1,0,0:0:0:0:
320,192,38137,1,0,0:0:0:50:snare.wav
448,192,38137,128,0,38286:0:0:0:50:kick.wav
64,192,38286,1,0,0:0:0:35:hihat.wav
192,192,38286,1,0,0:0:0:0:
448,192,38434,1,0,0:0:0:50:kick.wav
64,192,38434,128,0,38583:0:0:0:0:
320,192,38434,1,0,0:0:0:0:
448,192,38583,1,0,0:0:0:35:hihat.wav
192,192,38583,128,0,38731:0:0:0:0:
320,192,38731,1,0,0:0:0:50:kick.wav
64,192,38731,1,0,0:0:0:50:snare.wav
448,192,38806,1,0,0:0:0:0:
64,192,38880,1,0,0:0:0:35:hihat.wav
192,192,38954,1,0,0:0:0:0:
320,192,39028,1,0,0:0:0:50:kick.wav
448,192,39028,128,0,39177:0:0:0:0:
192,192,39177,1,0,0:0:0:35:hihat.wav
64,192,39177,128,0,39325:0:0:0:0:
320,192,39325,1,0,0:0:0:50:kick.wav
448,192,39325,128,0,39474:0:0:0:50:snare.wav
64,192,39474,1,0,0:0:0:35:hihat.wav
192,192,39474,128,0,39622:0:0:0:0:
64,192,39622,1,0,0:0:0:50:crash.wav
320,192,39622,1,0,0:0:0:50:kick.wav
448,192,39622,128,0,39771:0:0:0:0:
192,192,39771,1,0,0:0:0:35:hihat.wav
64,192,39771,128,0,39919:0:0:0:0:
320,192,39919,1,0,0:0:0:50:snare.wav
192,192,39919,1,0,0:0:0:50:kick.wav
448,192,39919,128,0,40068:0:0:0:50:crash.wav
64,192,40068,1,0,0:0:0:35:hihat.wav
320,192,40068,128,0,40216:0:0:0:0:
64,192,40216,1,0,0:0:0:50:kick.wav
448,192,40216,1,0,0:0:0:50:crash.wav
192,192,40216,128,0,40365:0:0:0:0:
448,192,40365,1,0,0:0:0:35:hihat.wav
320,192,40365,1,0,0:0:0:0:
64,192,40514,1,0,0:0:0:50:snare.wav
192,192,40514,1,0,0:0:0:50:kick.wav
320,192,40662,1,0,0:0:0:35:hihat.wav
448,192,40811,1,0,0:0:0:50:crash.wav
192,192,40811,1,0,0:0:0:50:kick.wav
64,192,40811,1,0,0:0:0:0:
64,192,41256,1,0,0:0:0:35:hihat.wav
192,192,41256,1,0,0:0:0:50:kick.wav
192,192,41553,1,0,0:0:0:50:kick.wav
64,192,41553,1,0,0:0:0:35:hihat.wav
320,192,41850,1,0,0:0:0:35:hihat.wav
192,192,41850,1,0,0:0:0:50:kick.wav
448,192,41999,1,0,0:0:0:50:kick.wav
64,192,41999,1,0,0:0:0:0:
64,192,42296,1,0,0:0:0:50:snare.wav
320,192,42444,1,0,0:0:0:50:kick.wav
448,192,42444,1,0,0:0:0:35:hihat.wav
448,192,42741,1,0,0:0:0:35:hihat.wav
320,192,42741,1,0,0:0:0:50:kick.wav
64,192,42890,1,0,0:0:0:50:snare.wav
192,192,42890,1,0,0:0:0:50:kick.wav
320,192,42964,1,0,0:0:0:50:kick.wav
448,192,42964,1,0,0:0:0:0:
192,192,43038,1,0,0:0:0:50:kick.wav
64,192,43038,1,0,0:0:0:0:
320,192,43187,1,0,0:0:0:50:crash.wav
64,192,43187,1,0,0:0:0:50:kick.wav
448,192,43187,128,0,43335:0:0:0:0:
64,192,43335,1,0,0:0:0:35:hihat.wav
192,192,43335,128,0,43484:0:0:0:0:
448,192,43484,1,0,0:0:0:50:kick.wav
320,192,43484,1,0,0:0:0:50:snare.wav
64,192,43558,1,0,0:0:0:0:
320,192,43632,1,0,0:0:0:35:hihat.wav
192,192,43707,1,0,0:0:0:0:
64,192,43781,1,0,0:0:0:50:kick.wav
448,192,43781,128,0,43929:0:0:0:0:
192,192,43929,1,0,0:0:0:35:hihat.wav
320,192,43929,128,0,44078:0:0:0:0:
192,192,44078,1,0,0:0:0:50:kick.wav
64,192,44078,128,0,44226:0:0:0:50:snare.wav
448,192,44226,1,0,0:0:0:35:hihat.wav
320,192,44226,128,0,44375:0:0:0:0:
192,192,44375,1,0,0:0:0:50:kick.wav
448,192,44375,128,0,44523:0:0:0:0:
320,192,44523,1,0,0:0:0:35:hihat.wav
64,192,44523,128,0,44672:0:0:0:0:
448,192,44672,1,0,0:0:0:50:snare.wav
192,192,44672,128,0,44820:0:0:0:50:kick.wav
64,192,44820,1,0,0:0:0:35:hihat.wav
320,192,44820,128,0,44969:0:0:0:0:
192,192,44969,1,0,0:0:0:50:kick.wav
448,192,44969,128,0,45117:0:0:0:0:
320,192,45117,1,0,0:0:0:35:hihat.wav
64,192,45117,128,0,45266:0:0:0:0:
448,192,45266,1,0,0:0:0:50:snare.wav
320,192,45266,128,0,45415:0:0:0:50:kick.wav
64,192,45415,1,0,0:0:0:35:hihat.wav
192,192,45415,128,0,45563:0:0:0:0:
64,192,45563,1,0,0:0:0:50:crash.wav
448,192,45563,1,0,0:0:0:50:kick.wav
320,192,45563,128,0,45712:0:0:0:0:
448,192,45712,128,0,45860:0:0:0:35:hihat.wav
192,192,45860,128,0,46009:0:0:0:50:snare.wav
64,192,45860,1,0,0:0:0:0:
320,192,46009,128,0,46157:0:0:0:35:hihat.wav
448,192,46009,1,0,0:0:0:50:kick.wav
192,192,46157,1,0,0:0:0:50:crash.wav
64,192,46157,128,0,46306:0:0:0:0:
448,192,46306,1,0,0:0:0:35:hihat.wav
320,192,46306,128,0,46454:0:0:0:50:kick.wav
64,192,46454,1,0,0:0:0:50:snare.wav
448,192,46454,128,0,46603:0:0:0:0:
192,192,46603,1,0,0:0:0:35:hihat.wav
320,192,46603,128,0,46751:0:0:0:50:kick.wav
64,192,46751,1,0,0:0:0:50:kick.wav
192,192,46751,1,0,0:0:0:50:crash.wav
448,192,46751,128,0,46900:0:0:0:0:
192,192,46900,128,0,47048:0:0:0:35:hihat.wav
64,192,47048,1,0,0:0:0:50:snare.wav
320,192,47048,1,0,0:0:0:0:
448,192,47122,1,0,0:0:0:0:
320,192,47197,1,0,0:0:0:35:hihat.wav
192,192,47271,1,0,0:0:0:0:
64,192,47345,1,0,0:0:0:50:crash.wav
448,192,47345,128,0,47494:0:0:0:0:
192,192,47494,1,0,0:0:0:35:hihat.wav
320,192,47494,1,0,0:0:0:50:kick.wav
192,192,47642,1,0,0:0:0:50:kick.wav
64,192,47642,1,0,0:0:0:50:snare.wav
320,192,47716,1,0,0:0:0:50:kick.wav
448,192,47716,1,0,0:0:0:0:
64,192,47791,1,0,0:0:0:35:hihat.wav
192,192,47791,1,0,0:0:0:50:kick.wav
64,192,47939,1,0,0:0:0:50:kick.wav
448,192,47939,1,0,0:0:0:50:crash.wav
320,192,48088,1,0,0:0:0:50:kick.wav
192,192,48088,1,0,0:0:0:35:hihat.wav
64,192,48236,1,0,0:0:0:50:snare.wav
448,192,48236,1,0,0:0:0:50:kick.wav
192,192,48385,1,0,0:0:0:35:hihat.wav
320,192,48385,1,0,0:0:0:50:kick.wav
64,192,48533,1,0,0:0:0:50:kick.wav
448,192,48533,1,0,0:0:0:0:
192,192,48682,1,0,0:0:0:50:kick.wav
320,192,48682,1,0,0:0:0:35:hihat.wav
192,192,48830,1,0,0:0:0:50:kick.wav
64,192,48830,1,0,0:0:0:50:snare.wav
320,192,48905,1,0,0:0:0:50:kick.wav
448,192,48905,1,0,0:0:0:0:
192,192,48979,1,0,0:0:0:35:hihat.wav
64,192,48979,1,0,0:0:0:50:kick.wav
320,192,49053,1,0,0:0:0:50:kick.wav
448,192,49053,1,0,0:0:0:0:
448,192,49127,1,0,0:0:0:50:kick.wav
192,192,49127,1,0,0:0:0:50:crash.wav
64,192,49127,1,0,0:0:0:0:
192,192,49276,1,0,0:0:0:50:kick.wav
64,192,49276,1,0,0:0:0:50:crash.wav
320,192,49573,1,0,0:0:0:50:kick.wav
192,192,49573,1,0,0:0:0:0:
320,192,49870,1,0,0:0:0:50:kick.wav
192,192,49870,1,0,0:0:0:0:
320,192,50018,1,0,0:0:0:50:kick.wav
448,192,50018,1,0,0:0:0:0:
192,192,50093,1,0,0:0:0:50:kick.wav
64,192,50093,1,0,0:0:0:0:
320,192,50167,1,0,0:0:0:50:kick.wav
448,192,50167,1,0,0:0:0:0:
64,192,50241,1,0,0:0:0:50:kick.wav
192,192,50241,1,0,0:0:0:0:
320,192,50315,1,0,0:0:0:50:kick.wav
448,192,50315,128,0,52692:0:0:0:0:
64,192,52692,128,0,52840:0:0:0:0:
192,192,52840,128,0,52989:0:0:0:0:
320,192,52989,128,0,53137:0:0:0:0:
448,192,53137,128,0,53286:0:0:0:0:
320,192,53286,128,0,53509:0:0:0:0:
448,192,53583,128,0,53731:0:0:0:0:
320,192,53731,128,0,53880:0:0:0:0:
64,192,53880,128,0,54028:0:0:0:0:
192,192,54028,128,0,54177:0:0:0:0:
320,192,54177,128,0,54325:0:0:0:0:
448,192,54325,128,0,54474:0:0:0:0:
192,192,54474,128,0,54697:0:0:0:0:
320,192,54771,128,0,54994:0:0:0:0:
64,192,55068,128,0,55291:0:0:0:0:
448,192,55365,128,0,55588:0:0:0:0:
192,192,55662,128,0,55885:0:0:0:0:
320,192,55959,128,0,56182:0:0:0:0:
64,192,56256,128,0,56702:0:0:0:0:
448,192,56999,128,0,57147:0:0:0:0:
320,192,57147,128,0,57296:0:0:0:0:
192,192,57296,128,0,57444:0:0:0:0:
64,192,57444,128,0,57593:0:0:0:0:
192,192,57593,128,0,57741:0:0:0:0:
320,192,57741,128,0,57890:0:0:0:35:drum.wav
64,192,57741,1,0,0:0:0:0:
448,192,57890,128,0,58038:0:0:0:0:
320,192,58038,128,0,58261:0:0:0:0:
448,192,58335,128,0,58484:0:0:0:35:drum.wav
192,192,58335,1,0,0:0:0:0:
320,192,58484,128,0,58632:0:0:0:0:
64,192,58632,128,0,58781:0:0:0:0:
192,192,58781,128,0,58929:0:0:0:0:
448,192,58929,128,0,59078:0:0:0:35:drum.wav
64,192,58929,1,0,0:0:0:0:
320,192,59078,128,0,59226:0:0:0:0:
64,192,59226,128,0,59375:0:0:0:0:
192,192,59375,128,0,59523:0:0:0:0:
64,192,59523,1,0,0:0:0:35:drum.wav
320,192,59523,128,0,59672:0:0:0:0:
448,192,59672,128,0,59820:0:0:0:0:
64,192,59820,128,0,60117:0:0:0:0:
448,192,60117,128,0,60266:0:0:0:35:drum.wav
192,192,60117,1,0,0:0:0:0:
320,192,60266,128,0,60415:0:0:0:0:
192,192,60415,128,0,60563:0:0:0:0:
448,192,60712,128,0,60860:0:0:0:35:drum.wav
320,192,60712,1,0,0:0:0:0:
64,192,61009,128,0,61157:0:0:0:0:
192,192,61157,128,0,61306:0:0:0:0:
448,192,61306,128,0,61454:0:0:0:35:drum.wav
320,192,61306,1,0,0:0:0:0:
192,192,61454,128,0,61603:0:0:0:0:
64,192,61603,128,0,61751:0:0:0:0:
448,192,61751,128,0,61900:0:0:0:0:
320,192,61900,128,0,62048:0:0:0:35:drum.wav
192,192,61900,1,0,0:0:0:0:
64,192,62048,128,0,62197:0:0:0:0:
192,192,62197,128,0,63088:0:0:0:0:
320,192,62494,1,0,0:0:0:35:drum.wav
448,192,63088,1,0,0:0:0:35:drum.wav
320,192,63385,128,0,64276:0:0:0:0:
448,192,63682,1,0,0:0:0:35:drum.wav
64,192,63979,128,0,64573:0:0:0:0:
448,192,64276,1,0,0:0:0:35:drum.wav
192,192,64573,1,0,0:0:0:50:crash.wav
320,192,64573,1,0,0:0:0:35:drum.wav
448,192,64573,1,0,0:0:0:50:kick.wav
64,192,64721,1,0,0:0:0:35:hihat.wav
192,192,64870,1,0,0:0:0:35:drum.wav
320,192,64870,1,0,0:0:0:0:
448,192,65018,1,0,0:0:0:35:hihat.wav
448,192,65167,1,0,0:0:0:35:drum.wav
192,192,65167,1,0,0:0:0:0:
320,192,65315,1,0,0:0:0:35:hihat.wav
192,192,65464,1,0,0:0:0:35:drum.wav
64,192,65464,1,0,0:0:0:0:
320,192,65613,1,0,0:0:0:35:hihat.wav
448,192,65761,1,0,0:0:0:50:crash.wav
192,192,65761,1,0,0:0:0:35:drum.wav
64,192,65761,1,0,0:0:0:50:kick.wav
320,192,65910,1,0,0:0:0:35:hihat.wav
448,192,66058,1,0,0:0:0:35:drum.wav
192,192,66058,1,0,0:0:0:0:
320,192,66207,1,0,0:0:0:35:hihat.wav
64,192,66355,1,0,0:0:0:35:drum.wav
448,192,66355,1,0,0:0:0:0:
192,192,66504,1,0,0:0:0:35:hihat.wav
64,192,66652,1,0,0:0:0:35:drum.wav
320,192,66652,1,0,0:0:0:0:
448,192,66801,1,0,0:0:0:35:hihat.wav
192,192,66949,1,0,0:0:0:50:crash.wav
64,192,66949,1,0,0:0:0:35:drum.wav
320,192,66949,1,0,0:0:0:50:kick.wav
448,192,67098,1,0,0:0:0:35:hihat.wav
192,192,67246,1,0,0:0:0:35:drum.wav
320,192,67246,1,0,0:0:0:0:
64,192,67395,1,0,0:0:0:35:hihat.wav
192,192,67543,1,0,0:0:0:35:drum.wav
448,192,67543,1,0,0:0:0:0:
320,192,67692,1,0,0:0:0:35:hihat.wav
192,192,67840,1,0,0:0:0:35:drum.wav
64,192,67840,1,0,0:0:0:0:
448,192,67989,1,0,0:0:0:35:hihat.wav
448,192,68137,1,0,0:0:0:50:crash.wav
192,192,68137,1,0,0:0:0:35:drum.wav
64,192,68137,1,0,0:0:0:50:kick.wav
320,192,68286,1,0,0:0:0:35:hihat.wav
192,192,68434,1,0,0:0:0:35:drum.wav
64,192,68434,1,0,0:0:0:50:kick.wav
320,192,68434,1,0,0:0:0:50:crash.wav
448,192,68583,1,0,0:0:0:35:hihat.wav
320,192,68731,1,0,0:0:0:50:kick.wav
448,192,68731,1,0,0:0:0:35:drum.wav
192,192,68731,1,0,0:0:0:50:crash.wav
64,192,68880,1,0,0:0:0:35:hihat.wav
192,192,69028,1,0,0:0:0:50:kick.wav
64,192,69028,1,0,0:0:0:0:
320,192,69103,1,0,0:0:0:50:kick.wav
448,192,69103,1,0,0:0:0:0:
192,192,69177,1,0,0:0:0:50:kick.wav
64,192,69177,1,0,0:0:0:35:hihat.wav
320,192,69251,1,0,0:0:0:50:kick.wav
448,192,69251,1,0,0:0:0:0:
192,192,69325,1,0,0:0:0:50:kick.wav
64,192,69325,1,0,0:0:0:50:crash.wav
448,192,69325,1,0,0:0:0:0:
192,192,69474,1,0,0:0:0:50:kick.wav
320,192,69474,1,0,0:0:0:0:
320,192,69622,1,0,0:0:0:50:kick.wav
448,192,69622,1,0,0:0:0:0:
320,192,69771,1,0,0:0:0:50:kick.wav
192,192,69771,1,0,0:0:0:0:
192,192,69919,1,0,0:0:0:50:kick.wav
64,192,69919,1,0,0:0:0:0:
192,192,70068,1,0,0:0:0:50:kick.wav
320,192,70068,1,0,0:0:0:0:
320,192,70216,1,0,0:0:0:50:kick.wav
448,192,70216,1,0,0:0:0:0:
192,192,70291,1,0,0:0:0:50:kick.wav
64,192,70291,1,0,0:0:0:0:
320,192,70365,1,0,0:0:0:50:kick.wav
448,192,70365,1,0,0:0:0:0:
192,192,70439,1,0,0:0:0:50:kick.wav
64,192,70439,1,0,0:0:0:0:
320,192,70514,1,0,0:0:0:50:kick.wav
448,192,70514,1,0,0:0:0:50:crash.wav
64,192,70514,1,0,0:0:0:0:
192,192,70662,1,0,0:0:0:50:kick.wav
320,192,70662,1,0,0:0:0:0:
192,192,70811,1,0,0:0:0:50:kick.wav
64,192,70811,1,0,0:0:0:0:
192,192,70959,1,0,0:0:0:50:kick.wav
320,192,70959,1,0,0:0:0:0:
320,192,71108,1,0,0:0:0:50:kick.wav
448,192,71108,1,0,0:0:0:0:
192,192,71256,1,0,0:0:0:50:kick.wav
320,192,71256,1,0,0:0:0:0:
192,192,71405,1,0,0:0:0:50:kick.wav
64,192,71405,1,0,0:0:0:0:
320,192,71479,1,0,0:0:0:50:kick.wav
448,192,71479,1,0,0:0:0:0:
192,192,71553,1,0,0:0:0:50:kick.wav
64,192,71553,1,0,0:0:0:0:
320,192,71627,1,0,0:0:0:50:kick.wav
448,192,71627,1,0,0:0:0:0:
192,192,71702,1,0,0:0:0:50:kick.wav
64,192,71702,1,0,0:0:0:50:crash.wav
448,192,71702,1,0,0:0:0:0:
320,192,71850,1,0,0:0:0:50:kick.wav
192,192,71850,1,0,0:0:0:0:
64,192,71999,1,0,0:0:0:50:kick.wav
192,192,71999,1,0,0:0:0:0:
320,192,72073,1,0,0:0:0:50:kick.wav
448,192,72073,1,0,0:0:0:0:
64,192,72147,1,0,0:0:0:50:kick.wav
192,192,72147,1,0,0:0:0:0:
320,192,72221,1,0,0:0:0:50:kick.wav
448,192,72221,1,0,0:0:0:0:
192,192,72296,1,0,0:0:0:50:kick.wav
64,192,72296,1,0,0:0:0:0:
320,192,72444,1,0,0:0:0:50:kick.wav
448,192,72444,1,0,0:0:0:0:
192,192,72518,1,0,0:0:0:50:kick.wav
64,192,72518,1,0,0:0:0:0:
320,192,72593,1,0,0:0:0:50:kick.wav
448,192,72593,1,0,0:0:0:0:
64,192,72741,1,0,0:0:0:50:kick.wav
192,192,72741,1,0,0:0:0:0:
320,192,72815,1,0,0:0:0:50:kick.wav
448,192,72815,1,0,0:0:0:0:
192,192,72890,1,0,0:0:0:25:kick.wav
64,192,72890,1,0,0:0:0:50:crash.wav
448,192,72927,1,0,0:0:0:25:kick.wav
320,192,72964,1,0,0:0:0:25:kick.wav
192,192,73001,1,0,0:0:0:25:kick.wav
64,192,73038,1,0,0:0:0:25:kick.wav
448,192,73075,1,0,0:0:0:25:kick.wav
320,192,73113,1,0,0:0:0:25:kick.wav
192,192,73150,1,0,0:0:0:25:kick.wav
64,192,73187,1,0,0:0:0:25:kick.wav
448,192,73224,1,0,0:0:0:25:kick.wav
320,192,73261,1,0,0:0:0:25:kick.wav
192,192,73298,1,0,0:0:0:25:kick.wav
64,192,73335,1,0,0:0:0:25:kick.wav
448,192,73372,1,0,0:0:0:25:kick.wav
320,192,73410,1,0,0:0:0:25:kick.wav
192,192,73447,1,0,0:0:0:25:kick.wav
64,192,73484,1,0,0:0:0:25:kick.wav
448,192,73521,1,0,0:0:0:25:kick.wav
192,192,73558,1,0,0:0:0:25:kick.wav
320,192,73595,1,0,0:0:0:25:kick.wav
64,192,73632,1,0,0:0:0:25:kick.wav
448,192,73669,1,0,0:0:0:25:kick.wav
192,192,73707,1,0,0:0:0:25:kick.wav
320,192,73744,1,0,0:0:0:25:kick.wav
64,192,73781,1,0,0:0:0:25:kick.wav
448,192,73818,1,0,0:0:0:25:kick.wav
192,192,73855,1,0,0:0:0:25:kick.wav
320,192,73892,1,0,0:0:0:25:kick.wav
64,192,73929,1,0,0:0:0:25:kick.wav
448,192,73966,1,0,0:0:0:25:kick.wav
192,192,74004,1,0,0:0:0:25:kick.wav
320,192,74041,1,0,0:0:0:25:kick.wav
448,192,74375,128,0,75266:0:0:0:0:
64,192,75266,1,0,0:0:0:50:crash.wav
320,192,75266,1,0,0:0:0:50:kick.wav
192,192,75266,1,0,0:0:0:0:
448,192,75415,1,0,0:0:0:35:hihat.wav
192,192,75415,1,0,0:0:0:0:
320,192,75563,1,0,0:0:0:50:kick.wav
448,192,75563,1,0,0:0:0:50:snare.wav
64,192,75563,1,0,0:0:0:0:
64,192,75712,1,0,0:0:0:35:hihat.wav
320,192,75712,1,0,0:0:0:0:
64,192,75860,1,0,0:0:0:50:kick.wav
192,192,75860,1,0,0:0:0:0:
448,192,75860,1,0,0:0:0:0:
448,192,76009,1,0,0:0:0:35:hihat.wav
192,192,76009,1,0,0:0:0:0:
64,192,76157,1,0,0:0:0:50:kick.wav
448,192,76157,1,0,0:0:0:50:snare.wav
320,192,76157,1,0,0:0:0:0:
192,192,76306,1,0,0:0:0:35:hihat.wav
320,192,76306,1,0,0:0:0:0:
448,192,76454,1,0,0:0:0:50:kick.wav
192,192,76454,1,0,0:0:0:0:
64,192,76454,1,0,0:0:0:0:
64,192,76603,1,0,0:0:0:35:hihat.wav
320,192,76603,1,0,0:0:0:0:
192,192,76751,1,0,0:0:0:50:snare.wav
64,192,76751,1,0,0:0:0:50:kick.wav
320,192,76751,1,0,0:0:0:0:
320,192,76900,1,0,0:0:0:35:hihat.wav
448,192,76900,1,0,0:0:0:0:
192,192,77048,1,0,0:0:0:50:kick.wav
64,192,77048,1,0,0:0:0:0:
448,192,77048,1,0,0:0:0:0:
192,192,77197,1,0,0:0:0:35:hihat.wav
320,192,77197,1,0,0:0:0:0:
320,192,77345,1,0,0:0:0:50:snare.wav
448,192,77345,1,0,0:0:0:50:kick.wav
64,192,77345,1,0,0:0:0:0:
64,192,77494,1,0,0:0:0:35:hihat.wav
192,192,77494,1,0,0:0:0:0:
320,192,77642,1,0,0:0:0:50:kick.wav
448,192,77642,1,0,0:0:0:0:
64,192,77642,1,0,0:0:0:0:
192,192,77791,1,0,0:0:0:35:hihat.wav
320,192,77791,1,0,0:0:0:0:
64,192,77939,1,0,0:0:0:50:kick.wav
448,192,77939,1,0,0:0:0:50:snare.wav
320,192,77939,1,0,0:0:0:0:
192,192,78088,1,0,0:0:0:35:hihat.wav
448,192,78088,1,0,0:0:0:0:
64,192,78236,1,0,0:0:0:50:kick.wav
192,192,78236,1,0,0:0:0:0:
448,192,78236,1,0,0:0:0:0:
192,192,78385,1,0,0:0:0:35:hihat.wav
320,192,78385,1,0,0:0:0:0:
448,192,78533,1,0,0:0:0:50:kick.wav
320,192,78533,1,0,0:0:0:50:snare.wav
192,192,78533,1,0,0:0:0:0:
64,192,78682,1,0,0:0:0:35:hihat.wav
448,192,78682,1,0,0:0:0:0:
448,192,78830,1,0,0:0:0:50:kick.wav
320,192,78830,1,0,0:0:0:0:
64,192,78830,1,0,0:0:0:0:
192,192,78979,1,0,0:0:0:35:hihat.wav
320,192,78979,1,0,0:0:0:0:
320,192,79127,1,0,0:0:0:50:snare.wav
448,192,79127,1,0,0:0:0:50:kick.wav
64,192,79127,1,0,0:0:0:0:
64,192,79276,1,0,0:0:0:35:hihat.wav
192,192,79276,1,0,0:0:0:0:
320,192,79424,1,0,0:0:0:50:kick.wav
64,192,79424,1,0,0:0:0:0:
448,192,79424,1,0,0:0:0:0:
192,192,79573,1,0,0:0:0:35:hihat.wav
320,192,79573,1,0,0:0:0:0:
448,192,79721,1,0,0:0:0:50:snare.wav
192,192,79721,1,0,0:0:0:50:kick.wav
64,192,79721,1,0,0:0:0:0:
320,192,79870,1,0,0:0:0:35:hihat.wav
192,192,79870,1,0,0:0:0:0:
64,192,80018,1,0,0:0:0:50:crash.wav
320,192,80018,1,0,0:0:0:50:kick.wav
448,192,80018,1,0,0:0:0:0:
448,192,80167,1,0,0:0:0:35:hihat.wav
192,192,80167,1,0,0:0:0:0:
320,192,80315,1,0,0:0:0:50:kick.wav
448,192,80315,1,0,0:0:0:50:snare.wav
64,192,80315,1,0,0:0:0:0:
192,192,80464,1,0,0:0:0:35:hihat.wav
320,192,80464,1,0,0:0:0:0:
64,192,80613,1,0,0:0:0:50:kick.wav
192,192,80613,1,0,0:0:0:0:
448,192,80613,1,0,0:0:0:0:
448,192,80761,1,0,0:0:0:35:hihat.wav
320,192,80761,1,0,0:0:0:0:
64,192,80910,1,0,0:0:0:50:kick.wav
448,192,80910,1,0,0:0:0:50:snare.wav
320,192,80910,1,0,0:0:0:0:
192,192,81058,1,0,0:0:0:35:hihat.wav
320,192,81058,1,0,0:0:0:0:
448,192,81207,1,0,0:0:0:50:kick.wav
192,192,81207,1,0,0:0:0:0:
64,192,81207,1,0,0:0:0:0:
448,192,81355,1,0,0:0:0:35:hihat.wav
320,192,81355,1,0,0:0:0:0:
192,192,81504,1,0,0:0:0:50:snare.wav
64,192,81504,1,0,0:0:0:50:kick.wav
320,192,81504,1,0,0:0:0:0:
448,192,81652,1,0,0:0:0:35:hihat.wav
192,192,81652,1,0,0:0:0:0:
320,192,81801,1,0,0:0:0:50:kick.wav
64,192,81801,1,0,0:0:0:0:
448,192,81801,1,0,0:0:0:0:
320,192,81949,1,0,0:0:0:35:hihat.wav
192,192,81949,1,0,0:0:0:0:
320,192,82098,1,0,0:0:0:50:snare.wav
64,192,82098,1,0,0:0:0:50:kick.wav
448,192,82098,1,0,0:0:0:0:
448,192,82246,1,0,0:0:0:35:hihat.wav
192,192,82246,1,0,0:0:0:0:
192,192,82395,1,0,0:0:0:50:kick.wav
320,192,82395,1,0,0:0:0:0:
64,192,82395,1,0,0:0:0:0:
448,192,82543,1,0,0:0:0:35:hihat.wav
320,192,82543,1,0,0:0:0:0:
64,192,82692,1,0,0:0:0:50:kick.wav
448,192,82692,1,0,0:0:0:50:snare.wav
192,192,82692,1,0,0:0:0:0:
320,192,82840,1,0,0:0:0:35:hihat.wav
192,192,82840,1,0,0:0:0:0:
64,192,82989,1,0,0:0:0:50:kick.wav
448,192,82989,1,0,0:0:0:0:
320,192,82989,1,0,0:0:0:0:
64,192,83137,1,0,0:0:0:35:hihat.wav
192,192,83137,1,0,0:0:0:0:
192,192,83286,1,0,0:0:0:50:kick.wav
320,192,83286,1,0,0:0:0:50:snare.wav
448,192,83286,1,0,0:0:0:0:
192,192,83434,1,0,0:0:0:35:hihat.wav
64,192,83434,1,0,0:0:0:0:
320,192,83583,1,0,0:0:0:50:crash.wav
64,192,83583,1,0,0:0:0:50:kick.wav
448,192,83583,1,0,0:0:0:0:
192,192,83731,1,0,0:0:0:35:hihat.wav
320,192,83731,1,0,0:0:0:0:
320,192,83880,1,0,0:0:0:50:kick.wav
192,192,83880,1,0,0:0:0:50:crash.wav
64,192,83880,1,0,0:0:0:50:snare.wav
448,192,84028,1,0,0:0:0:35:hihat.wav
64,192,84028,1,0,0:0:0:0:
320,192,84177,1,0,0:0:0:50:crash.wav
192,192,84177,1,0,0:0:0:50:kick.wav
448,192,84177,1,0,0:0:0:0:
64,192,84325,1,0,0:0:0:35:hihat.wav
320,192,84325,1,0,0:0:0:0:
64,192,84474,1,0,0:0:0:50:snare.wav
192,192,84474,1,0,0:0:0:50:kick.wav
448,192,84548,1,0,0:0:0:50:kick.wav
320,192,84548,1,0,0:0:0:0:
64,192,84622,1,0,0:0:0:35:hihat.wav
192,192,84622,1,0,0:0:0:50:kick.wav
320,192,84697,1,0,0:0:0:50:kick.wav
448,192,84697,1,0,0:0:0:0:
448,192,84771,1,0,0:0:0:50:crash.wav
64,192,84771,1,0,0:0:0:50:kick.wav
192,192,84771,1,0,0:0:0:0:
64,192,84919,1,0,0:0:0:35:hihat.wav
320,192,84919,1,0,0:0:0:0:
192,192,85068,1,0,0:0:0:50:snare.wav
64,192,85068,1,0,0:0:0:50:kick.wav
448,192,85068,1,0,0:0:0:0:
448,192,85216,1,0,0:0:0:35:hihat.wav
192,192,85216,1,0,0:0:0:0:
448,192,85365,1,0,0:0:0:50:kick.wav
320,192,85365,1,0,0:0:0:0:
64,192,85365,1,0,0:0:0:0:
64,192,85514,1,0,0:0:0:35:hihat.wav
320,192,85514,1,0,0:0:0:0:
448,192,85662,1,0,0:0:0:50:snare.wav
64,192,85662,1,0,0:0:0:50:kick.wav
192,192,85662,1,0,0:0:0:0:
320,192,85811,1,0,0:0:0:35:hihat.wav
192,192,85811,1,0,0:0:0:0:
64,192,85959,1,0,0:0:0:50:kick.wav
320,192,85959,1,0,0:0:0:0:
448,192,85959,1,0,0:0:0:0:
448,192,86108,1,0,0:0:0:35:hihat.wav
192,192,86108,1,0,0:0:0:0:
320,192,86256,1,0,0:0:0:50:kick.wav
448,192,86256,1,0,0:0:0:50:snare.wav
192,192,86256,1,0,0:0:0:0:
192,192,86405,1,0,0:0:0:35:hihat.wav
64,192,86405,1,0,0:0:0:0:
320,192,86553,1,0,0:0:0:50:kick.wav
448,192,86553,1,0,0:0:0:0:
64,192,86553,1,0,0:0:0:0:
320,192,86702,1,0,0:0:0:35:hihat.wav
192,192,86702,1,0,0:0:0:0:
192,192,86850,1,0,0:0:0:50:kick.wav
64,192,86850,1,0,0:0:0:50:snare.wav
448,192,86850,1,0,0:0:0:0:
448,192,86999,1,0,0:0:0:35:hihat.wav
320,192,86999,1,0,0:0:0:0:
192,192,87147,1,0,0:0:0:50:kick.wav
64,192,87147,1,0,0:0:0:0:
448,192,87147,1,0,0:0:0:0:
320,192,87296,1,0,0:0:0:35:hihat.wav
448,192,87296,1,0,0:0:0:0:
448,192,87444,1,0,0:0:0:50:snare.wav
64,192,87444,1,0,0:0:0:50:kick.wav
192,192,87444,1,0,0:0:0:0:
320,192,87593,1,0,0:0:0:35:hihat.wav
64,192,87593,1,0,0:0:0:0:
448,192,87741,1,0,0:0:0:50:kick.wav
320,192,87741,1,0,0:0:0:0:
64,192,87741,1,0,0:0:0:0:
64,192,87890,1,0,0:0:0:35:hihat.wav
192,192,87890,1,0,0:0:0:0:
448,192,88038,1,0,0:0:0:50:snare.wav
192,192,88038,1,0,0:0:0:50:kick.wav
320,192,88038,1,0,0:0:0:0:
448,192,88187,1,0,0:0:0:35:hihat.wav
64,192,88187,1,0,0:0:0:0:
64,192,88335,1,0,0:0:0:50:kick.wav
192,192,88335,1,0,0:0:0:0:
448,192,88335,1,0,0:0:0:0:
320,192,88484,1,0,0:0:0:35:hihat.wav
192,192,88484,1,0,0:0:0:0:
192,192,88632,1,0,0:0:0:50:kick.wav
64,192,88632,1,0,0:0:0:50:snare.wav
448,192,88632,1,0,0:0:0:0:
448,192,88781,1,0,0:0:0:35:hihat.wav
320,192,88781,1,0,0:0:0:0:
192,192,88929,1,0,0:0:0:50:kick.wav
448,192,88929,1,0,0:0:0:0:
64,192,88929,1,0,0:0:0:0:
320,192,89078,1,0,0:0:0:35:hihat.wav
448,192,89078,128,0,89226:0:0:0:0:
64,192,89226,1,0,0:0:0:50:kick.wav
192,192,89226,1,0,0:0:0:50:snare.wav
320,192,89226,128,0,89375:0:0:0:0:
448,192,89375,1,0,0:0:0:35:hihat.wav
192,192,89375,128,0,89523:0:0:0:0:
448,192,89523,1,0,0:0:0:50:crash.wav
320,192,89523,1,0,0:0:0:50:kick.wav
64,192,89523,1,0,0:0:0:0:
64,192,89672,1,0,0:0:0:35:hihat.wav
320,192,89672,1,0,0:0:0:0:
192,192,89820,1,0,0:0:0:50:snare.wav
320,192,89820,1,0,0:0:0:50:kick.wav
448,192,89969,1,0,0:0:0:35:hihat.wav
192,192,89969,1,0,0:0:0:0:
448,192,90117,1,0,0:0:0:50:kick.wav
320,192,90117,1,0,0:0:0:0:
64,192,90117,1,0,0:0:0:0:
320,192,90266,1,0,0:0:0:35:hihat.wav
448,192,90415,1,0,0:0:0:50:snare.wav
64,192,90415,1,0,0:0:0:50:kick.wav
192,192,90415,1,0,0:0:0:0:
320,192,90563,1,0,0:0:0:35:hihat.wav
192,192,90563,1,0,0:0:0:0:
64,192,90712,1,0,0:0:0:50:kick.wav
320,192,90712,1,0,0:0:0:50:crash.wav
448,192,90712,1,0,0:0:0:0:
448,192,90860,1,0,0:0:0:35:hihat.wav
192,192,90860,1,0,0:0:0:0:
320,192,91009,1,0,0:0:0:50:kick.wav
448,192,91009,1,0,0:0:0:50:snare.wav
64,192,91009,1,0,0:0:0:0:
192,192,91157,1,0,0:0:0:35:hihat.wav
448,192,91157,1,0,0:0:0:0:
192,192,91306,1,0,0:0:0:50:kick.wav
320,192,91306,1,0,0:0:0:0:
64,192,91306,1,0,0:0:0:0:
64,192,91454,1,0,0:0:0:35:hihat.wav
448,192,91454,1,0,0:0:0:0:
192,192,91603,1,0,0:0:0:50:kick.wav
448,192,91603,1,0,0:0:0:50:snare.wav
320,192,91603,1,0,0:0:0:0:
320,192,91751,1,0,0:0:0:35:hihat.wav
64,192,91751,1,0,0:0:0:0:
192,192,91900,1,0,0:0:0:50:kick.wav
64,192,91900,1,0,0:0:0:50:crash.wav
448,192,91900,1,0,0:0:0:0:
320,192,92048,1,0,0:0:0:35:hihat.wav
192,192,92048,1,0,0:0:0:0:
448,192,92197,1,0,0:0:0:50:snare.wav
320,192,92197,1,0,0:0:0:50:kick.wav
64,192,92197,1,0,0:0:0:0:
192,192,92345,1,0,0:0:0:35:hihat.wav
320,192,92345,1,0,0:0:0:0:
448,192,92494,1,0,0:0:0:50:kick.wav
64,192,92494,1,0,0:0:0:50:crash.wav
192,192,92494,1,0,0:0:0:0:
448,192,92642,1,0,0:0:0:35:hihat.wav
192,192,92642,1,0,0:0:0:0:
320,192,92791,1,0,0:0:0:50:snare.wav
192,192,92791,1,0,0:0:0:50:kick.wav
64,192,92791,1,0,0:0:0:0:
320,192,92939,1,0,0:0:0:35:hihat.wav
448,192,92939,1,0,0:0:0:0:
192,192,93088,1,0,0:0:0:50:crash.wav
448,192,93088,1,0,0:0:0:50:kick.wav
64,192,93088,1,0,0:0:0:0:
320,192,93236,1,0,0:0:0:35:hihat.wav
192,192,93236,1,0,0:0:0:0:
64,192,93385,1,0,0:0:0:50:kick.wav
320,192,93385,1,0,0:0:0:50:crash.wav
448,192,93385,1,0,0:0:0:50:snare.wav
192,192,93533,1,0,0:0:0:35:hihat.wav
64,192,93533,1,0,0:0:0:0:
448,192,93682,1,0,0:0:0:50:crash.wav
320,192,93682,1,0,0:0:0:50:kick.wav
64,192,93682,1,0,0:0:0:0:
192,192,93830,1,0,0:0:0:35:hihat.wav
448,192,93830,128,0,93979:0:0:0:0:
320,192,93979,1,0,0:0:0:50:kick.wav
64,192,93979,1,0,0:0:0:50:crash.wav
192,192,93979,128,0,94127:0:0:0:50:snare.wav
448,192,94127,1,0,0:0:0:35:hihat.wav
320,192,94127,128,0,94276:0:0:0:0:
64,192,94276,1,0,0:0:0:50:crash.wav
448,192,94276,1,0,0:0:0:0:
192,192,94276,1,0,0:0:0:0:
320,192,94424,1,0,0:0:0:35:hihat.wav
448,192,94573,1,0,0:0:0:50:snare.wav
64,192,94573,1,0,0:0:0:50:crash.wav
320,192,94721,1,0,0:0:0:35:hihat.wav
448,192,94870,1,0,0:0:0:50:crash.wav
64,192,94870,1,0,0:0:0:0:
320,192,95018,1,0,0:0:0:35:hihat.wav
448,192,95167,1,0,0:0:0:50:snare.wav
64,192,95167,1,0,0:0:0:50:crash.wav
320,192,95315,1,0,0:0:0:35:hihat.wav
192,192,95464,1,0,0:0:0:50:crash.wav
64,192,95464,1,0,0:0:0:50:kick.wav
320,192,95538,1,0,0:0:0:50:kick.wav
448,192,95538,1,0,0:0:0:0:
192,192,95613,1,0,0:0:0:50:kick.wav
64,192,95613,1,0,0:0:0:0:
320,192,95687,1,0,0:0:0:50:kick.wav
448,192,95687,1,0,0:0:0:0:
192,192,95761,1,0,0:0:0:50:crash.wav
64,192,95761,1,0,0:0:0:50:kick.wav
320,192,95835,1,0,0:0:0:50:kick.wav
448,192,95835,1,0,0:0:0:0:
192,192,95910,1,0,0:0:0:50:kick.wav
64,192,95910,1,0,0:0:0:0:
320,192,95984,1,0,0:0:0:50:kick.wav
448,192,95984,1,0,0:0:0:0:
192,192,96058,1,0,0:0:0:50:crash.wav
64,192,96058,1,0,0:0:0:50:kick.wav
192,192,96207,1,0,0:0:0:50:crash.wav
320,192,96207,1,0,0:0:0:50:kick.wav
448,192,96207,1,0,0:0:0:0:
320,192,96355,1,0,0:0:0:50:crash.wav
448,192,96355,1,0,0:0:0:50:kick.wav
64,192,96355,1,0,0:0:0:0:
64,192,96652,1,0,0:0:0:50:crash.wav
320,192,96652,1,0,0:0:0:50:kick.wav
192,192,96652,1,0,0:0:0:0:
448,192,96801,1,0,0:0:0:35:hihat.wav
192,192,96801,1,0,0:0:0:0:
320,192,96949,1,0,0:0:0:50:kick.wav
448,192,96949,1,0,0:0:0:50:snare.wav
64,192,96949,1,0,0:0:0:0:
64,192,97098,1,0,0:0:0:35:hihat.wav
320,192,97098,1,0,0:0:0:0:
64,192,97246,1,0,0:0:0:50:kick.wav
192,192,97246,1,0,0:0:0:0:
448,192,97246,1,0,0:0:0:0:
448,192,97395,1,0,0:0:0:35:hihat.wav
192,192,97395,1,0,0:0:0:0:
64,192,97543,1,0,0:0:0:50:kick.wav
448,192,97543,1,0,0:0:0:50:snare.wav
320,192,97543,1,0,0:0:0:0:
192,192,97692,1,0,0:0:0:35:hihat.wav
320,192,97692,1,0,0:0:0:0:
448,192,97840,1,0,0:0:0:50:kick.wav
192,192,97840,1,0,0:0:0:0:
64,192,97840,1,0,0:0:0:0:
64,192,97989,1,0,0:0:0:35:hihat.wav
320,192,97989,1,0,0:0:0:0:
192,192,98137,1,0,0:0:0:50:snare.wav
64,192,98137,1,0,0:0:0:50:kick.wav
320,192,98137,1,0,0:0:0:0:
320,192,98286,1,0,0:0:0:35:hihat.wav
448,192,98286,1,0,0:0:0:0:
192,192,98434,1,0,0:0:0:50:kick.wav
64,192,98434,1,0,0:0:0:0:
448,192,98434,1,0,0:0:0:0:
192,192,98583,1,0,0:0:0:35:hihat.wav
320,192,98583,1,0,0:0:0:0:
320,192,98731,1,0,0:0:0:50:snare.wav
448,192,98731,1,0,0:0:0:50:kick.wav
64,192,98731,1,0,0:0:0:0:
320,192,98880,1,0,0:0:0:35:hihat.wav
192,192,98880,1,0,0:0:0:0:
192,192,99028,1,0,0:0:0:50:kick.wav
448,192,99028,1,0,0:0:0:0:
64,192,99028,1,0,0:0:0:0:
320,192,99177,1,0,0:0:0:35:hihat.wav
64,192,99177,1,0,0:0:0:0:
64,192,99325,1,0,0:0:0:50:kick.wav
448,192,99325,1,0,0:0:0:50:snare.wav
320,192,99325,1,0,0:0:0:0:
192,192,99474,1,0,0:0:0:35:hihat.wav
448,192,99474,1,0,0:0:0:0:
64,192,99622,1,0,0:0:0:50:kick.wav
320,192,99622,1,0,0:0:0:0:
448,192,99622,1,0,0:0:0:0:
192,192,99771,1,0,0:0:0:35:hihat.wav
320,192,99771,1,0,0:0:0:0:
64,192,99919,1,0,0:0:0:50:kick.wav
448,192,99919,1,0,0:0:0:50:snare.wav
192,192,99919,1,0,0:0:0:0:
64,192,100068,1,0,0:0:0:35:hihat.wav
448,192,100068,1,0,0:0:0:0:
448,192,100216,1,0,0:0:0:50:kick.wav
320,192,100216,1,0,0:0:0:0:
64,192,100216,1,0,0:0:0:0:
192,192,100365,1,0,0:0:0:35:hihat.wav
320,192,100365,1,0,0:0:0:0:
320,192,100514,1,0,0:0:0:50:snare.wav
448,192,100514,1,0,0:0:0:50:kick.wav
64,192,100514,1,0,0:0:0:0:
64,192,100662,1,0,0:0:0:35:hihat.wav
192,192,100662,1,0,0:0:0:0:
320,192,100811,1,0,0:0:0:50:kick.wav
64,192,100811,1,0,0:0:0:0:
448,192,100811,1,0,0:0:0:0:
192,192,100959,1,0,0:0:0:35:hihat.wav
320,192,100959,1,0,0:0:0:0:
448,192,101108,1,0,0:0:0:50:snare.wav
192,192,101108,1,0,0:0:0:50:kick.wav
64,192,101108,1,0,0:0:0:0:
320,192,101256,1,0,0:0:0:35:hihat.wav
192,192,101256,1,0,0:0:0:0:
64,192,101405,1,0,0:0:0:50:kick.wav
320,192,101405,1,0,0:0:0:50:crash.wav
448,192,101405,1,0,0:0:0:0:
448,192,101553,1,0,0:0:0:35:hihat.wav
192,192,101553,1,0,0:0:0:0:
320,192,101702,1,0,0:0:0:50:kick.wav
448,192,101702,1,0,0:0:0:50:snare.wav
64,192,101702,1,0,0:0:0:0:
64,192,101850,1,0,0:0:0:35:hihat.wav
320,192,101850,1,0,0:0:0:0:
64,192,101999,1,0,0:0:0:50:kick.wav
192,192,101999,1,0,0:0:0:0:
448,192,101999,1,0,0:0:0:0:
448,192,102147,1,0,0:0:0:35:hihat.wav
192,192,102147,1,0,0:0:0:0:
64,192,102296,1,0,0:0:0:50:kick.wav
448,192,102296,1,0,0:0:0:50:snare.wav
320,192,102296,1,0,0:0:0:0:
192,192,102444,1,0,0:0:0:35:hihat.wav
320,192,102444,1,0,0:0:0:0:
448,192,102593,1,0,0:0:0:50:kick.wav
192,192,102593,1,0,0:0:0:0:
64,192,102593,1,0,0:0:0:0:
64,192,102741,1,0,0:0:0:35:hihat.wav
320,192,102741,1,0,0:0:0:0:
192,192,102890,1,0,0:0:0:50:snare.wav
64,192,102890,1,0,0:0:0:50:kick.wav
320,192,102890,1,0,0:0:0:0:
320,192,103038,1,0,0:0:0:35:hihat.wav
64,192,103038,1,0,0:0:0:0:
320,192,103187,1,0,0:0:0:50:kick.wav
192,192,103187,1,0,0:0:0:0:
448,192,103187,1,0,0:0:0:0:
64,192,103335,1,0,0:0:0:35:hihat.wav
320,192,103484,1,0,0:0:0:50:snare.wav
192,192,103484,1,0,0:0:0:50:kick.wav
448,192,103484,1,0,0:0:0:0:
64,192,103632,1,0,0:0:0:35:hihat.wav
192,192,103632,1,0,0:0:0:0:
320,192,103781,1,0,0:0:0:50:kick.wav
448,192,103781,1,0,0:0:0:0:
64,192,103781,1,0,0:0:0:0:
192,192,103929,1,0,0:0:0:35:hihat.wav
320,192,103929,1,0,0:0:0:0:
64,192,104078,1,0,0:0:0:50:kick.wav
192,192,104078,1,0,0:0:0:50:snare.wav
448,192,104078,1,0,0:0:0:0:
320,192,104226,1,0,0:0:0:35:hihat.wav
192,192,104226,1,0,0:0:0:0:
64,192,104375,1,0,0:0:0:50:kick.wav
448,192,104375,1,0,0:0:0:0:
320,192,104375,1,0,0:0:0:0:
64,192,104523,1,0,0:0:0:35:hihat.wav
192,192,104523,1,0,0:0:0:0:
192,192,104672,1,0,0:0:0:50:kick.wav
320,192,104672,1,0,0:0:0:50:snare.wav
448,192,104672,1,0,0:0:0:0:
64,192,104820,1,0,0:0:0:35:hihat.wav
192,192,104969,1,0,0:0:0:50:crash.wav
64,192,104969,1,0,0:0:0:50:kick.wav
320,192,104969,1,0,0:0:0:0:
448,192,105117,1,0,0:0:0:35:hihat.wav
448,192,105266,1,0,0:0:0:50:kick.wav
320,192,105266,1,0,0:0:0:50:crash.wav
64,192,105266,1,0,0:0:0:50:snare.wav
192,192,105414,1,0,0:0:0:35:hihat.wav
64,192,105563,1,0,0:0:0:50:kick.wav
192,192,105563,1,0,0:0:0:50:crash.wav
448,192,105563,1,0,0:0:0:0:
320,192,105712,1,0,0:0:0:35:hihat.wav
320,192,105860,1,0,0:0:0:50:kick.wav
448,192,105860,1,0,0:0:0:50:snare.wav
192,192,105860,1,0,0:0:0:50:crash.wav
64,192,106009,1,0,0:0:0:35:hihat.wav
64,192,106157,128,0,107197:0:0:0:50:crash.wav
192,192,106157,1,0,0:0:0:50:kick.wav
320,192,106157,1,0,0:0:0:0:
320,192,106603,1,0,0:0:0:50:kick.wav
448,192,106603,1,0,0:0:0:0:
192,192,106900,1,0,0:0:0:50:kick.wav
448,192,106900,1,0,0:0:0:0:
192,192,107197,1,0,0:0:0:50:kick.wav
320,192,107197,1,0,0:0:0:0:
448,192,107345,1,0,0:0:0:50:crash.wav
320,192,107345,1,0,0:0:0:50:kick.wav
64,192,107345,1,0,0:0:0:0:
448,192,107494,1,0,0:0:0:35:hihat.wav
192,192,107494,1,0,0:0:0:0:
64,192,107642,1,0,0:0:0:50:snare.wav
448,192,107642,1,0,0:0:0:50:kick.wav
320,192,107716,1,0,0:0:0:0:
192,192,107791,1,0,0:0:0:35:hihat.wav
64,192,107791,1,0,0:0:0:0:
320,192,107865,1,0,0:0:0:0:
64,192,107939,1,0,0:0:0:50:kick.wav
448,192,107939,1,0,0:0:0:0:
192,192,108014,1,0,0:0:0:0:
320,192,108088,1,0,0:0:0:35:hihat.wav
64,192,108137,1,0,0:0:0:0:
192,192,108187,1,0,0:0:0:0:
64,192,108236,1,0,0:0:0:50:snare.wav
448,192,108236,1,0,0:0:0:50:kick.wav
64,192,108385,1,0,0:0:0:35:hihat.wav
192,192,108385,1,0,0:0:0:0:
192,192,108533,1,0,0:0:0:50:kick.wav
320,192,108533,1,0,0:0:0:0:
64,192,108608,1,0,0:0:0:0:
320,192,108682,1,0,0:0:0:35:hihat.wav
448,192,108682,1,0,0:0:0:0:
192,192,108756,1,0,0:0:0:0:
64,192,108830,1,0,0:0:0:50:kick.wav
320,192,108830,1,0,0:0:0:50:snare.wav
448,192,108905,1,0,0:0:0:0:
192,192,108905,1,0,0:0:0:0:
320,192,108979,1,0,0:0:0:35:hihat.wav
64,192,108979,1,0,0:0:0:0:
192,192,109053,1,0,0:0:0:0:
448,192,109053,1,0,0:0:0:0:
64,192,109127,1,0,0:0:0:50:kick.wav
320,192,109127,1,0,0:0:0:0:
192,192,109202,1,0,0:0:0:0:
448,192,109276,1,0,0:0:0:35:hihat.wav
64,192,109276,1,0,0:0:0:0:
320,192,109350,1,0,0:0:0:0:
64,192,109424,1,0,0:0:0:50:kick.wav
448,192,109424,1,0,0:0:0:50:snare.wav
192,192,109499,1,0,0:0:0:0:
448,192,109573,1,0,0:0:0:35:hihat.wav
320,192,109647,1,0,0:0:0:0:
64,192,109721,1,0,0:0:0:50:kick.wav
448,192,109721,1,0,0:0:0:0:
192,192,109796,1,0,0:0:0:0:
448,192,109870,1,0,0:0:0:35:hihat.wav
320,192,109870,1,0,0:0:0:0:
192,192,109944,1,0,0:0:0:0:
320,192,110018,1,0,0:0:0:50:snare.wav
64,192,110018,1,0,0:0:0:50:kick.wav
192,192,110093,1,0,0:0:0:0:
448,192,110093,1,0,0:0:0:0:
320,192,110167,1,0,0:0:0:35:hihat.wav
64,192,110167,1,0,0:0:0:0:
192,192,110241,1,0,0:0:0:0:
448,192,110241,1,0,0:0:0:0:
64,192,110315,1,0,0:0:0:50:kick.wav
320,192,110315,1,0,0:0:0:0:
192,192,110390,1,0,0:0:0:0:
320,192,110464,1,0,0:0:0:35:hihat.wav
64,192,110464,1,0,0:0:0:0:
448,192,110538,1,0,0:0:0:0:
192,192,110613,1,0,0:0:0:50:snare.wav
64,192,110613,1,0,0:0:0:50:kick.wav
320,192,110687,1,0,0:0:0:0:
448,192,110761,1,0,0:0:0:35:hihat.wav
192,192,110761,1,0,0:0:0:0:
448,192,110910,1,0,0:0:0:50:kick.wav
64,192,110910,1,0,0:0:0:0:
448,192,111058,1,0,0:0:0:35:hihat.wav
320,192,111058,1,0,0:0:0:0:
320,192,111207,1,0,0:0:0:50:kick.wav
64,192,111207,1,0,0:0:0:50:snare.wav
192,192,111281,1,0,0:0:0:0:
64,192,111355,1,0,0:0:0:35:hihat.wav
320,192,111355,1,0,0:0:0:0:
448,192,111429,1,0,0:0:0:0:
64,192,111504,1,0,0:0:0:50:kick.wav
192,192,111504,1,0,0:0:0:0:
320,192,111578,1,0,0:0:0:0:
448,192,111652,1,0,0:0:0:35:hihat.wav
64,192,111652,1,0,0:0:0:0:
320,192,111726,1,0,0:0:0:0:
192,192,111801,1,0,0:0:0:50:kick.wav
448,192,111801,1,0,0:0:0:50:snare.wav
64,192,111875,1,0,0:0:0:0:
320,192,111949,1,0,0:0:0:35:hihat.wav
448,192,111949,1,0,0:0:0:50:kick.wav
192,192,112023,1,0,0:0:0:0:
320,192,112098,1,0,0:0:0:50:crash.wav
64,192,112098,1,0,0:0:0:50:kick.wav
448,192,112098,1,0,0:0:0:0:
320,192,112246,1,0,0:0:0:35:hihat.wav
64,192,112246,1,0,0:0:0:0:
192,192,112320,1,0,0:0:0:0:
320,192,112395,1,0,0:0:0:50:snare.wav
448,192,112395,1,0,0:0:0:50:kick.wav
192,192,112469,1,0,0:0:0:0:
64,192,112543,1,0,0:0:0:35:hihat.wav
320,192,112543,1,0,0:0:0:0:
192,192,112617,1,0,0:0:0:0:
448,192,112692,1,0,0:0:0:50:kick.wav
64,192,112692,1,0,0:0:0:0:
192,192,112766,1,0,0:0:0:0:
320,192,112840,1,0,0:0:0:35:hihat.wav
64,192,112840,1,0,0:0:0:0:
192,192,112914,1,0,0:0:0:0:
448,192,112989,1,0,0:0:0:50:snare.wav
320,192,112989,1,0,0:0:0:50:kick.wav
64,192,113063,1,0,0:0:0:0:
192,192,113137,1,0,0:0:0:35:hihat.wav
320,192,113137,1,0,0:0:0:0:
64,192,113286,1,0,0:0:0:50:kick.wav
448,192,113286,1,0,0:0:0:0:
192,192,113434,1,0,0:0:0:35:hihat.wav
320,192,113434,1,0,0:0:0:0:
448,192,113583,1,0,0:0:0:50:kick.wav
192,192,113583,1,0,0:0:0:50:snare.wav
320,192,113657,1,0,0:0:0:0:
64,192,113657,1,0,0:0:0:0:
192,192,113731,1,0,0:0:0:35:hihat.wav
448,192,113731,1,0,0:0:0:0:
64,192,113806,1,0,0:0:0:0:
320,192,113806,1,0,0:0:0:0:
448,192,113880,1,0,0:0:0:50:kick.wav
192,192,113880,1,0,0:0:0:0:
320,192,113954,1,0,0:0:0:0:
448,192,114028,1,0,0:0:0:35:hihat.wav
64,192,114028,1,0,0:0:0:0:
192,192,114103,1,0,0:0:0:0:
448,192,114177,1,0,0:0:0:50:kick.wav
320,192,114177,1,0,0:0:0:50:snare.wav
64,192,114251,1,0,0:0:0:0:
448,192,114325,1,0,0:0:0:35:hihat.wav
192,192,114400,1,0,0:0:0:0:
320,192,114474,1,0,0:0:0:50:kick.wav
448,192,114474,1,0,0:0:0:0:
64,192,114622,1,0,0:0:0:35:hihat.wav
192,192,114622,1,0,0:0:0:0:
320,192,114697,1,0,0:0:0:0:
192,192,114771,1,0,0:0:0:50:snare.wav
448,192,114771,1,0,0:0:0:50:kick.wav
64,192,114845,1,0,0:0:0:0:
448,192,114919,1,0,0:0:0:35:hihat.wav
320,192,114919,1,0,0:0:0:0:
192,192,114994,1,0,0:0:0:0:
448,192,115068,1,0,0:0:0:50:kick.wav
64,192,115068,1,0,0:0:0:0:
320,192,115142,1,0,0:0:0:0:
192,192,115216,1,0,0:0:0:35:hihat.wav
448,192,115216,1,0,0:0:0:0:
64,192,115291,1,0,0:0:0:0:
320,192,115365,1,0,0:0:0:50:snare.wav
192,192,115365,1,0,0:0:0:50:kick.wav
448,192,115439,1,0,0:0:0:0:
64,192,115514,1,0,0:0:0:35:hihat.wav
192,192,115514,1,0,0:0:0:0:
320,192,115588,1,0,0:0:0:0:
64,192,115662,1,0,0:0:0:50:crash.wav
448,192,115662,1,0,0:0:0:50:kick.wav
192,192,115662,1,0,0:0:0:0:
320,192,115811,1,0,0:0:0:35:hihat.wav
64,192,115811,1,0,0:0:0:0:
192,192,115885,1,0,0:0:0:0:
448,192,115959,1,0,0:0:0:50:kick.wav
320,192,115959,1,0,0:0:0:50:snare.wav
64,192,116033,1,0,0:0:0:0:
192,192,116108,1,0,0:0:0:35:hihat.wav
448,192,116108,1,0,0:0:0:0:
320,192,116182,1,0,0:0:0:0:
448,192,116256,1,0,0:0:0:50:kick.wav
64,192,116256,1,0,0:0:0:0:
320,192,116330,1,0,0:0:0:0:
64,192,116405,1,0,0:0:0:35:hihat.wav
448,192,116405,1,0,0:0:0:0:
192,192,116479,1,0,0:0:0:0:
64,192,116553,1,0,0:0:0:50:kick.wav
320,192,116553,1,0,0:0:0:50:snare.wav
448,192,116627,1,0,0:0:0:0:
320,192,116702,1,0,0:0:0:35:hihat.wav
64,192,116702,1,0,0:0:0:50:kick.wav
192,192,116776,1,0,0:0:0:0:
64,192,116850,1,0,0:0:0:50:kick.wav
448,192,116850,1,0,0:0:0:50:crash.wav
320,192,116850,1,0,0:0:0:0:
320,192,116999,1,0,0:0:0:35:hihat.wav
192,192,116999,1,0,0:0:0:0:
64,192,117147,1,0,0:0:0:50:snare.wav
192,192,117147,1,0,0:0:0:50:kick.wav
64,192,117296,1,0,0:0:0:35:hihat.wav
448,192,117296,1,0,0:0:0:0:
192,192,117444,1,0,0:0:0:50:kick.wav
448,192,117444,1,0,0:0:0:50:crash.wav
320,192,117444,1,0,0:0:0:0:
320,192,117593,1,0,0:0:0:35:hihat.wav
64,192,117593,1,0,0:0:0:50:crash.wav
192,192,117642,1,0,0:0:0:0:
64,192,117692,1,0,0:0:0:0:
320,192,117741,1,0,0:0:0:50:snare.wav
448,192,117741,1,0,0:0:0:0:
192,192,117890,1,0,0:0:0:35:hihat.wav
320,192,117890,1,0,0:0:0:0:
64,192,118038,1,0,0:0:0:50:kick.wav
192,192,118038,1,0,0:0:0:50:crash.wav
448,192,118038,1,0,0:0:0:0:
448,192,118187,1,0,0:0:0:35:hihat.wav
320,192,118187,1,0,0:0:0:0:
192,192,118335,1,0,0:0:0:50:kick.wav
64,192,118335,1,0,0:0:0:50:snare.wav
320,192,118410,1,0,0:0:0:0:
448,192,118410,1,0,0:0:0:0:
64,192,118484,1,0,0:0:0:35:hihat.wav
192,192,118484,1,0,0:0:0:0:
320,192,118558,1,0,0:0:0:0:
448,192,118558,1,0,0:0:0:0:
64,192,118632,1,0,0:0:0:50:kick.wav
192,192,118632,1,0,0:0:0:50:crash.wav
320,192,118707,1,0,0:0:0:0:
192,192,118781,1,0,0:0:0:50:kick.wav
448,192,118781,1,0,0:0:0:50:crash.wav
64,192,118855,1,0,0:0:0:0:
448,192,118929,1,0,0:0:0:50:snare.wav
320,192,118929,1,0,0:0:0:0:
192,192,119004,1,0,0:0:0:0:
320,192,119078,1,0,0:0:0:35:hihat.wav
192,192,119152,1,0,0:0:0:0:
320,192,119226,1,0,0:0:0:50:crash.wav
448,192,119226,1,0,0:0:0:50:kick.wav
64,192,119226,1,0,0:0:0:0:
192,192,119375,1,0,0:0:0:35:hihat.wav
320,192,119375,1,0,0:0:0:0:
448,192,119449,1,0,0:0:0:0:
64,192,119523,1,0,0:0:0:50:kick.wav
192,192,119523,1,0,0:0:0:50:snare.wav
448,192,119598,1,0,0:0:0:0:
320,192,119598,1,0,0:0:0:0:
64,192,119672,1,0,0:0:0:35:hihat.wav
192,192,119672,1,0,0:0:0:0:
320,192,119746,1,0,0:0:0:0:
448,192,119746,1,0,0:0:0:0:
64,192,119820,1,0,0:0:0:50:kick.wav
192,192,119820,1,0,0:0:0:0:
320,192,119895,1,0,0:0:0:0:
448,192,119969,1,0,0:0:0:35:hihat.wav
64,192,119969,1,0,0:0:0:0:
192,192,120043,1,0,0:0:0:0:
448,192,120117,1,0,0:0:0:50:kick.wav
320,192,120117,1,0,0:0:0:50:snare.wav
192,192,120192,1,0,0:0:0:0:
64,192,120266,1,0,0:0:0:35:hihat.wav
320,192,120266,1,0,0:0:0:0:
320,192,120415,1,0,0:0:0:0:
192,192,120415,1,0,0:0:0:0:
448,192,120563,1,0,0:0:0:35:hihat.wav
192,192,120563,1,0,0:0:0:0:
320,192,120637,1,0,0:0:0:0:
64,192,120712,1,0,0:0:0:50:snare.wav
192,192,120712,1,0,0:0:0:50:kick.wav
320,192,120786,1,0,0:0:0:0:
448,192,120860,1,0,0:0:0:35:hihat.wav
64,192,120860,1,0,0:0:0:0:
192,192,120934,1,0,0:0:0:0:
320,192,121009,1,0,0:0:0:50:kick.wav
64,192,121009,1,0,0:0:0:0:
192,192,121083,1,0,0:0:0:0:
320,192,121157,1,0,0:0:0:35:hihat.wav
448,192,121157,1,0,0:0:0:0:
64,192,121231,1,0,0:0:0:0:
320,192,121306,1,0,0:0:0:50:snare.wav
192,192,121306,1,0,0:0:0:50:kick.wav
64,192,121380,1,0,0:0:0:0:
448,192,121454,1,0,0:0:0:35:hihat.wav
320,192,121454,1,0,0:0:0:0:
192,192,121603,1,0,0:0:0:50:crash.wav
448,192,121603,1,0,0:0:0:50:kick.wav
64,192,121603,1,0,0:0:0:0:
64,192,121751,1,0,0:0:0:35:hihat.wav
192,192,121751,1,0,0:0:0:0:
320,192,121825,1,0,0:0:0:0:
448,192,121900,1,0,0:0:0:50:kick.wav
192,192,121900,1,0,0:0:0:50:snare.wav
320,192,121974,1,0,0:0:0:0:
192,192,122048,1,0,0:0:0:35:hihat.wav
64,192,122048,1,0,0:0:0:0:
320,192,122122,1,0,0:0:0:0:
448,192,122197,1,0,0:0:0:50:kick.wav
192,192,122197,1,0,0:0:0:0:
64,192,122197,1,0,0:0:0:0:
320,192,122271,1,0,0:0:0:0:
192,192,122345,1,0,0:0:0:35:hihat.wav
64,192,122345,1,0,0:0:0:0:
320,192,122395,1,0,0:0:0:0:
448,192,122444,1,0,0:0:0:0:
320,192,122494,1,0,0:0:0:50:kick.wav
64,192,122494,1,0,0:0:0:50:snare.wav
192,192,122568,1,0,0:0:0:0:
448,192,122642,1,0,0:0:0:35:hihat.wav
320,192,122642,1,0,0:0:0:0:
64,192,122791,1,0,0:0:0:50:kick.wav
448,192,122791,1,0,0:0:0:0:
320,192,122791,1,0,0:0:0:0:
192,192,122865,1,0,0:0:0:0:
64,192,122939,1,0,0:0:0:35:hihat.wav
448,192,122939,1,0,0:0:0:0:
320,192,123014,1,0,0:0:0:0:
448,192,123088,1,0,0:0:0:50:snare.wav
192,192,123088,1,0,0:0:0:50:kick.wav
320,192,123162,1,0,0:0:0:0:
64,192,123162,1,0,0:0:0:0:
192,192,123236,1,0,0:0:0:35:hihat.wav
448,192,123236,1,0,0:0:0:0:
64,192,123311,1,0,0:0:0:0:
320,192,123311,1,0,0:0:0:0:
192,192,123385,1,0,0:0:0:50:kick.wav
448,192,123385,1,0,0:0:0:0:
320,192,123459,1,0,0:0:0:0:
64,192,123533,1,0,0:0:0:35:hihat.wav
448,192,123533,1,0,0:0:0:0:
192,192,123608,1,0,0:0:0:0:
320,192,123682,1,0,0:0:0:50:snare.wav
448,192,123682,1,0,0:0:0:50:kick.wav
192,192,123756,1,0,0:0:0:0:
64,192,123830,1,0,0:0:0:35:hihat.wav
448,192,123979,1,0,0:0:0:50:crash.wav
320,192,123979,1,0,0:0:0:50:kick.wav
64,192,123979,1,0,0:0:0:0:
192,192,124127,1,0,0:0:0:35:hihat.wav
320,192,124127,1,0,0:0:0:0:
64,192,124276,1,0,0:0:0:50:kick.wav
448,192,124276,1,0,0:0:0:50:snare.wav
320,192,124350,1,0,0:0:0:50:kick.wav
192,192,124350,1,0,0:0:0:0:
64,192,124424,1,0,0:0:0:35:hihat.wav
448,192,124424,1,0,0:0:0:50:kick.wav
320,192,124499,1,0,0:0:0:50:kick.wav
192,192,124499,1,0,0:0:0:0:
448,192,124573,1,0,0:0:0:50:kick.wav
64,192,124573,1,0,0:0:0:0:
320,192,124721,1,0,0:0:0:35:hihat.wav
192,192,124721,1,0,0:0:0:50:kick.wav
320,192,124870,1,0,0:0:0:50:kick.wav
448,192,124870,1,0,0:0:0:50:snare.wav
320,192,125018,1,0,0:0:0:35:hihat.wav
192,192,125018,1,0,0:0:0:50:kick.wav
64,192,125167,1,0,0:0:0:50:crash.wav
320,192,125167,1,0,0:0:0:50:kick.wav
448,192,125167,1,0,0:0:0:0:
192,192,125241,1,0,0:0:0:50:kick.wav
64,192,125241,1,0,0:0:0:0:
320,192,125315,1,0,0:0:0:50:kick.wav
448,192,125315,1,0,0:0:0:0:
192,192,125390,1,0,0:0:0:50:kick.wav
64,192,125390,1,0,0:0:0:0:
320,192,125464,1,0,0:0:0:50:kick.wav
448,192,125464,1,0,0:0:0:50:crash.wav
64,192,125538,1,0,0:0:0:50:kick.wav
192,192,125538,1,0,0:0:0:0:
320,192,125613,1,0,0:0:0:50:kick.wav
448,192,125613,1,0,0:0:0:0:
192,192,125687,1,0,0:0:0:50:kick.wav
64,192,125687,1,0,0:0:0:0:
320,192,125761,1,0,0:0:0:50:kick.wav
448,192,125761,1,0,0:0:0:50:crash.wav
192,192,125835,1,0,0:0:0:50:kick.wav
64,192,125835,1,0,0:0:0:0:
320,192,125910,1,0,0:0:0:50:kick.wav
448,192,125910,1,0,0:0:0:0:
192,192,125984,1,0,0:0:0:50:kick.wav
64,192,125984,1,0,0:0:0:0:
320,192,126058,1,0,0:0:0:50:kick.wav
448,192,126058,1,0,0:0:0:50:crash.wav
192,192,126132,1,0,0:0:0:50:kick.wav
64,192,126132,1,0,0:0:0:0:
320,192,126207,1,0,0:0:0:50:kick.wav
448,192,126207,1,0,0:0:0:0:
64,192,126281,1,0,0:0:0:50:kick.wav
192,192,126281,1,0,0:0:0:0:
448,192,127618,128,0,128170:0:0:0:0:
192,192,128249,128,0,128802:0:0:0:0:
64,192,128881,128,0,129512:0:0:0:0:
448,192,129512,128,0,130065:0:0:0:0:
320,192,130144,128,0,130855:0:0:0:0:
