osu file format v14

[General]
AudioFilename: mp3.mp3
AudioLeadIn: 0
PreviewTime: 31306
Countdown: 0
SampleSet: Soft
StackLeniency: 0.7
Mode: 3
LetterboxInBreaks: 0
SpecialStyle: 0
WidescreenStoryboard: 0

[Editor]
Bookmarks: 12890
DistanceSpacing: 1
BeatDivisor: 4
GridSize: 32
TimelineZoom: 2.2

[Metadata]
Title:NNRT
TitleUnicode:NNRT
Artist:Levaslater
ArtistUnicode:Levaslater
Creator:ZZHBOY
Version:Normal
Source:beatmania IIDX 19 Lincle
Tags:Sakura Luminance ELECTRO GOTHIC 中原龍太郎 Ryu* Ryu☆ Ryutaro Nakahara karen avalon critical star
BeatmapID:1035811
BeatmapSetID:481786

[Difficulty]
HPDrainRate:7
CircleSize:4
OverallDifficulty:7
ApproachRate:7
SliderMultiplier:1.4
SliderTickRate:1

[Events]
//Background and Video events
0,0,"bg.png",0,0
//Break Periods
//Storyboard Layer 0 (Background)
//Storyboard Layer 1 (Fail)
//Storyboard Layer 2 (Pass)
//Storyboard Layer 3 (Foreground)
//Storyboard Sound Samples
Sample,19202,0,"kick.wav",50
Sample,19276,0,"kick.wav",50
Sample,22098,0,"kick.wav",50
Sample,22692,0,"kick.wav",50
Sample,23286,0,"snare.wav",50
Sample,23880,0,"snare.wav",50
Sample,24474,0,"kick.wav",50
Sample,25068,0,"kick.wav",50
Sample,25662,0,"snare.wav",50
Sample,26256,0,"snare.wav",50
Sample,26850,0,"kick.wav",50
Sample,27444,0,"kick.wav",50
Sample,28038,0,"snare.wav",50
Sample,28632,0,"snare.wav",50
Sample,31603,0,"snare.wav",50
Sample,32197,0,"snare.wav",50
Sample,32791,0,"kick.wav",50
Sample,33236,0,"hihat.wav",35
Sample,33385,0,"kick.wav",50
Sample,33533,0,"hihat.wav",35
Sample,33979,0,"snare.wav",50
Sample,34573,0,"snare.wav",50
Sample,35167,0,"kick.wav",50
Sample,35761,0,"kick.wav",50
Sample,36355,0,"snare.wav",50
Sample,36949,0,"snare.wav",50
Sample,37543,0,"kick.wav",50
Sample,37989,0,"hihat.wav",35
Sample,38137,0,"kick.wav",50
Sample,38286,0,"hihat.wav",35
Sample,38583,0,"hihat.wav",35
Sample,38731,0,"snare.wav",50
Sample,39325,0,"snare.wav",50
Sample,39771,0,"hihat.wav",35
Sample,39919,0,"crash.wav",50
Sample,40068,0,"hihat.wav",35
Sample,40365,0,"hihat.wav",35
Sample,40514,0,"kick.wav",50
Sample,40662,0,"hihat.wav",35
Sample,40959,0,"hihat.wav",35
Sample,41108,0,"snare.wav",50
Sample,41702,0,"snare.wav",50
Sample,42147,0,"hihat.wav",35
Sample,42296,0,"snare.wav",50
Sample,42890,0,"kick.wav",50
Sample,43484,0,"snare.wav",50
Sample,44078,0,"snare.wav",50
Sample,44672,0,"kick.wav",50
Sample,45266,0,"kick.wav",50
Sample,46009,0,"kick.wav",50
Sample,46306,0,"kick.wav",50
Sample,46603,0,"kick.wav",50
Sample,47197,0,"kick.wav",50
Sample,47494,0,"kick.wav",50
Sample,47642,0,"snare.wav",50
Sample,47791,0,"kick.wav",50
Sample,47939,0,"crash.wav",50
Sample,48088,0,"hihat.wav",35
Sample,48236,0,"kick.wav",50
Sample,48385,0,"kick.wav",50
Sample,48682,0,"hihat.wav",35
Sample,48830,0,"snare.wav",50
Sample,48905,0,"kick.wav",50
Sample,48979,0,"kick.wav",50
Sample,49053,0,"kick.wav",50
Sample,50093,0,"kick.wav",50
Sample,50167,0,"kick.wav",50
Sample,50241,0,"kick.wav",50
Sample,62494,0,"drum.wav",35
Sample,63088,0,"drum.wav",35
Sample,63682,0,"drum.wav",35
Sample,64276,0,"drum.wav",35
Sample,64573,0,"kick.wav",50
Sample,65315,0,"hihat.wav",35
Sample,65761,0,"kick.wav",50
Sample,66504,0,"hihat.wav",35
Sample,66949,0,"kick.wav",50
Sample,67543,0,"drum.wav",35
Sample,67692,0,"hihat.wav",35
Sample,68137,0,"kick.wav",50
Sample,68434,0,"crash.wav",50
Sample,68731,0,"crash.wav",50
Sample,68880,0,"hihat.wav",35
Sample,69103,0,"kick.wav",50
Sample,69177,0,"hihat.wav",35
Sample,69177,0,"kick.wav",50
Sample,69251,0,"kick.wav",50
Sample,70291,0,"kick.wav",50
Sample,70365,0,"kick.wav",50
Sample,70439,0,"kick.wav",50
Sample,71479,0,"kick.wav",50
Sample,71553,0,"kick.wav",50
Sample,71627,0,"kick.wav",50
Sample,72073,0,"kick.wav",50
Sample,72147,0,"kick.wav",50
Sample,72221,0,"kick.wav",50
Sample,72927,0,"kick.wav",25
Sample,72964,0,"kick.wav",25
Sample,73001,0,"kick.wav",25
Sample,73038,0,"kick.wav",25
Sample,73075,0,"kick.wav",25
Sample,73113,0,"kick.wav",25
Sample,73150,0,"kick.wav",25
Sample,73224,0,"kick.wav",25
Sample,73261,0,"kick.wav",25
Sample,73298,0,"kick.wav",25
Sample,73335,0,"kick.wav",25
Sample,73372,0,"kick.wav",25
Sample,73410,0,"kick.wav",25
Sample,73447,0,"kick.wav",25
Sample,73521,0,"kick.wav",25
Sample,73558,0,"kick.wav",25
Sample,73595,0,"kick.wav",25
Sample,73632,0,"kick.wav",25
Sample,73669,0,"kick.wav",25
Sample,73707,0,"kick.wav",25
Sample,73744,0,"kick.wav",25
Sample,73818,0,"kick.wav",25
Sample,73855,0,"kick.wav",25
Sample,73892,0,"kick.wav",25
Sample,73929,0,"kick.wav",25
Sample,73966,0,"kick.wav",25
Sample,74004,0,"kick.wav",25
Sample,74041,0,"kick.wav",25
Sample,75563,0,"snare.wav",50
Sample,76009,0,"hihat.wav",35
Sample,76157,0,"snare.wav",50
Sample,76751,0,"kick.wav",50
Sample,77197,0,"hihat.wav",35
Sample,77345,0,"kick.wav",50
Sample,77494,0,"hihat.wav",35
Sample,77791,0,"hihat.wav",35
Sample,77939,0,"snare.wav",50
Sample,78088,0,"hihat.wav",35
Sample,78385,0,"hihat.wav",35
Sample,78533,0,"snare.wav",50
Sample,78682,0,"hihat.wav",35
Sample,78979,0,"hihat.wav",35
Sample,79127,0,"kick.wav",50
Sample,79127,0,"snare.wav",50
Sample,79276,0,"hihat.wav",35
Sample,79424,0,"kick.wav",50
Sample,79721,0,"kick.wav",50
Sample,80018,0,"kick.wav",50
Sample,80315,0,"snare.wav",50
Sample,80761,0,"hihat.wav",35
Sample,80910,0,"snare.wav",50
Sample,81504,0,"kick.wav",50
Sample,82098,0,"kick.wav",50
Sample,82543,0,"hihat.wav",35
Sample,82692,0,"snare.wav",50
Sample,82840,0,"hihat.wav",35
Sample,83137,0,"hihat.wav",35
Sample,83286,0,"snare.wav",50
Sample,83434,0,"hihat.wav",35
Sample,83731,0,"hihat.wav",35
Sample,83880,0,"snare.wav",50
Sample,84028,0,"hihat.wav",35
Sample,84325,0,"hihat.wav",35
Sample,84474,0,"kick.wav",50
Sample,84622,0,"kick.wav",50
Sample,85068,0,"kick.wav",50
Sample,85514,0,"hihat.wav",35
Sample,85662,0,"kick.wav",50
Sample,86256,0,"snare.wav",50
Sample,86702,0,"hihat.wav",35
Sample,86850,0,"snare.wav",50
Sample,86999,0,"hihat.wav",35
Sample,87296,0,"hihat.wav",35
Sample,87444,0,"kick.wav",50
Sample,87593,0,"hihat.wav",35
Sample,87890,0,"hihat.wav",35
Sample,88038,0,"kick.wav",50
Sample,88187,0,"hihat.wav",35
Sample,88484,0,"hihat.wav",35
Sample,88632,0,"kick.wav",50
Sample,88632,0,"snare.wav",50
Sample,88781,0,"hihat.wav",35
Sample,88929,0,"kick.wav",50
Sample,89226,0,"snare.wav",50
Sample,89523,0,"kick.wav",50
Sample,89820,0,"kick.wav",50
Sample,90266,0,"hihat.wav",35
Sample,90415,0,"kick.wav",50
Sample,90712,0,"crash.wav",50
Sample,91009,0,"snare.wav",50
Sample,91603,0,"snare.wav",50
Sample,92048,0,"hihat.wav",35
Sample,92345,0,"hihat.wav",35
Sample,92642,0,"hihat.wav",35
Sample,92939,0,"hihat.wav",35
Sample,93236,0,"hihat.wav",35
Sample,93385,0,"snare.wav",50
Sample,93533,0,"hihat.wav",35
Sample,93830,0,"hihat.wav",35
Sample,93979,0,"snare.wav",50
Sample,94127,0,"hihat.wav",35
Sample,94424,0,"hihat.wav",35
Sample,94573,0,"crash.wav",50
Sample,94721,0,"hihat.wav",35
Sample,95018,0,"hihat.wav",35
Sample,95167,0,"crash.wav",50
Sample,95315,0,"hihat.wav",35
Sample,95464,0,"kick.wav",50
Sample,95538,0,"kick.wav",50
Sample,95613,0,"kick.wav",50
Sample,95687,0,"kick.wav",50
Sample,95761,0,"kick.wav",50
Sample,95835,0,"kick.wav",50
Sample,95910,0,"kick.wav",50
Sample,95984,0,"kick.wav",50
Sample,96801,0,"hihat.wav",35
Sample,96949,0,"snare.wav",50
Sample,97098,0,"hihat.wav",35
Sample,97395,0,"hihat.wav",35
Sample,97543,0,"snare.wav",50
Sample,97989,0,"hihat.wav",35
Sample,98137,0,"kick.wav",50
Sample,98286,0,"hihat.wav",35
Sample,98583,0,"hihat.wav",35
Sample,98731,0,"kick.wav",50
Sample,98880,0,"hihat.wav",35
Sample,99177,0,"hihat.wav",35
Sample,99325,0,"kick.wav",50
Sample,99325,0,"snare.wav",50
Sample,99474,0,"hihat.wav",35
Sample,99771,0,"hihat.wav",35
Sample,99919,0,"kick.wav",50
Sample,99919,0,"snare.wav",50
Sample,100068,0,"hihat.wav",35
Sample,100365,0,"hihat.wav",35
Sample,100514,0,"snare.wav",50
Sample,100514,0,"kick.wav",50
Sample,100662,0,"hihat.wav",35
Sample,100811,0,"kick.wav",50
Sample,100959,0,"hihat.wav",35
Sample,101108,0,"kick.wav",50
Sample,101108,0,"snare.wav",50
Sample,101256,0,"hihat.wav",35
Sample,101553,0,"hihat.wav",35
Sample,101702,0,"snare.wav",50
Sample,101850,0,"hihat.wav",35
Sample,102147,0,"hihat.wav",35
Sample,102296,0,"snare.wav",50
Sample,102741,0,"hihat.wav",35
Sample,102890,0,"kick.wav",50
Sample,103038,0,"hihat.wav",35
Sample,103335,0,"hihat.wav",35
Sample,103484,0,"kick.wav",50
Sample,103632,0,"hihat.wav",35
Sample,103929,0,"hihat.wav",35
Sample,104078,0,"snare.wav",50
Sample,104226,0,"hihat.wav",35
Sample,104523,0,"hihat.wav",35
Sample,104672,0,"snare.wav",50
Sample,104820,0,"hihat.wav",35
Sample,105117,0,"hihat.wav",35
Sample,105266,0,"snare.wav",50
Sample,105414,0,"hihat.wav",35
Sample,105712,0,"hihat.wav",35
Sample,105860,0,"crash.wav",50
Sample,106009,0,"hihat.wav",35
Sample,107642,0,"kick.wav",50
Sample,108236,0,"kick.wav",50
Sample,108830,0,"snare.wav",50
Sample,109276,0,"hihat.wav",35
Sample,109424,0,"snare.wav",50
Sample,109573,0,"hihat.wav",35
Sample,110018,0,"kick.wav",50
Sample,110613,0,"kick.wav",50
Sample,111207,0,"snare.wav",50
Sample,111801,0,"snare.wav",50
Sample,111949,0,"kick.wav",50
Sample,112395,0,"kick.wav",50
Sample,112989,0,"kick.wav",50
Sample,113583,0,"snare.wav",50
Sample,114028,0,"hihat.wav",35
Sample,114177,0,"snare.wav",50
Sample,114325,0,"hihat.wav",35
Sample,114771,0,"kick.wav",50
Sample,115365,0,"kick.wav",50
Sample,115959,0,"snare.wav",50
Sample,116553,0,"snare.wav",50
Sample,116702,0,"kick.wav",50
Sample,116999,0,"hihat.wav",35
Sample,117296,0,"hihat.wav",35
Sample,117593,0,"kick.wav",50
Sample,117741,0,"snare.wav",50
Sample,117890,0,"hihat.wav",35
Sample,118187,0,"hihat.wav",35
Sample,118484,0,"hihat.wav",35
Sample,118781,0,"hihat.wav",35
Sample,118929,0,"snare.wav",50
Sample,119078,0,"hihat.wav",35
Sample,119523,0,"snare.wav",50
Sample,120117,0,"snare.wav",50
Sample,120712,0,"kick.wav",50
Sample,121306,0,"kick.wav",50
Sample,121900,0,"snare.wav",50
Sample,122494,0,"snare.wav",50
Sample,123088,0,"kick.wav",50
Sample,123682,0,"kick.wav",50
Sample,124276,0,"snare.wav",50
Sample,124350,0,"kick.wav",50
Sample,124424,0,"kick.wav",50
Sample,124424,0,"hihat.wav",35
Sample,124499,0,"kick.wav",50
Sample,124721,0,"kick.wav",50
Sample,124870,0,"snare.wav",50
Sample,125018,0,"kick.wav",50
Sample,125167,0,"kick.wav",50
Sample,125241,0,"kick.wav",50
Sample,125390,0,"kick.wav",50
Sample,125464,0,"crash.wav",50
Sample,125538,0,"kick.wav",50
Sample,125687,0,"kick.wav",50
Sample,125761,0,"crash.wav",50
Sample,125835,0,"kick.wav",50
Sample,125984,0,"kick.wav",50
Sample,126058,0,"crash.wav",50
Sample,126132,0,"kick.wav",50
Sample,126281,0,"kick.wav",50

[TimingPoints]
415,297.029702970297,4,2,0,30,1,0
31306,-100,4,2,0,30,0,1
40811,-100,4,2,0,30,0,0
43187,-100,4,2,0,30,0,1
50315,-100,4,2,0,30,0,0
107345,-100,4,2,0,30,0,1
116850,-100,4,2,0,30,0,0
119226,-100,4,2,0,30,0,1
126355,631.578947368421,4,2,0,30,1,0
126355,-46.9483568075117,4,2,0,30,0,0

[HitObjects]
192,192,12296,5,0,0:0:0:0:
448,192,12593,1,0,0:0:0:35:drum.wav
320,192,12890,1,0,0:0:0:0:
192,192,13187,1,0,0:0:0:35:drum.wav
64,192,13484,1,0,0:0:0:0:
320,192,13781,1,0,0:0:0:35:drum.wav
448,192,14078,1,0,0:0:0:0:
320,192,14375,1,0,0:0:0:35:drum.wav
64,192,14672,1,0,0:0:0:50:crash.wav
448,192,14672,1,0,0:0:0:0:
192,192,14969,1,0,0:0:0:35:drum.wav
448,192,15266,1,0,0:0:0:0:
320,192,15563,1,0,0:0:0:35:drum.wav
448,192,15860,1,0,0:0:0:50:crash.wav
64,192,15860,1,0,0:0:0:50:kick.wav
192,192,16157,1,0,0:0:0:50:kick.wav
320,192,16157,1,0,0:0:0:50:crash.wav
448,192,16454,1,0,0:0:0:50:crash.wav
64,192,16454,1,0,0:0:0:50:kick.wav
448,192,17048,1,0,0:0:0:50:crash.wav
192,192,17048,1,0,0:0:0:50:kick.wav
448,192,17494,1,0,0:0:0:50:kick.wav
320,192,17494,1,0,0:0:0:0:
320,192,17791,1,0,0:0:0:50:kick.wav
192,192,17791,1,0,0:0:0:0:
192,192,18088,1,0,0:0:0:50:kick.wav
64,192,18088,1,0,0:0:0:0:
448,192,18236,1,0,0:0:0:50:kick.wav
320,192,18236,1,0,0:0:0:50:crash.wav
320,192,18682,1,0,0:0:0:50:kick.wav
192,192,18682,1,0,0:0:0:0:
448,192,18979,1,0,0:0:0:50:kick.wav
64,192,18979,1,0,0:0:0:0:
320,192,19127,1,0,0:0:0:50:kick.wav
192,192,19127,1,0,0:0:0:0:
64,192,19424,1,0,0:0:0:50:kick.wav
448,192,19424,1,0,0:0:0:50:crash.wav
192,192,20018,1,0,0:0:0:50:kick.wav
320,192,20018,1,0,0:0:0:50:crash.wav
64,192,20613,1,0,0:0:0:50:kick.wav
320,192,20613,1,0,0:0:0:50:crash.wav
192,192,20910,1,0,0:0:0:50:kick.wav
448,192,20910,1,0,0:0:0:50:crash.wav
64,192,21207,1,0,0:0:0:50:crash.wav
320,192,21207,1,0,0:0:0:50:kick.wav
64,192,21801,1,0,0:0:0:50:kick.wav
448,192,21801,1,0,0:0:0:50:crash.wav
192,192,21949,1,0,0:0:0:35:hihat.wav
320,192,22098,1,0,0:0:0:50:snare.wav
448,192,22246,1,0,0:0:0:35:hihat.wav
64,192,22395,1,0,0:0:0:50:kick.wav
320,192,22543,1,0,0:0:0:35:hihat.wav
192,192,22692,1,0,0:0:0:50:snare.wav
64,192,22840,1,0,0:0:0:35:hihat.wav
448,192,22989,1,0,0:0:0:50:kick.wav
320,192,23137,1,0,0:0:0:35:hihat.wav
64,192,23286,1,0,0:0:0:50:kick.wav
192,192,23434,1,0,0:0:0:35:hihat.wav
448,192,23583,1,0,0:0:0:50:kick.wav
64,192,23731,1,0,0:0:0:35:hihat.wav
320,192,23880,1,0,0:0:0:50:kick.wav
448,192,24028,1,0,0:0:0:35:hihat.wav
192,192,24177,1,0,0:0:0:50:kick.wav
320,192,24325,1,0,0:0:0:35:hihat.wav
64,192,24474,1,0,0:0:0:50:snare.wav
192,192,24622,1,0,0:0:0:35:hihat.wav
448,192,24771,1,0,0:0:0:50:kick.wav
320,192,24919,1,0,0:0:0:35:hihat.wav
192,192,25068,1,0,0:0:0:50:snare.wav
64,192,25216,1,0,0:0:0:35:hihat.wav
320,192,25365,1,0,0:0:0:50:kick.wav
448,192,25514,1,0,0:0:0:35:hihat.wav
192,192,25662,1,0,0:0:0:50:kick.wav
64,192,25811,1,0,0:0:0:35:hihat.wav
192,192,25959,1,0,0:0:0:50:kick.wav
320,192,26108,1,0,0:0:0:35:hihat.wav
448,192,26256,1,0,0:0:0:50:kick.wav
320,192,26405,1,0,0:0:0:35:hihat.wav
192,192,26553,1,0,0:0:0:50:crash.wav
64,192,26553,1,0,0:0:0:50:kick.wav
448,192,26702,1,0,0:0:0:35:hihat.wav
320,192,26850,1,0,0:0:0:50:snare.wav
64,192,26999,1,0,0:0:0:35:hihat.wav
192,192,27147,1,0,0:0:0:50:kick.wav
448,192,27296,1,0,0:0:0:35:hihat.wav
64,192,27444,1,0,0:0:0:50:snare.wav
320,192,27593,1,0,0:0:0:35:hihat.wav
192,192,27741,1,0,0:0:0:50:kick.wav
64,192,27890,1,0,0:0:0:35:hihat.wav
448,192,28038,1,0,0:0:0:50:kick.wav
192,192,28187,1,0,0:0:0:35:hihat.wav
320,192,28335,1,0,0:0:0:50:kick.wav
64,192,28484,1,0,0:0:0:35:hihat.wav
448,192,28632,1,0,0:0:0:50:kick.wav
320,192,28781,1,0,0:0:0:35:hihat.wav
192,192,28929,1,0,0:0:0:50:crash.wav
64,192,28929,1,0,0:0:0:50:kick.wav
448,192,29078,1,0,0:0:0:0:
64,192,29226,1,0,0:0:0:0:
192,192,29375,1,0,0:0:0:0:
448,192,29523,1,0,0:0:0:50:kick.wav
320,192,29523,1,0,0:0:0:50:crash.wav
64,192,29672,1,0,0:0:0:0:
192,192,29820,1,0,0:0:0:0:
448,192,29969,1,0,0:0:0:0:
64,192,30117,1,0,0:0:0:50:kick.wav
320,192,30117,1,0,0:0:0:50:crash.wav
192,192,30414,1,0,0:0:0:50:crash.wav
448,192,30414,1,0,0:0:0:50:kick.wav
320,192,30712,1,0,0:0:0:50:kick.wav
64,192,30712,1,0,0:0:0:50:crash.wav
64,192,31306,1,0,0:0:0:50:crash.wav
448,192,31306,1,0,0:0:0:50:kick.wav
192,192,31454,1,0,0:0:0:35:hihat.wav
320,192,31603,1,0,0:0:0:50:kick.wav
192,192,31751,1,0,0:0:0:35:hihat.wav
64,192,31900,1,0,0:0:0:50:kick.wav
320,192,32048,1,0,0:0:0:35:hihat.wav
448,192,32197,1,0,0:0:0:50:kick.wav
320,192,32345,1,0,0:0:0:35:hihat.wav
192,192,32494,1,0,0:0:0:50:kick.wav
448,192,32642,1,0,0:0:0:35:hihat.wav
64,192,32791,1,0,0:0:0:50:snare.wav
192,192,32939,1,0,0:0:0:35:hihat.wav
448,192,33088,1,0,0:0:0:50:kick.wav
64,192,33385,1,0,0:0:0:50:snare.wav
320,192,33682,1,0,0:0:0:50:kick.wav
64,192,33830,1,0,0:0:0:35:hihat.wav
192,192,33979,1,0,0:0:0:50:kick.wav
320,192,34127,1,0,0:0:0:35:hihat.wav
448,192,34276,1,0,0:0:0:50:kick.wav
320,192,34424,1,0,0:0:0:35:hihat.wav
64,192,34573,1,0,0:0:0:50:kick.wav
192,192,34721,1,0,0:0:0:35:hihat.wav
448,192,34870,1,0,0:0:0:50:kick.wav
320,192,35018,1,0,0:0:0:35:hihat.wav
64,192,35167,1,0,0:0:0:50:snare.wav
192,192,35315,1,0,0:0:0:35:hihat.wav
64,192,35464,1,0,0:0:0:50:kick.wav
320,192,35613,1,0,0:0:0:35:hihat.wav
448,192,35761,1,0,0:0:0:50:snare.wav
320,192,35910,1,0,0:0:0:35:hihat.wav
192,192,36058,1,0,0:0:0:50:crash.wav
64,192,36058,1,0,0:0:0:50:kick.wav
448,192,36207,1,0,0:0:0:35:hihat.wav
64,192,36355,1,0,0:0:0:50:kick.wav
192,192,36504,1,0,0:0:0:35:hihat.wav
320,192,36652,1,0,0:0:0:50:kick.wav
192,192,36801,1,0,0:0:0:35:hihat.wav
448,192,36949,1,0,0:0:0:50:kick.wav
320,192,37098,1,0,0:0:0:35:hihat.wav
192,192,37246,1,0,0:0:0:50:kick.wav
320,192,37395,1,0,0:0:0:35:hihat.wav
64,192,37543,1,0,0:0:0:50:snare.wav
192,192,37692,1,0,0:0:0:35:hihat.wav
448,192,37840,1,0,0:0:0:50:kick.wav
320,192,38137,1,0,0:0:0:50:snare.wav
64,192,38434,1,0,0:0:0:50:kick.wav
64,192,38731,1,0,0:0:0:50:kick.wav
192,192,38880,1,0,0:0:0:35:hihat.wav
448,192,39028,1,0,0:0:0:50:kick.wav
320,192,39177,1,0,0:0:0:35:hihat.wav
192,192,39325,1,0,0:0:0:50:kick.wav
64,192,39474,1,0,0:0:0:35:hihat.wav
320,192,39622,1,0,0:0:0:50:crash.wav
448,192,39622,1,0,0:0:0:50:kick.wav
192,192,39919,1,0,0:0:0:50:snare.wav
64,192,39919,1,0,0:0:0:50:kick.wav
320,192,40216,1,0,0:0:0:50:kick.wav
448,192,40216,1,0,0:0:0:50:crash.wav
192,192,40514,1,0,0:0:0:50:snare.wav
64,192,40811,1,0,0:0:0:50:crash.wav
320,192,40811,1,0,0:0:0:50:kick.wav
192,192,41256,1,0,0:0:0:35:hihat.wav
320,192,41256,1,0,0:0:0:50:kick.wav
320,192,41553,1,0,0:0:0:50:kick.wav
448,192,41553,1,0,0:0:0:35:hihat.wav
64,192,41850,1,0,0:0:0:35:hihat.wav
192,192,41850,1,0,0:0:0:50:kick.wav
320,192,41999,1,0,0:0:0:50:kick.wav
448,192,41999,1,0,0:0:0:0:
192,192,42444,1,0,0:0:0:50:kick.wav
64,192,42444,1,0,0:0:0:35:hihat.wav
320,192,42741,1,0,0:0:0:35:hihat.wav
448,192,42741,1,0,0:0:0:50:kick.wav
64,192,42890,1,0,0:0:0:50:snare.wav
192,192,42964,1,0,0:0:0:50:kick.wav
320,192,43038,1,0,0:0:0:50:kick.wav
448,192,43187,1,0,0:0:0:50:crash.wav
64,192,43187,1,0,0:0:0:50:kick.wav
320,192,43335,1,0,0:0:0:35:hihat.wav
64,192,43484,1,0,0:0:0:50:kick.wav
192,192,43632,1,0,0:0:0:35:hihat.wav
320,192,43781,1,0,0:0:0:50:kick.wav
448,192,43929,1,0,0:0:0:35:hihat.wav
320,192,44078,1,0,0:0:0:50:kick.wav
64,192,44226,1,0,0:0:0:35:hihat.wav
320,192,44375,1,0,0:0:0:50:kick.wav
192,192,44523,1,0,0:0:0:35:hihat.wav
64,192,44672,1,0,0:0:0:50:snare.wav
192,192,44820,1,0,0:0:0:35:hihat.wav
64,192,44969,1,0,0:0:0:50:kick.wav
320,192,45117,1,0,0:0:0:35:hihat.wav
448,192,45266,1,0,0:0:0:50:snare.wav
320,192,45415,1,0,0:0:0:35:hihat.wav
64,192,45563,1,0,0:0:0:50:crash.wav
192,192,45563,1,0,0:0:0:50:kick.wav
448,192,45712,1,0,0:0:0:35:hihat.wav
64,192,45860,1,0,0:0:0:50:snare.wav
192,192,46009,1,0,0:0:0:35:hihat.wav
320,192,46157,1,0,0:0:0:50:crash.wav
448,192,46157,1,0,0:0:0:0:
192,192,46306,1,0,0:0:0:35:hihat.wav
64,192,46454,1,0,0:0:0:50:snare.wav
320,192,46603,1,0,0:0:0:35:hihat.wav
448,192,46751,1,0,0:0:0:50:kick.wav
192,192,46751,1,0,0:0:0:50:crash.wav
64,192,46900,1,0,0:0:0:35:hihat.wav
192,192,47048,1,0,0:0:0:50:snare.wav
320,192,47197,1,0,0:0:0:35:hihat.wav
448,192,47345,1,0,0:0:0:50:crash.wav
192,192,47345,1,0,0:0:0:0:
64,192,47494,1,0,0:0:0:35:hihat.wav
448,192,47642,1,0,0:0:0:50:kick.wav
320,192,47716,1,0,0:0:0:50:kick.wav
192,192,47791,1,0,0:0:0:35:hihat.wav
64,192,47939,1,0,0:0:0:50:kick.wav
448,192,48088,1,0,0:0:0:50:kick.wav
64,192,48236,1,0,0:0:0:50:snare.wav
448,192,48385,1,0,0:0:0:35:hihat.wav
192,192,48533,1,0,0:0:0:50:kick.wav
320,192,48682,1,0,0:0:0:50:kick.wav
192,192,48830,1,0,0:0:0:50:kick.wav
320,192,48979,1,0,0:0:0:35:hihat.wav
448,192,49127,1,0,0:0:0:50:kick.wav
64,192,49127,1,0,0:0:0:50:crash.wav
192,192,49276,1,0,0:0:0:50:kick.wav
320,192,49276,1,0,0:0:0:50:crash.wav
64,192,49573,1,0,0:0:0:50:kick.wav
192,192,49573,1,0,0:0:0:0:
448,192,49870,1,0,0:0:0:50:kick.wav
320,192,49870,1,0,0:0:0:0:
64,192,50018,128,0,50315:0:0:0:50:kick.wav
192,192,50315,1,0,0:0:0:50:kick.wav
448,192,50315,128,0,52692:0:0:0:0:
64,192,52692,1,0,0:0:0:0:
192,192,52840,1,0,0:0:0:0:
320,192,52989,1,0,0:0:0:0:
448,192,53137,1,0,0:0:0:0:
64,192,53286,128,0,53583:0:0:0:0:
320,192,53583,1,0,0:0:0:0:
192,192,53731,1,0,0:0:0:0:
64,192,53880,1,0,0:0:0:0:
192,192,54028,1,0,0:0:0:0:
320,192,54177,1,0,0:0:0:0:
448,192,54325,1,0,0:0:0:0:
192,192,54474,128,0,54697:0:0:0:0:
64,192,54771,128,0,54994:0:0:0:0:
320,192,55068,128,0,55291:0:0:0:0:
448,192,55365,128,0,55588:0:0:0:0:
64,192,55662,128,0,55885:0:0:0:0:
320,192,55959,128,0,56182:0:0:0:0:
192,192,56256,128,0,56702:0:0:0:0:
448,192,56999,1,0,0:0:0:0:
320,192,57147,1,0,0:0:0:0:
192,192,57296,1,0,0:0:0:0:
64,192,57444,1,0,0:0:0:0:
192,192,57593,1,0,0:0:0:0:
320,192,57741,1,0,0:0:0:35:drum.wav
448,192,57890,1,0,0:0:0:0:
320,192,58038,128,0,58335:0:0:0:0:
192,192,58335,1,0,0:0:0:35:drum.wav
64,192,58484,1,0,0:0:0:0:
192,192,58632,1,0,0:0:0:0:
320,192,58781,1,0,0:0:0:0:
448,192,58929,1,0,0:0:0:35:drum.wav
320,192,59078,1,0,0:0:0:0:
64,192,59226,1,0,0:0:0:0:
192,192,59375,1,0,0:0:0:0:
320,192,59523,1,0,0:0:0:35:drum.wav
448,192,59672,1,0,0:0:0:0:
192,192,59820,128,0,60117:0:0:0:0:
448,192,60117,1,0,0:0:0:35:drum.wav
320,192,60266,1,0,0:0:0:0:
64,192,60415,128,0,60712:0:0:0:0:
448,192,60712,1,0,0:0:0:35:drum.wav
192,192,60860,1,0,0:0:0:0:
448,192,61009,1,0,0:0:0:0:
64,192,61157,1,0,0:0:0:0:
320,192,61306,1,0,0:0:0:35:drum.wav
448,192,61454,1,0,0:0:0:0:
192,192,61603,1,0,0:0:0:0:
320,192,61751,1,0,0:0:0:0:
192,192,61900,1,0,0:0:0:35:drum.wav
64,192,62048,1,0,0:0:0:0:
448,192,62197,128,0,63088:0:0:0:0:
64,192,63385,128,0,64276:0:0:0:0:
448,192,64573,1,0,0:0:0:50:crash.wav
64,192,64573,1,0,0:0:0:35:drum.wav
192,192,64721,1,0,0:0:0:35:hihat.wav
320,192,64870,1,0,0:0:0:35:drum.wav
448,192,65018,1,0,0:0:0:35:hihat.wav
320,192,65167,1,0,0:0:0:35:drum.wav
192,192,65464,1,0,0:0:0:35:drum.wav
64,192,65613,1,0,0:0:0:35:hihat.wav
192,192,65761,1,0,0:0:0:50:crash.wav
448,192,65761,1,0,0:0:0:35:drum.wav
320,192,65910,1,0,0:0:0:35:hihat.wav
448,192,66058,1,0,0:0:0:35:drum.wav
192,192,66207,1,0,0:0:0:35:hihat.wav
64,192,66355,1,0,0:0:0:35:drum.wav
448,192,66652,1,0,0:0:0:35:drum.wav
320,192,66801,1,0,0:0:0:35:hihat.wav
64,192,66949,1,0,0:0:0:50:crash.wav
192,192,66949,1,0,0:0:0:35:drum.wav
320,192,67098,1,0,0:0:0:35:hihat.wav
448,192,67246,1,0,0:0:0:35:drum.wav
192,192,67395,1,0,0:0:0:35:hihat.wav
64,192,67543,1,0,0:0:0:50:kick.wav
448,192,67840,1,0,0:0:0:35:drum.wav
320,192,67989,1,0,0:0:0:35:hihat.wav
64,192,68137,1,0,0:0:0:50:crash.wav
448,192,68137,1,0,0:0:0:35:drum.wav
192,192,68286,1,0,0:0:0:35:hihat.wav
320,192,68434,1,0,0:0:0:35:drum.wav
64,192,68434,1,0,0:0:0:50:kick.wav
448,192,68583,1,0,0:0:0:35:hihat.wav
320,192,68731,1,0,0:0:0:50:kick.wav
192,192,68731,1,0,0:0:0:35:drum.wav
448,192,69028,128,0,69325:0:0:0:50:kick.wav
64,192,69325,1,0,0:0:0:50:kick.wav
192,192,69325,1,0,0:0:0:50:crash.wav
320,192,69474,1,0,0:0:0:50:kick.wav
192,192,69622,1,0,0:0:0:50:kick.wav
320,192,69771,1,0,0:0:0:50:kick.wav
192,192,69919,1,0,0:0:0:50:kick.wav
320,192,70068,1,0,0:0:0:50:kick.wav
192,192,70216,128,0,70514:0:0:0:50:kick.wav
64,192,70514,1,0,0:0:0:50:kick.wav
320,192,70514,1,0,0:0:0:50:crash.wav
448,192,70662,1,0,0:0:0:50:kick.wav
64,192,70811,1,0,0:0:0:50:kick.wav
448,192,70959,1,0,0:0:0:50:kick.wav
64,192,71108,1,0,0:0:0:50:kick.wav
448,192,71256,1,0,0:0:0:50:kick.wav
64,192,71405,128,0,71702:0:0:0:50:kick.wav
192,192,71702,1,0,0:0:0:50:kick.wav
448,192,71702,1,0,0:0:0:50:crash.wav
320,192,71850,1,0,0:0:0:50:kick.wav
448,192,71999,128,0,72296:0:0:0:50:kick.wav
64,192,72296,1,0,0:0:0:50:kick.wav
448,192,72444,1,0,0:0:0:50:kick.wav
320,192,72518,1,0,0:0:0:50:kick.wav
192,192,72593,1,0,0:0:0:50:kick.wav
448,192,72741,1,0,0:0:0:50:kick.wav
320,192,72815,1,0,0:0:0:50:kick.wav
192,192,72890,1,0,0:0:0:25:kick.wav
64,192,72890,128,0,74078:0:0:0:50:crash.wav
192,192,73187,128,0,74078:0:0:0:25:kick.wav
320,192,73484,128,0,74078:0:0:0:25:kick.wav
448,192,73781,128,0,74078:0:0:0:25:kick.wav
64,192,75266,1,0,0:0:0:50:crash.wav
320,192,75266,1,0,0:0:0:50:kick.wav
448,192,75415,1,0,0:0:0:35:hihat.wav
64,192,75563,1,0,0:0:0:50:kick.wav
192,192,75712,1,0,0:0:0:35:hihat.wav
320,192,75860,128,0,76157:0:0:0:50:kick.wav
448,192,76157,1,0,0:0:0:50:kick.wav
192,192,76306,1,0,0:0:0:35:hihat.wav
64,192,76454,1,0,0:0:0:50:kick.wav
192,192,76603,1,0,0:0:0:35:hihat.wav
320,192,76751,1,0,0:0:0:50:snare.wav
448,192,76900,1,0,0:0:0:35:hihat.wav
320,192,77048,128,0,77345:0:0:0:50:kick.wav
192,192,77345,128,0,77642:0:0:0:50:snare.wav
64,192,77642,128,0,77939:0:0:0:50:kick.wav
448,192,77939,128,0,78236:0:0:0:50:kick.wav
192,192,78236,128,0,78533:0:0:0:50:kick.wav
320,192,78533,128,0,78830:0:0:0:50:kick.wav
64,192,78830,128,0,79424:0:0:0:50:kick.wav
448,192,79573,1,0,0:0:0:35:hihat.wav
320,192,79721,1,0,0:0:0:50:snare.wav
192,192,79870,1,0,0:0:0:35:hihat.wav
64,192,80018,1,0,0:0:0:50:crash.wav
192,192,80167,1,0,0:0:0:35:hihat.wav
320,192,80315,1,0,0:0:0:50:kick.wav
448,192,80464,1,0,0:0:0:35:hihat.wav
320,192,80613,128,0,80910:0:0:0:50:kick.wav
192,192,80910,1,0,0:0:0:50:kick.wav
64,192,81058,1,0,0:0:0:35:hihat.wav
192,192,81207,1,0,0:0:0:50:kick.wav
320,192,81355,1,0,0:0:0:35:hihat.wav
448,192,81504,1,0,0:0:0:50:snare.wav
320,192,81652,1,0,0:0:0:35:hihat.wav
64,192,81801,1,0,0:0:0:50:kick.wav
192,192,81949,1,0,0:0:0:35:hihat.wav
320,192,82098,1,0,0:0:0:50:snare.wav
448,192,82246,1,0,0:0:0:35:hihat.wav
192,192,82395,1,0,0:0:0:50:kick.wav
448,192,82692,1,0,0:0:0:50:kick.wav
64,192,82989,1,0,0:0:0:50:kick.wav
448,192,83286,1,0,0:0:0:50:kick.wav
64,192,83583,1,0,0:0:0:50:crash.wav
192,192,83583,1,0,0:0:0:50:kick.wav
320,192,83880,1,0,0:0:0:50:kick.wav
448,192,83880,1,0,0:0:0:50:crash.wav
192,192,84177,1,0,0:0:0:50:crash.wav
64,192,84177,1,0,0:0:0:50:kick.wav
448,192,84474,1,0,0:0:0:50:snare.wav
320,192,84548,1,0,0:0:0:50:kick.wav
64,192,84622,1,0,0:0:0:35:hihat.wav
192,192,84697,1,0,0:0:0:50:kick.wav
320,192,84771,1,0,0:0:0:50:crash.wav
448,192,84771,1,0,0:0:0:50:kick.wav
64,192,84919,1,0,0:0:0:35:hihat.wav
192,192,85068,1,0,0:0:0:50:snare.wav
320,192,85216,1,0,0:0:0:35:hihat.wav
192,192,85365,128,0,85662:0:0:0:50:kick.wav
448,192,85662,1,0,0:0:0:50:snare.wav
320,192,85811,1,0,0:0:0:35:hihat.wav
64,192,85959,1,0,0:0:0:50:kick.wav
192,192,86108,1,0,0:0:0:35:hihat.wav
320,192,86256,1,0,0:0:0:50:kick.wav
448,192,86405,1,0,0:0:0:35:hihat.wav
192,192,86553,128,0,86850:0:0:0:50:kick.wav
64,192,86850,128,0,87147:0:0:0:50:kick.wav
320,192,87147,128,0,87444:0:0:0:50:kick.wav
448,192,87444,128,0,87741:0:0:0:50:snare.wav
192,192,87741,128,0,88038:0:0:0:50:kick.wav
448,192,88038,128,0,88335:0:0:0:50:snare.wav
64,192,88335,128,0,88929:0:0:0:50:kick.wav
448,192,89078,1,0,0:0:0:35:hihat.wav
320,192,89226,1,0,0:0:0:50:kick.wav
192,192,89375,1,0,0:0:0:35:hihat.wav
64,192,89523,1,0,0:0:0:50:crash.wav
192,192,89672,1,0,0:0:0:35:hihat.wav
320,192,89820,1,0,0:0:0:50:snare.wav
448,192,89969,1,0,0:0:0:35:hihat.wav
320,192,90117,1,0,0:0:0:50:kick.wav
192,192,90415,1,0,0:0:0:50:snare.wav
64,192,90563,1,0,0:0:0:35:hihat.wav
192,192,90712,1,0,0:0:0:50:kick.wav
320,192,90860,1,0,0:0:0:35:hihat.wav
448,192,91009,1,0,0:0:0:50:kick.wav
320,192,91157,1,0,0:0:0:35:hihat.wav
64,192,91306,1,0,0:0:0:50:kick.wav
192,192,91454,1,0,0:0:0:35:hihat.wav
320,192,91603,1,0,0:0:0:50:kick.wav
448,192,91751,1,0,0:0:0:35:hihat.wav
64,192,91900,1,0,0:0:0:50:kick.wav
192,192,91900,1,0,0:0:0:50:crash.wav
448,192,92197,1,0,0:0:0:50:snare.wav
320,192,92197,1,0,0:0:0:50:kick.wav
192,192,92494,1,0,0:0:0:50:kick.wav
64,192,92494,1,0,0:0:0:50:crash.wav
320,192,92791,1,0,0:0:0:50:snare.wav
448,192,92791,1,0,0:0:0:50:kick.wav
64,192,93088,1,0,0:0:0:50:crash.wav
192,192,93088,1,0,0:0:0:50:kick.wav
192,192,93385,1,0,0:0:0:50:kick.wav
320,192,93385,1,0,0:0:0:50:crash.wav
320,192,93682,1,0,0:0:0:50:crash.wav
448,192,93682,1,0,0:0:0:50:kick.wav
320,192,93979,1,0,0:0:0:50:kick.wav
192,192,93979,1,0,0:0:0:50:crash.wav
64,192,94276,1,0,0:0:0:50:crash.wav
448,192,94276,1,0,0:0:0:0:
320,192,94573,1,0,0:0:0:50:snare.wav
192,192,94870,1,0,0:0:0:50:crash.wav
192,192,95167,1,0,0:0:0:50:snare.wav
64,192,95464,128,0,95761:0:0:0:50:crash.wav
448,192,95761,128,0,96058:0:0:0:50:crash.wav
192,192,96058,1,0,0:0:0:50:crash.wav
64,192,96058,1,0,0:0:0:50:kick.wav
320,192,96207,1,0,0:0:0:50:crash.wav
448,192,96207,1,0,0:0:0:50:kick.wav
192,192,96355,1,0,0:0:0:50:crash.wav
64,192,96355,1,0,0:0:0:50:kick.wav
320,192,96652,1,0,0:0:0:50:crash.wav
448,192,96652,128,0,96949:0:0:0:50:kick.wav
64,192,96949,128,0,97246:0:0:0:50:kick.wav
192,192,97246,128,0,97543:0:0:0:50:kick.wav
320,192,97543,1,0,0:0:0:50:kick.wav
448,192,97692,1,0,0:0:0:35:hihat.wav
192,192,97840,128,0,98137:0:0:0:50:kick.wav
64,192,98137,128,0,98434:0:0:0:50:snare.wav
320,192,98434,128,0,98731:0:0:0:50:kick.wav
448,192,98731,128,0,99028:0:0:0:50:snare.wav
192,192,99028,128,0,99474:0:0:0:50:kick.wav
448,192,99622,128,0,100216:0:0:0:50:kick.wav
64,192,100216,128,0,101108:0:0:0:50:kick.wav
320,192,101405,1,0,0:0:0:50:kick.wav
448,192,101405,128,0,101702:0:0:0:50:crash.wav
64,192,101702,128,0,101999:0:0:0:50:kick.wav
192,192,101999,128,0,102296:0:0:0:50:kick.wav
320,192,102296,1,0,0:0:0:50:kick.wav
448,192,102444,1,0,0:0:0:35:hihat.wav
64,192,102593,128,0,102890:0:0:0:50:kick.wav
320,192,102890,128,0,103187:0:0:0:50:snare.wav
192,192,103187,128,0,103484:0:0:0:50:kick.wav
448,192,103484,128,0,103781:0:0:0:50:snare.wav
64,192,103781,128,0,104078:0:0:0:50:kick.wav
320,192,104078,128,0,104375:0:0:0:50:kick.wav
192,192,104375,128,0,104672:0:0:0:50:kick.wav
448,192,104672,128,0,104969:0:0:0:50:kick.wav
320,192,104969,1,0,0:0:0:50:crash.wav
64,192,104969,1,0,0:0:0:50:kick.wav
192,192,105266,1,0,0:0:0:50:kick.wav
448,192,105266,1,0,0:0:0:50:crash.wav
320,192,105563,1,0,0:0:0:50:kick.wav
64,192,105563,1,0,0:0:0:50:crash.wav
192,192,105860,1,0,0:0:0:50:kick.wav
448,192,105860,1,0,0:0:0:50:snare.wav
64,192,106157,1,0,0:0:0:50:crash.wav
448,192,106157,1,0,0:0:0:50:kick.wav
320,192,106603,1,0,0:0:0:50:kick.wav
448,192,106603,1,0,0:0:0:0:
192,192,106900,1,0,0:0:0:50:kick.wav
64,192,106900,1,0,0:0:0:0:
192,192,107197,1,0,0:0:0:50:kick.wav
320,192,107197,1,0,0:0:0:0:
64,192,107345,1,0,0:0:0:50:crash.wav
448,192,107345,1,0,0:0:0:50:kick.wav
320,192,107494,1,0,0:0:0:35:hihat.wav
192,192,107642,1,0,0:0:0:50:snare.wav
64,192,107791,1,0,0:0:0:35:hihat.wav
320,192,107939,1,0,0:0:0:50:kick.wav
192,192,108088,1,0,0:0:0:35:hihat.wav
448,192,108236,1,0,0:0:0:50:snare.wav
320,192,108385,1,0,0:0:0:35:hihat.wav
192,192,108533,1,0,0:0:0:50:kick.wav
64,192,108682,1,0,0:0:0:35:hihat.wav
320,192,108830,1,0,0:0:0:50:kick.wav
448,192,108979,1,0,0:0:0:35:hihat.wav
192,192,109127,128,0,109424:0:0:0:50:kick.wav
64,192,109424,128,0,109721:0:0:0:50:kick.wav
448,192,109721,1,0,0:0:0:50:kick.wav
320,192,109721,1,0,0:0:0:0:
192,192,109870,1,0,0:0:0:35:hihat.wav
64,192,110018,1,0,0:0:0:50:snare.wav
320,192,110167,1,0,0:0:0:35:hihat.wav
448,192,110315,1,0,0:0:0:50:kick.wav
320,192,110464,1,0,0:0:0:35:hihat.wav
64,192,110613,1,0,0:0:0:50:snare.wav
192,192,110761,1,0,0:0:0:35:hihat.wav
448,192,110910,1,0,0:0:0:50:kick.wav
320,192,111058,1,0,0:0:0:35:hihat.wav
64,192,111207,1,0,0:0:0:50:kick.wav
192,192,111355,1,0,0:0:0:35:hihat.wav
320,192,111504,1,0,0:0:0:50:kick.wav
192,192,111652,1,0,0:0:0:35:hihat.wav
448,192,111801,1,0,0:0:0:50:kick.wav
320,192,111949,1,0,0:0:0:35:hihat.wav
64,192,112098,1,0,0:0:0:50:crash.wav
192,192,112098,1,0,0:0:0:50:kick.wav
448,192,112246,1,0,0:0:0:35:hihat.wav
192,192,112395,1,0,0:0:0:50:snare.wav
320,192,112543,1,0,0:0:0:35:hihat.wav
448,192,112692,1,0,0:0:0:50:kick.wav
64,192,112840,1,0,0:0:0:35:hihat.wav
320,192,112989,1,0,0:0:0:50:snare.wav
192,192,113137,1,0,0:0:0:35:hihat.wav
448,192,113286,1,0,0:0:0:50:kick.wav
320,192,113434,1,0,0:0:0:35:hihat.wav
192,192,113583,1,0,0:0:0:50:kick.wav
64,192,113731,1,0,0:0:0:35:hihat.wav
448,192,113880,128,0,114177:0:0:0:50:kick.wav
320,192,114177,128,0,114474:0:0:0:50:kick.wav
64,192,114474,1,0,0:0:0:50:kick.wav
192,192,114622,1,0,0:0:0:35:hihat.wav
320,192,114771,1,0,0:0:0:50:snare.wav
448,192,114919,1,0,0:0:0:35:hihat.wav
320,192,115068,1,0,0:0:0:50:kick.wav
192,192,115216,1,0,0:0:0:35:hihat.wav
64,192,115365,1,0,0:0:0:50:snare.wav
320,192,115514,1,0,0:0:0:35:hihat.wav
448,192,115662,1,0,0:0:0:50:crash.wav
192,192,115662,1,0,0:0:0:50:kick.wav
64,192,115811,1,0,0:0:0:35:hihat.wav
320,192,115959,1,0,0:0:0:50:kick.wav
448,192,116108,1,0,0:0:0:35:hihat.wav
192,192,116256,1,0,0:0:0:50:kick.wav
64,192,116405,1,0,0:0:0:35:hihat.wav
320,192,116553,1,0,0:0:0:50:kick.wav
192,192,116702,1,0,0:0:0:35:hihat.wav
448,192,116850,1,0,0:0:0:50:kick.wav
64,192,116850,1,0,0:0:0:50:crash.wav
192,192,117147,1,0,0:0:0:50:snare.wav
320,192,117147,1,0,0:0:0:50:kick.wav
64,192,117444,1,0,0:0:0:50:kick.wav
192,192,117444,1,0,0:0:0:50:crash.wav
320,192,117593,1,0,0:0:0:35:hihat.wav
448,192,117593,1,0,0:0:0:50:crash.wav
64,192,118038,1,0,0:0:0:50:kick.wav
448,192,118038,1,0,0:0:0:50:crash.wav
320,192,118335,1,0,0:0:0:50:kick.wav
192,192,118335,1,0,0:0:0:50:snare.wav
448,192,118632,1,0,0:0:0:50:kick.wav
320,192,118632,1,0,0:0:0:50:crash.wav
192,192,118781,1,0,0:0:0:50:kick.wav
64,192,118781,1,0,0:0:0:50:crash.wav
64,192,119226,1,0,0:0:0:50:crash.wav
448,192,119226,1,0,0:0:0:50:kick.wav
192,192,119375,1,0,0:0:0:35:hihat.wav
448,192,119523,1,0,0:0:0:50:kick.wav
320,192,119672,1,0,0:0:0:35:hihat.wav
192,192,119820,1,0,0:0:0:50:kick.wav
64,192,119969,1,0,0:0:0:35:hihat.wav
192,192,120117,1,0,0:0:0:50:kick.wav
448,192,120266,1,0,0:0:0:35:hihat.wav
192,192,120414,1,0,0:0:0:50:kick.wav
320,192,120563,1,0,0:0:0:35:hihat.wav
448,192,120712,1,0,0:0:0:50:snare.wav
320,192,120860,1,0,0:0:0:35:hihat.wav
448,192,121009,1,0,0:0:0:50:kick.wav
192,192,121157,1,0,0:0:0:35:hihat.wav
64,192,121306,1,0,0:0:0:50:snare.wav
192,192,121454,1,0,0:0:0:35:hihat.wav
448,192,121603,1,0,0:0:0:50:crash.wav
320,192,121603,1,0,0:0:0:50:kick.wav
64,192,121751,1,0,0:0:0:35:hihat.wav
448,192,121900,1,0,0:0:0:50:kick.wav
320,192,122048,1,0,0:0:0:35:hihat.wav
64,192,122197,1,0,0:0:0:50:kick.wav
192,192,122345,1,0,0:0:0:35:hihat.wav
448,192,122494,1,0,0:0:0:50:kick.wav
320,192,122642,1,0,0:0:0:35:hihat.wav
192,192,122791,1,0,0:0:0:50:kick.wav
64,192,122939,1,0,0:0:0:35:hihat.wav
448,192,123088,1,0,0:0:0:50:snare.wav
192,192,123236,1,0,0:0:0:35:hihat.wav
320,192,123385,1,0,0:0:0:50:kick.wav
448,192,123533,1,0,0:0:0:35:hihat.wav
64,192,123682,1,0,0:0:0:50:snare.wav
192,192,123830,1,0,0:0:0:35:hihat.wav
448,192,123979,1,0,0:0:0:50:crash.wav
64,192,123979,1,0,0:0:0:50:kick.wav
320,192,124127,1,0,0:0:0:35:hihat.wav
192,192,124276,128,0,124573:0:0:0:50:kick.wav
64,192,124573,1,0,0:0:0:50:kick.wav
448,192,124721,1,0,0:0:0:35:hihat.wav
320,192,124870,1,0,0:0:0:50:kick.wav
192,192,125018,1,0,0:0:0:35:hihat.wav
64,192,125167,128,0,125315:0:0:0:50:crash.wav
192,192,125315,128,0,125464:0:0:0:50:kick.wav
320,192,125464,128,0,125613:0:0:0:50:kick.wav
448,192,125613,128,0,125761:0:0:0:50:kick.wav
64,192,125761,128,0,125910:0:0:0:50:kick.wav
192,192,125910,128,0,126058:0:0:0:50:kick.wav
448,192,126058,128,0,126207:0:0:0:50:kick.wav
320,192,126207,128,0,126355:0:0:0:50:kick.wav
448,192,127618,128,0,128170:0:0:0:0:
192,192,128249,128,0,128802:0:0:0:0:
64,192,128881,128,0,129512:0:0:0:0:
448,192,129512,128,0,130065:0:0:0:0:
320,192,130144,128,0,130855:0:0:0:0:
