osu file format v14

[General]
AudioFilename: audio.mp3
AudioLeadIn: 0
PreviewTime: 44500
Countdown: 0
SampleSet: Normal
StackLeniency: 0.7
Mode: 1
LetterboxInBreaks: 0
WidescreenStoryboard: 0

[Editor]
DistanceSpacing: 0.7
BeatDivisor: 6
GridSize: 4
TimelineZoom: 1

[Metadata]
Title:I have special speech skills
TitleUnicode:我有特別的朗誦技巧
Artist:Leung Yat Fung
ArtistUnicode:梁逸峰
Creator:Consified
Version:Speech Festival
Source:RTHK(第61屆香港學校朗誦節優勝者表演)
Tags:
BeatmapID:1432109
BeatmapSetID:677146

[Difficulty]
HPDrainRate:8
CircleSize:5
OverallDifficulty:4
ApproachRate:10
SliderMultiplier:1.4
SliderTickRate:1

[Events]
//Background and Video events
0,0,"BGGG.png",0,0
Video,0,"video.mp4"
//Break Periods
2,35616,44133
2,70450,76966
2,103616,114883
2,119616,128299
2,140533,145133
2,165700,171800
2,229033,233383
//Storyboard Layer 0 (Background)
//Storyboard Layer 1 (Fail)
//Storyboard Layer 2 (Pass)
//Storyboard Layer 3 (Foreground)
//Storyboard Sound Samples

[TimingPoints]
0,500,4,1,0,100,1,0
44583,-100,4,1,0,100,0,1
208000,-100,4,1,0,100,0,0
225833,-100,4,1,0,100,0,1
230000,-100,4,1,0,100,0,0

[Colours]
Combo1 : 255,113,84
Combo2 : 255,198,84

[HitObjects]
256,192,0,12,0,500,0:0:0:0:
156,192,750,5,0,0:0:0:0:
272,188,1000,1,2,0:0:0:0:
272,188,1250,1,0,0:0:0:0:
244,208,1500,1,0,0:0:0:0:
244,208,1750,1,0,0:0:0:0:
244,208,1916,1,0,0:0:0:0:
244,208,2083,1,0,0:0:0:0:
244,208,2250,1,0,0:0:0:0:
220,160,2500,1,2,0:0:0:0:
220,160,2583,1,0,0:0:0:0:
284,176,2666,1,0,0:0:0:0:
280,180,2750,1,0,0:0:0:0:
280,184,2916,1,0,0:0:0:0:
224,172,3083,1,0,0:0:0:0:
220,176,3166,1,0,0:0:0:0:
280,232,3500,1,0,0:0:0:0:
280,232,3666,1,0,0:0:0:0:
280,232,3833,1,2,0:0:0:0:
280,232,4000,1,0,0:0:0:0:
280,232,4166,1,0,0:0:0:0:
300,224,4666,1,0,0:0:0:0:
300,224,4750,1,2,0:0:0:0:
300,224,5000,1,0,0:0:0:0:
304,236,5166,1,0,0:0:0:0:
304,236,5333,1,0,0:0:0:0:
208,180,5583,1,2,0:0:0:0:
208,180,5750,1,0,0:0:0:0:
292,228,5916,1,0,0:0:0:0:
292,228,6083,1,0,0:0:0:0:
292,228,6166,1,2,0:0:0:0:
252,260,6666,1,8,0:0:0:0:
252,260,6750,1,0,0:0:0:0:
252,260,6833,1,0,0:0:0:0:
276,200,7000,1,2,0:0:0:0:
252,260,7166,1,0,0:0:0:0:
252,260,7333,1,0,0:0:0:0:
252,260,7500,1,0,0:0:0:0:
252,260,7750,1,8,0:0:0:0:
252,260,7916,1,8,0:0:0:0:
252,260,8083,1,0,0:0:0:0:
252,260,8250,1,0,0:0:0:0:
252,260,8416,1,0,0:0:0:0:
252,260,8666,1,12,0:0:0:0:
252,260,8916,1,12,0:0:0:0:
252,260,9166,1,12,0:0:0:0:
252,260,9416,1,12,0:0:0:0:
252,260,9750,1,4,0:0:0:0:
252,260,9916,1,4,0:0:0:0:
252,260,10166,1,4,0:0:0:0:
252,260,10416,1,4,0:0:0:0:
236,168,10583,1,4,0:0:0:0:
292,216,11375,1,2,0:0:0:0:
292,216,11459,1,2,0:0:0:0:
256,224,11583,1,0,0:0:0:0:
256,224,11666,1,0,0:0:0:0:
256,224,11750,1,2,0:0:0:0:
236,176,11916,1,0,0:0:0:0:
236,176,12083,1,0,0:0:0:0:
236,176,12166,1,0,0:0:0:0:
344,156,12333,1,0,0:0:0:0:
344,156,12500,1,0,0:0:0:0:
344,156,12666,1,0,0:0:0:0:
344,156,12750,1,2,0:0:0:0:
316,184,13000,1,0,0:0:0:0:
200,164,13083,1,0,0:0:0:0:
256,184,13333,1,6,0:0:0:0:
276,184,13583,1,4,0:0:0:0:
240,184,13833,1,6,0:0:0:0:
268,184,14083,1,4,0:0:0:0:
184,184,14250,1,6,0:0:0:0:
276,224,14833,1,0,0:0:0:0:
248,200,15083,1,2,0:0:0:0:
300,224,15250,1,0,0:0:0:0:
356,168,15500,1,0,0:0:0:0:
348,184,15687,1,2,0:0:0:0:
324,184,15937,1,0,0:0:0:0:
256,208,16125,1,0,0:0:0:0:
284,200,16312,1,0,0:0:0:0:
284,200,16687,1,0,0:0:0:0:
284,200,16937,1,0,0:0:0:0:
284,200,17187,1,0,0:0:0:0:
284,200,17375,1,2,0:0:0:0:
328,180,17562,1,0,0:0:0:0:
328,180,17812,1,0,0:0:0:0:
328,180,18062,1,2,0:0:0:0:
328,180,18208,1,2,0:0:0:0:
300,184,18375,1,0,0:0:0:0:
328,208,18541,1,2,0:0:0:0:
276,192,19125,1,2,0:0:0:0:
388,152,19250,1,2,0:0:0:0:
284,200,19333,1,0,0:0:0:0:
308,208,19500,1,0,0:0:0:0:
312,220,19666,1,2,0:0:0:0:
308,220,19916,1,0,0:0:0:0:
248,192,20416,1,6,0:0:0:0:
300,196,20666,1,4,0:0:0:0:
352,200,20875,1,6,0:0:0:0:
264,168,21062,1,6,0:0:0:0:
312,200,21375,1,4,0:0:0:0:
340,192,21750,1,4,0:0:0:0:
340,192,21937,1,6,0:0:0:0:
288,196,22187,1,4,0:0:0:0:
292,192,22375,1,6,0:0:0:0:
292,192,22562,1,4,0:0:0:0:
292,192,22875,1,4,0:0:0:0:
292,192,23000,1,4,0:0:0:0:
292,192,23375,1,4,0:0:0:0:
292,192,23625,1,6,0:0:0:0:
292,192,23812,1,4,0:0:0:0:
376,184,26416,1,2,0:0:0:0:
344,164,27333,1,0,0:0:0:0:
344,164,27666,1,2,0:0:0:0:
344,164,28083,1,2,0:0:0:0:
280,184,28583,1,0,0:0:0:0:
296,176,30000,1,0,0:0:0:0:
296,176,30416,1,2,0:0:0:0:
296,176,30833,1,0,0:0:0:0:
296,176,31750,1,2,0:0:0:0:
296,176,32249,1,0,0:0:0:0:
252,204,34416,1,6,0:0:0:0:
252,204,34916,1,6,0:0:0:0:
252,204,35416,1,4,0:0:0:0:
296,176,44583,5,6,0:0:0:0:
264,180,44916,1,4,0:0:0:0:
264,180,46166,1,4,0:0:0:0:
264,180,47083,1,6,0:0:0:0:
264,180,47666,1,4,0:0:0:0:
264,180,51333,1,4,0:0:0:0:
264,180,51916,1,4,0:0:0:0:
264,180,53416,1,6,0:0:0:0:
264,180,54583,1,4,0:0:0:0:
264,180,55166,1,4,0:0:0:0:
272,196,59750,1,6,0:0:0:0:
288,216,60333,1,4,0:0:0:0:
236,136,61750,1,6,0:0:0:0:
236,136,62750,1,6,0:0:0:0:
312,176,63250,1,4,0:0:0:0:
276,184,66583,1,6,0:0:0:0:
276,184,67083,1,4,0:0:0:0:
288,176,68750,1,4,0:0:0:0:
360,172,69666,1,6,0:0:0:0:
304,156,70250,1,4,0:0:0:0:
240,200,77416,5,4,0:0:0:0:
240,200,77833,1,4,0:0:0:0:
240,200,79000,1,6,0:0:0:0:
240,200,79833,1,4,0:0:0:0:
240,200,80333,1,4,0:0:0:0:
240,200,85083,1,4,0:0:0:0:
240,200,85500,1,4,0:0:0:0:
240,200,86687,1,6,0:0:0:0:
272,196,87812,1,6,0:0:0:0:
272,196,88500,1,4,0:0:0:0:
240,188,93333,1,4,0:0:0:0:
240,188,93833,1,4,0:0:0:0:
240,188,94666,1,4,0:0:0:0:
240,188,95500,1,6,0:0:0:0:
240,188,96000,1,6,0:0:0:0:
240,188,99916,1,4,0:0:0:0:
252,188,100333,1,6,0:0:0:0:
252,188,101750,1,6,0:0:0:0:
252,188,102833,1,4,0:0:0:0:
252,188,103416,1,6,0:0:0:0:
300,184,115333,5,0,0:0:0:0:
300,184,115833,1,2,0:0:0:0:
300,184,116333,1,0,0:0:0:0:
240,148,118416,1,6,0:0:0:0:
240,148,118916,1,6,0:0:0:0:
216,204,119416,1,4,0:0:0:0:
292,192,128749,5,6,0:0:0:0:
292,192,129249,1,4,0:0:0:0:
324,184,130416,1,6,0:0:0:0:
320,180,131500,1,4,0:0:0:0:
320,180,131916,1,6,0:0:0:0:
316,200,135166,1,6,0:0:0:0:
316,200,135583,1,6,0:0:0:0:
316,200,136666,1,6,0:0:0:0:
316,200,137083,1,6,0:0:0:0:
252,200,138916,1,4,0:0:0:0:
252,200,139666,1,4,0:0:0:0:
252,200,140333,1,6,0:0:0:0:
248,200,145583,5,6,0:0:0:0:
248,200,146000,1,4,0:0:0:0:
248,200,146916,1,6,0:0:0:0:
352,172,147333,1,6,0:0:0:0:
284,188,148833,1,6,0:0:0:0:
284,188,149750,1,6,0:0:0:0:
296,192,150333,1,4,0:0:0:0:
344,196,155000,1,6,0:0:0:0:
344,196,155916,1,6,0:0:0:0:
312,176,160750,1,6,0:0:0:0:
312,176,161083,1,6,0:0:0:0:
312,176,162166,1,4,0:0:0:0:
220,172,162583,1,6,0:0:0:0:
220,172,164000,1,4,0:0:0:0:
220,172,164750,1,4,0:0:0:0:
220,172,165500,1,6,0:0:0:0:
304,188,172250,5,6,0:0:0:0:
304,188,172583,1,4,0:0:0:0:
304,188,173583,1,4,0:0:0:0:
304,188,174500,1,6,0:0:0:0:
304,188,175000,1,4,0:0:0:0:
304,188,179833,1,4,0:0:0:0:
304,188,180250,1,4,0:0:0:0:
304,188,181166,1,6,0:0:0:0:
304,188,181666,1,6,0:0:0:0:
304,188,183000,1,4,0:0:0:0:
304,188,183833,1,4,0:0:0:0:
304,188,184333,1,6,0:0:0:0:
260,188,187416,1,6,0:0:0:0:
260,188,187750,1,4,0:0:0:0:
224,192,188833,1,4,0:0:0:0:
224,192,189250,1,6,0:0:0:0:
312,180,190750,1,6,0:0:0:0:
312,180,191500,1,6,0:0:0:0:
312,180,192000,1,4,0:0:0:0:
304,196,195750,1,6,0:0:0:0:
304,196,196750,1,4,0:0:0:0:
280,176,200583,1,6,0:0:0:0:
280,176,201083,1,6,0:0:0:0:
280,176,202083,1,4,0:0:0:0:
280,176,202666,1,6,0:0:0:0:
280,176,204416,1,6,0:0:0:0:
280,176,204916,1,6,0:0:0:0:
256,192,206500,12,0,208000,0:0:0:0:
16,192,210750,6,0,L|504:196,2,466.666666666667
256,192,214500,12,0,215000,0:0:0:0:
260,200,215250,5,2,0:0:0:0:
272,196,215416,1,2,0:0:0:0:
272,196,215666,1,0,0:0:0:0:
272,196,215833,1,0,0:0:0:0:
400,216,216000,1,0,0:0:0:0:
400,216,216166,1,2,0:0:0:0:
204,156,216312,1,2,0:0:0:0:
240,164,216375,1,0,0:0:0:0:
240,164,216562,1,0,0:0:0:0:
344,184,217250,1,2,0:0:0:0:
344,184,217416,1,0,0:0:0:0:
344,184,217666,1,2,0:0:0:0:
344,184,217916,1,2,0:0:0:0:
344,184,218166,1,2,0:0:0:0:
344,184,218333,1,0,0:0:0:0:
344,184,218500,1,2,0:0:0:0:
344,184,218583,1,2,0:0:0:0:
344,184,218750,1,0,0:0:0:0:
304,216,219250,1,0,0:0:0:0:
324,208,219416,1,2,0:0:0:0:
324,208,219500,1,0,0:0:0:0:
316,212,219666,1,0,0:0:0:0:
332,200,219916,1,2,0:0:0:0:
332,200,220083,1,2,0:0:0:0:
332,200,220166,1,2,0:0:0:0:
328,200,220375,1,0,0:0:0:0:
372,212,223166,1,0,0:0:0:0:
372,212,223250,1,2,0:0:0:0:
280,216,223500,1,2,0:0:0:0:
280,216,223666,1,0,0:0:0:0:
280,216,223833,1,2,0:0:0:0:
304,208,224000,1,2,0:0:0:0:
304,208,224166,1,2,0:0:0:0:
304,208,224333,1,0,0:0:0:0:
248,224,225833,1,6,0:0:0:0:
248,224,226250,1,4,0:0:0:0:
264,200,227416,1,6,0:0:0:0:
296,192,228250,1,4,0:0:0:0:
324,176,228833,1,6,0:0:0:0:
216,208,233833,5,2,0:0:0:0:
216,208,234000,1,0,0:0:0:0:
216,208,234166,1,0,0:0:0:0:
216,208,234333,1,2,0:0:0:0:
216,208,234583,1,0,0:0:0:0:
216,208,234750,1,2,0:0:0:0:
216,208,235500,1,2,0:0:0:0:
216,208,235666,1,2,0:0:0:0:
216,208,235916,1,2,0:0:0:0:
220,208,236000,1,2,0:0:0:0:
220,208,236166,1,0,0:0:0:0:
220,208,236333,1,0,0:0:0:0:
220,208,236833,1,0,0:0:0:0:
220,208,237000,1,2,0:0:0:0:
220,208,237333,1,2,0:0:0:0:
220,208,237416,1,2,0:0:0:0:
324,228,237666,1,0,0:0:0:0:
324,228,237750,1,0,0:0:0:0:
324,228,238000,1,2,0:0:0:0:
324,228,238083,1,2,0:0:0:0:
324,228,238250,1,0,0:0:0:0:
324,228,238416,1,0,0:0:0:0:
324,228,238583,1,0,0:0:0:0:
356,256,238750,1,0,0:0:0:0:
356,256,238833,1,2,0:0:0:0:
268,184,240000,1,2,0:0:0:0:
268,184,240083,1,2,0:0:0:0:
268,184,240333,1,0,0:0:0:0:
268,184,240916,1,2,0:0:0:0:
268,184,241166,1,2,0:0:0:0:
268,184,241333,1,2,0:0:0:0:
268,184,241583,1,0,0:0:0:0:
268,184,241750,1,0,0:0:0:0:
268,184,242583,1,0,0:0:0:0:
268,184,242750,1,0,0:0:0:0:
268,184,242916,1,2,0:0:0:0:
300,224,243166,1,2,0:0:0:0:
300,224,243416,1,0,0:0:0:0:
300,224,243750,1,0,0:0:0:0:
300,224,244000,1,0,0:0:0:0:
300,224,244250,1,0,0:0:0:0:
300,224,244500,1,2,0:0:0:0:
300,224,244750,1,0,0:0:0:0:
388,192,245333,1,2,0:0:0:0:
388,192,245416,1,2,0:0:0:0:
388,192,245500,1,0,0:0:0:0:
388,192,245666,1,2,0:0:0:0:
388,192,245833,1,0,0:0:0:0:
388,192,245916,1,0,0:0:0:0:
388,192,246166,1,2,0:0:0:0:
388,192,246250,1,0,0:0:0:0:
388,192,246416,1,2,0:0:0:0:
380,196,246583,1,0,0:0:0:0:
372,196,246833,1,0,0:0:0:0:
280,180,247000,1,2,0:0:0:0:
280,180,247583,1,0,0:0:0:0:
280,180,247750,1,0,0:0:0:0:
280,180,247833,1,2,0:0:0:0:
280,180,248000,1,0,0:0:0:0:
280,180,248083,1,0,0:0:0:0:
280,180,248166,1,0,0:0:0:0:
280,180,248666,1,0,0:0:0:0:
280,180,248833,1,0,0:0:0:0:
280,180,249000,1,2,0:0:0:0:
280,180,249250,1,2,0:0:0:0:
280,180,249416,1,2,0:0:0:0:
336,184,249750,1,0,0:0:0:0:
336,184,249833,1,0,0:0:0:0:
336,184,250000,1,0,0:0:0:0:
336,184,250250,1,2,0:0:0:0:
336,184,250416,1,0,0:0:0:0:
336,184,250666,1,2,0:0:0:0:
316,212,250916,1,2,0:0:0:0:
276,180,251000,1,0,0:0:0:0:
276,180,251083,1,2,0:0:0:0:
276,180,251166,1,0,0:0:0:0:
264,180,251333,1,2,0:0:0:0:
212,208,251500,1,2,0:0:0:0:
212,208,251666,1,0,0:0:0:0:
212,208,251833,1,0,0:0:0:0:
212,208,251916,1,0,0:0:0:0:
276,180,252500,1,0,0:0:0:0:
276,180,252750,1,2,0:0:0:0:
276,180,252916,1,0,0:0:0:0:
276,180,253083,1,0,0:0:0:0:
276,180,253333,1,2,0:0:0:0:
340,176,254166,1,2,0:0:0:0:
340,176,254250,1,2,0:0:0:0:
308,128,254500,1,0,0:0:0:0:
308,128,254583,1,0,0:0:0:0:
308,128,254666,1,0,0:0:0:0:
308,128,254833,1,2,0:0:0:0:
308,128,255000,1,0,0:0:0:0:
308,128,255333,1,2,0:0:0:0:
216,192,256083,1,2,0:0:0:0:
216,192,256166,1,2,0:0:0:0:
216,192,256499,1,0,0:0:0:0:
216,192,256749,1,0,0:0:0:0:
364,164,256916,1,0,0:0:0:0:
364,164,256999,1,2,0:0:0:0:
200,212,257249,1,0,0:0:0:0:
200,212,257749,1,2,0:0:0:0:
200,212,257833,1,0,0:0:0:0:
200,212,257999,1,0,0:0:0:0:
200,212,258083,1,2,0:0:0:0:
280,200,258333,1,0,0:0:0:0:
280,200,258499,1,2,0:0:0:0:
280,200,258583,1,0,0:0:0:0:
280,200,258666,1,2,0:0:0:0:
296,216,258833,1,2,0:0:0:0:
296,216,258999,1,2,0:0:0:0:
296,216,259166,1,0,0:0:0:0:
296,216,259249,1,0,0:0:0:0:
296,216,259416,1,0,0:0:0:0:
296,216,259583,1,2,0:0:0:0:
232,188,259916,1,2,0:0:0:0:
232,188,259999,1,0,0:0:0:0:
284,168,260166,1,0,0:0:0:0:
284,168,260249,1,2,0:0:0:0:
284,168,260333,1,0,0:0:0:0:
232,200,260999,1,2,0:0:0:0:
232,200,261166,1,2,0:0:0:0:
232,200,261333,1,0,0:0:0:0:
232,200,261499,1,0,0:0:0:0:
232,200,261666,1,0,0:0:0:0:
328,168,262333,1,0,0:0:0:0:
328,168,262500,1,2,0:0:0:0:
312,208,262666,1,2,0:0:0:0:
344,200,262916,1,0,0:0:0:0:
344,200,262999,1,0,0:0:0:0:
368,176,263250,1,2,0:0:0:0:
232,204,263583,1,0,0:0:0:0:
232,204,263750,1,2,0:0:0:0:
256,220,263916,1,0,0:0:0:0:
256,220,264000,1,0,0:0:0:0:
256,220,264250,1,2,0:0:0:0:
256,220,264416,1,0,0:0:0:0:
260,216,264833,1,2,0:0:0:0:
260,216,264916,1,0,0:0:0:0:
248,184,265166,1,0,0:0:0:0:
248,184,265416,1,0,0:0:0:0:
248,184,265666,1,0,0:0:0:0:
248,184,265916,1,0,0:0:0:0:
248,184,266166,1,2,0:0:0:0:
248,184,266333,1,2,0:0:0:0:
324,152,266416,1,0,0:0:0:0:
324,152,266583,1,2,0:0:0:0:
368,192,266750,1,0,0:0:0:0:
300,248,266916,1,2,0:0:0:0:
