osu file format v14

[General]
AudioFilename: audio.mp3
AudioLeadIn: 0
PreviewTime: 185837
Countdown: 0
SampleSet: Drum
StackLeniency: 0.2
Mode: 0
LetterboxInBreaks: 0
WidescreenStoryboard: 1

[Editor]
Bookmarks: 9478,167924
DistanceSpacing: 3
BeatDivisor: 12
GridSize: 4
TimelineZoom: 1.7

[Metadata]
Title:Hot Pink
TitleUnicode:Hot Pink
Artist:Let's Eat Grandma
ArtistUnicode:Let's Eat Grandma
Creator:Myxo
Version:Mint's Insane
Source:
Tags:experimental pop english duo sophie i'm all ears myxomatosis mint appleeaterx dtm9 nowa cut version
BeatmapID:2422102
BeatmapSetID:1144152

[Difficulty]
HPDrainRate:5
CircleSize:3.8
OverallDifficulty:7.7
ApproachRate:8.7
SliderMultiplier:1.3
SliderTickRate:0.5

[Events]
//Background and Video events
0,0,"Pink+2560x1440.png",0,0
//Break Periods
//Storyboard Layer 0 (Background)
//Storyboard Layer 1 (Fail)
//Storyboard Layer 2 (Pass)
//Storyboard Layer 3 (Foreground)
//Storyboard Layer 4 (Overlay)
//Storyboard Sound Samples

[TimingPoints]
158,582.52427184466,4,3,1,40,1,0
9478,-200,4,3,1,40,0,0
28119,-133.333333333333,4,3,1,40,0,0
44138,-133.333333333333,4,3,1,50,0,0
46759,-114.942528735632,4,3,1,50,0,0
55497,-40,4,3,1,60,0,0
56080,-33.3333333333333,4,3,1,80,0,1
56371,-33.3333333333333,4,3,1,80,0,0
56662,-100,4,3,1,80,0,0
56954,-33.3333333333333,4,3,1,80,0,0
57827,-100,4,3,1,80,0,0
58847,-33.3333333333333,4,3,1,80,0,0
60157,-25,4,3,1,80,0,0
60740,-33.3333333333333,4,3,1,80,0,1
61031,-33.3333333333333,4,3,1,80,0,0
61323,-100,4,3,1,80,0,0
61614,-33.3333333333333,4,3,1,80,0,0
62488,-100,4,3,1,80,0,0
63507,-33.3333333333333,4,3,1,80,0,0
64235,-33.3333333333333,4,3,1,80,0,0
64818,-25,4,3,1,80,0,0
65400,-33.3333333333333,4,3,1,80,0,1
65691,-33.3333333333333,4,3,1,80,0,0
65983,-100,4,3,1,80,0,0
66274,-33.3333333333333,4,3,1,80,0,0
67148,-100,4,3,1,80,0,0
68167,-33.3333333333333,4,3,1,80,0,0
69478,-100,4,3,1,80,0,0
69769,-33.3333333333333,4,3,1,80,0,0
70643,-100,4,3,1,80,0,0
70934,-33.3333333333333,4,3,1,80,0,0
72391,-100,4,3,1,80,0,0
72682,-33.3333333333333,4,3,1,80,0,0
72973,-100,4,3,1,80,0,0
73264,-33.3333333333333,4,3,1,80,0,0
74138,-25,4,3,1,80,0,0
74429,-100,4,3,1,80,0,0
74721,-80,4,3,1,60,0,0
112002,-33.3333333333333,4,3,1,80,0,1
112293,-33.3333333333333,4,3,1,80,0,0
112585,-100,4,3,1,80,0,0
112876,-33.3333333333333,4,3,1,80,0,0
113750,-100,4,3,1,80,0,0
114332,-33.3333333333333,4,3,1,80,0,0
116080,-25,4,3,1,80,0,0
116662,-33.3333333333333,4,3,1,80,0,1
116954,-33.3333333333333,4,3,1,80,0,0
117245,-100,4,3,1,80,0,0
117536,-33.3333333333333,4,3,1,80,0,0
118410,-100,4,3,1,80,0,0
118992,-33.3333333333333,4,3,1,80,0,0
120740,-25,4,3,1,80,0,0
121323,-33.3333333333333,4,3,1,80,0,1
121614,-33.3333333333333,4,3,1,80,0,0
121905,-100,4,3,1,80,0,0
122196,-33.3333333333333,4,3,1,80,0,0
123070,-100,4,3,1,80,0,0
123653,-33.3333333333333,4,3,1,80,0,0
125400,-100,4,3,1,80,0,0
125691,-33.3333333333333,4,3,1,80,0,0
126565,-100,4,3,1,80,0,0
126857,-33.3333333333333,4,3,1,80,0,0
128895,-100,4,3,1,80,0,0
129187,-33.3333333333333,4,3,1,80,0,0
130060,-25,4,3,1,80,0,0
130352,-100,4,3,1,80,0,0
130643,-33.3333333333333,4,3,1,80,0,1
130934,-33.3333333333333,4,3,1,80,0,0
134721,-100,4,3,1,80,0,0
135012,-33.3333333333333,4,3,1,80,0,0
139381,-100,4,3,1,80,0,0
139672,-33.3333333333333,4,3,1,80,0,0
140546,-100,4,3,1,80,0,0
140837,-33.3333333333333,4,3,1,80,0,0
144041,-100,4,3,1,80,0,0
144332,-33.3333333333333,4,3,1,80,0,0
145206,-100,4,3,1,80,0,0
145497,-33.3333333333333,4,3,1,80,0,0
148701,-25,4,3,1,80,0,0
148992,-100,4,3,1,80,0,0
149284,-31.7460317460317,4,3,1,80,0,1
149575,-31.7460317460317,4,3,1,80,0,0
149866,-100,4,3,1,80,0,0
150157,-31.7460317460317,4,3,1,80,0,0
151031,-100,4,3,1,80,0,0
151614,-31.7460317460317,4,3,1,80,0,0
153361,-25,4,3,1,80,0,0
153944,-31.7460317460317,4,3,1,80,0,1
154235,-31.7460317460317,4,3,1,80,0,0
154526,-100,4,3,1,80,0,0
154818,-31.7460317460317,4,3,1,80,0,0
155691,-100,4,3,1,80,0,0
156274,-31.7460317460317,4,3,1,80,0,0
158022,-25,4,3,1,80,0,0
158604,-31.7460317460317,4,3,1,80,0,1
158895,-31.7460317460317,4,3,1,80,0,0
159187,-100,4,3,1,80,0,0
159478,-31.7460317460317,4,3,1,80,0,0
160352,-100,4,3,1,80,0,0
160934,-31.7460317460317,4,3,1,80,0,0
162682,-100,4,3,1,80,0,0
162973,-31.7460317460317,4,3,1,80,0,0
163847,-100,4,3,1,80,0,0
164138,-31.7460317460317,4,3,1,80,0,0
166177,-100,4,3,1,80,0,0
166468,-31.7460317460317,4,3,1,80,0,0
167342,-25,4,3,1,80,0,0
167633,-100,4,3,1,80,0,0

[Colours]
Combo1 : 255,255,255
Combo2 : 253,94,169

[HitObjects]
28,343,9478,22,0,P|80:307|148:313,1,130,2|0,0:2|0:0,0:0:0:0:
157,297,11517,6,0,P|204:338|304:339,1,162.5,2|0,0:2|0:0,0:0:0:0:
387,335,13264,2,0,L|380:382,2,32.5,2|0|0,0:2|0:0|0:0,0:0:0:0:
475,350,14138,6,0,L|453:209,1,130,2|0,0:2|0:0,0:0:0:0:
391,165,15594,2,0,L|398:127,1,32.5,2|0,0:2|0:0,0:0:0:0:
464,82,16177,5,2,0:2:0:0:
464,82,16468,2,0,P|422:55|374:54,1,97.5,2|0,0:2|0:0,0:0:0:0:
292,70,17633,2,0,L|283:107,1,32.5,2|0,0:2|0:0,0:0:0:0:
307,180,18216,2,0,L|298:217,1,32.5,2|0,0:2|0:0,0:0:0:0:
255,285,18798,6,0,P|197:287|135:330,1,130,2|0,0:2|0:0,0:0:0:0:
142,344,20837,6,0,P|91:347|12:270,1,162.5,2|0,0:2|0:0,0:0:0:0:
78,218,22585,1,2,0:2:0:0:
11,103,23022,2,0,L|13:120,1,16.25,2|0,0:2|0:0,0:0:0:0:
78,218,23458,6,0,L|104:81,1,130,2|0,0:2|0:0,0:0:0:0:
95,73,25497,6,0,P|128:58|173:62,1,81.25,2|0,0:2|0:0,0:0:0:0:
199,132,26371,2,0,L|191:85,1,32.5,2|0,0:2|0:0,0:0:0:0:
287,65,26954,2,0,L|279:18,1,32.5,2|0,0:2|0:0,0:0:0:0:
296,77,27391,1,2,0:2:0:0:
305,89,27536,1,2,0:2:0:0:
377,44,27827,1,0,0:0:0:0:
449,93,28119,6,0,P|430:129|423:166,2,73.1250027894975,0|0|0,1:0|1:0|1:0,0:0:0:0:
429,175,30157,6,0,P|459:214|460:294,1,121.875004649162,2|0,0:2|1:0,0:0:0:0:
334,363,31323,2,0,L|176:341,1,146.250005578995,0|0,1:0|2:0,0:0:0:0:
178,330,32779,6,0,P|136:348|103:349,2,73.1250027894975,0|0|0,1:0|1:0|1:0,0:0:0:0:
119,267,33944,2,0,L|139:158,1,97.50000371933,2|0,0:2|2:0,0:0:0:0:
70,119,34818,1,2,0:2:0:0:
111,46,35109,6,0,L|165:38,1,48.750001859665,2|0,0:2|0:0,0:0:0:0:
219,109,35546,1,0,1:0:0:0:
233,90,35691,2,0,L|287:82,1,48.750001859665,2|0,0:2|1:0,0:0:0:0:
352,25,36274,2,0,P|396:34|437:80,1,97.50000371933,2|0,0:2|0:0,0:0:0:0:
492,128,37148,1,2,0:2:0:0:
425,179,37439,6,0,P|388:194|359:227,2,73.1250027894975,0|0|0,1:0|1:0|1:0,0:0:0:0:
353,234,39478,6,0,P|290:234|240:187,1,121.875004649162,2|0,0:2|1:0,0:0:0:0:
189,41,40643,2,0,L|22:68,1,146.250005578995,0|0,1:0|2:0,0:0:0:0:
13,144,41808,1,2,0:2:0:0:
91,176,42099,6,0,P|136:154|168:152,2,73.1250027894975,0|0|0,1:0|1:0|1:0,0:0:0:0:
45,250,43264,2,0,P|78:283|87:344,1,97.50000371933,2|0,0:2|0:0,0:0:0:0:
160,372,44138,1,2,0:2:0:0:
241,345,44429,6,0,L|294:338,1,48.750001859665,2|0,0:2|0:0,0:0:0:0:
384,380,44867,1,0,1:0:0:0:
375,358,45012,2,0,L|386:302,1,48.750001859665,2|0,0:2|1:0,0:0:0:0:
475,265,45594,2,0,L|463:157,1,97.50000371933,2|0,0:2|0:0,0:0:0:0:
501,88,46468,1,2,0:2:0:0:
347,18,46759,6,0,L|332:96,1,56.5500004745865,2|0,0:0|0:0,0:0:0:0:
347,84,47342,6,0,L|354:118,1,28.2750002372932,2|0,0:0|0:0,0:0:0:0:
253,276,47633,2,0,L|246:242,1,28.2750002372932,2|0,0:1|0:0,0:0:0:0:
296,174,47924,2,0,B|259:159|259:159|172:179,1,113.100000949173,8|4,0:1|0:2,0:0:0:0:
16,362,49381,6,0,L|25:321,1,28.2750002372932,2|0,0:1|0:0,0:0:0:0:
145,283,49672,2,0,L|154:242,1,28.2750002372932,2|0,0:0|0:0,0:0:0:0:
42,185,49963,2,0,L|51:144,1,28.2750002372932,2|0,0:1|0:0,0:0:0:0:
5,89,50255,2,0,B|42:74|42:74|129:94,1,113.100000949173,8|4,0:1|0:2,0:0:0:0:
164,21,51128,1,8,0:1:0:0:
236,66,51420,6,0,L|230:100,1,28.2750002372932,2|0,0:0|0:0,0:0:0:0:
254,55,51711,2,0,L|248:89,1,28.2750002372932,2|0,0:1|0:0,0:0:0:0:
365,124,52002,6,0,L|371:158,1,28.2750002372932,2|0,0:0|0:0,0:0:0:0:
208,214,52293,6,0,L|206:229,3,9.42500007909775,8|8|8|8,0:2|0:2|0:2|0:2,0:0:0:0:
288,183,52585,5,8,0:1:0:0:
142,350,54041,6,0,L|134:301,1,28.2750002372932,2|8,0:1|0:1,0:0:0:0:
23,249,54332,6,0,L|18:276,1,28.2750002372932,2|0,0:0|0:0,0:0:0:0:
40,233,54624,2,0,L|35:260,1,28.2750002372932,2|0,0:1|0:0,0:0:0:0:
171,182,54915,6,0,L|162:138,1,28.2750002372932,8|0,0:1|0:0,0:0:0:0:
17,37,55206,2,0,L|11:64,1,28.2750002372932,2|8,0:1|0:1,0:0:0:0:
59,221,55497,6,0,L|313:181,1,243.75,8|0,0:1|2:0,0:0:0:0:
296,153,56080,6,0,B|354:144|391:184|391:184|443:179|473:143,1,195.00000743866,4|0,1:0|2:0,0:0:0:0:
427,12,56517,1,0,1:0:0:0:
345,39,56662,6,0,L|336:86,1,32.5,2|0,0:0|2:0,0:0:0:0:
470,145,56954,6,0,P|498:189|492:244,1,97.50000371933,0|0,1:0|2:0,0:0:0:0:
303,377,57245,5,8,0:1:0:0:
323,242,57391,1,0,1:0:0:0:
320,355,57536,2,0,L|307:254,1,97.50000371933,0|0,1:0|2:0,0:0:0:0:
444,313,57827,6,0,L|403:321,1,32.5,2|0,0:2|2:0,0:0:0:0:
448,331,58119,2,0,L|407:339,1,32.5,2|0,0:2|2:0,0:0:0:0:
59,317,58701,5,2,0:0:0:0:
131,367,58847,2,0,B|161:314|129:262|129:262|121:217|154:184,1,195.00000743866,0|0,1:0|2:0,0:0:0:0:
48,31,59284,2,0,P|80:65|85:127,1,97.50000371933,0|0,1:0|0:0,0:0:0:0:
23,238,59575,5,8,0:1:0:0:
153,184,59721,1,0,1:0:0:0:
39,219,59866,2,0,L|152:201,1,97.50000371933,0|0,1:0|2:0,0:0:0:0:
285,77,60157,6,0,B|264:28|264:28|233:187,1,195,4|0,0:2|2:0,0:0:0:0:
200,272,60449,2,0,B|221:321|221:321|252:162,1,195,8|0,0:1|2:0,0:0:0:0:
307,329,60740,6,0,B|358:304|398:333|398:333|432:378|496:365,1,195.00000743866,4|0,1:0|0:0,0:0:0:0:
328,226,61177,1,0,1:0:0:0:
413,245,61323,6,0,L|421:193,1,32.5,2|0,0:0|2:0,0:0:0:0:
499,98,61614,6,0,P|453:101|400:141,1,97.50000371933,0|0,1:0|2:0,0:0:0:0:
292,144,61905,5,8,0:1:0:0:
314,13,62051,1,0,1:0:0:0:
309,125,62196,2,0,L|294:18,1,97.50000371933,0|0,1:0|2:0,0:0:0:0:
178,71,62488,6,0,L|225:77,1,32.5,2|0,0:2|2:0,0:0:0:0:
176,90,62779,2,0,L|223:96,1,32.5,2|0,0:2|2:0,0:0:0:0:
473,293,63361,5,2,0:0:0:0:
408,358,63507,2,0,B|365:374|334:336|334:336|293:322|254:329|216:374,1,195.00000743866,0|0,1:0|0:0,0:0:0:0:
458,199,63944,2,0,P|475:242|472:296,1,97.50000371933,0|0,1:0|0:0,0:0:0:0:
362,202,64235,5,8,0:1:0:0:
229,221,64381,1,0,1:0:0:0:
343,223,64526,2,0,L|245:204,1,97.50000371933,0|0,1:0|2:0,0:0:0:0:
124,48,64818,6,0,B|151:177|151:177|118:251,1,195,4|0,0:2|2:0,0:0:0:0:
127,348,65109,2,0,B|100:219|100:219|133:145,1,195,8|0,0:1|2:0,0:0:0:0:
229,27,65400,6,0,B|292:16|332:63|332:63|379:64|399:19,1,195.00000743866,4|0,1:0|0:0,0:0:0:0:
254,114,65837,1,0,1:0:0:0:
326,164,65983,6,0,L|366:157,1,32.5,2|0,0:0|0:0,0:0:0:0:
484,16,66274,6,0,P|503:50|496:111,1,97.50000371933,0|0,1:0|0:0,0:0:0:0:
455,301,66565,5,8,0:1:0:0:
440,171,66711,1,0,1:0:0:0:
434,284,66857,2,0,L|454:188,1,97.50000371933,0|0,1:0|2:0,0:0:0:0:
295,139,67148,6,0,L|278:2,1,130,2|2,0:2|0:2,0:0:0:0:
37,116,68022,5,2,0:0:0:0:
42,201,68167,2,0,B|85:206|112:166|112:166|149:145|192:155|217:194,1,195.00000743866,0|0,1:0|0:0,0:0:0:0:
78,375,68604,2,0,P|77:319|108:269,1,97.50000371933,0|0,1:0|0:0,0:0:0:0:
299,252,68895,5,8,0:1:0:0:
177,311,69041,1,0,1:0:0:0:
283,274,69187,2,0,L|175:294,1,97.50000371933,0|0,1:0|2:0,0:0:0:0:
220,154,69478,6,0,L|210:196,1,32.5,2|0,0:2|2:0,0:0:0:0:
277,367,69769,6,0,P|337:357|364:317,1,97.50000371933,8|0,0:1|2:0,0:0:0:0:
495,112,70060,6,0,B|447:88|407:118|407:118|379:165|314:157,1,195.00000743866,8|0,1:3|0:0,0:0:0:0:
245,17,70497,1,8,1:3:0:0:
334,40,70643,6,0,L|323:100,1,32.5,2|0,0:0|0:0,0:0:0:0:
120,169,70934,6,0,L|98:296,1,97.50000371933,8|0,1:3|0:0,0:0:0:0:
36,60,71225,5,8,0:1:0:0:
171,69,71371,1,0,1:0:0:0:
56,75,71517,2,0,L|170:54,1,97.50000371933,0|0,1:0|2:0,0:0:0:0:
319,157,71808,5,2,0:2:0:0:
319,157,72391,6,0,L|310:215,1,32.5,2|0,0:0|0:0,0:0:0:0:
377,243,72682,5,2,0:0:0:0:
327,73,72827,1,8,0:1:0:0:
407,45,72973,6,0,L|398:-1,1,32.5,2|0,0:0|0:0,0:0:0:0:
293,199,73264,6,0,L|272:294,1,97.50000371933,0|0,1:0|0:0,0:0:0:0:
65,354,73556,5,8,0:1:0:0:
184,288,73701,1,0,1:0:0:0:
69,219,73847,5,0,1:0:0:0:
154,373,73992,1,8,0:1:0:0:
271,294,74138,6,0,B|406:273|406:273|457:308,1,195,8|0,0:1|2:0,0:0:0:0:
377,243,74429,6,0,L|370:203,1,32.5,4|0,0:2|0:0,0:0:0:0:
257,43,74721,6,0,P|193:40|142:89,1,121.875,0|0,1:0|1:0,0:0:0:0:
69,37,75303,2,0,L|58:90,1,40.625,2|0,0:2|2:0,0:0:0:0:
223,119,75594,1,0,1:0:0:0:
47,200,75886,6,0,L|36:251,1,40.625,8|0,0:1|2:0,0:0:0:0:
60,347,76177,1,0,0:0:0:0:
68,329,76323,2,0,L|55:240,1,81.25,0|0,0:0|2:0,0:0:0:0:
132,205,76759,1,0,0:0:0:0:
256,364,77051,5,0,1:0:0:0:
373,289,77342,1,0,0:0:0:0:
457,322,77488,2,0,L|341:304,1,81.25,0|0,1:0|2:0,0:0:0:0:
256,274,77924,2,0,L|317:265,1,40.625,0|0,1:0|2:0,0:0:0:0:
464,218,78216,6,0,L|366:204,1,81.25,8|2,0:1|0:2,0:0:0:0:
335,124,78653,1,0,0:0:0:0:
345,136,78798,2,0,L|354:206,1,40.625,2|0,0:2|0:0,0:0:0:0:
488,106,79090,1,8,0:1:0:0:
256,27,79381,6,0,P|209:31|167:69,1,81.25,0|2,1:0|0:2,0:0:0:0:
97,140,79818,1,0,1:0:0:0:
99,42,79963,2,0,P|78:84|90:140,1,81.25,2|0,0:2|1:0,0:0:0:0:
15,281,80546,6,0,L|6:228,2,40.625,8|0|0,0:1|0:0|0:0,0:0:0:0:
100,309,80983,1,0,0:0:0:0:
91,324,81128,2,0,L|142:312,1,40.625,2|0,0:2|0:0,0:0:0:0:
255,364,81420,2,0,L|302:353,1,40.625,0|0,0:0|2:0,0:0:0:0:
376,376,81711,6,0,L|392:279,1,81.25,0|2,1:0|0:2,0:0:0:0:
441,172,82148,1,0,1:0:0:0:
476,268,82293,2,0,L|461:187,1,81.25,2|0,0:2|1:0,0:0:0:0:
275,43,82876,6,0,L|257:140,1,81.25,8|2,0:1|0:2,0:0:0:0:
295,211,83313,1,0,0:0:0:0:
304,193,83458,2,0,L|296:147,1,40.625,2|0,0:2|0:0,0:0:0:0:
369,32,83750,1,8,0:1:0:0:
165,121,84041,6,0,P|113:89|52:83,2,121.875,0|0|0,1:0|1:0|1:0,0:0:0:0:
32,199,85206,6,0,L|81:192,1,40.625,8|0,0:1|0:0,0:0:0:0:
177,220,85497,1,0,0:0:0:0:
167,236,85643,2,0,L|64:218,1,81.25,0|0,0:0|2:0,0:0:0:0:
24,278,86080,1,2,0:2:0:0:
53,82,86371,5,0,1:0:0:0:
226,130,86663,1,0,0:0:0:0:
259,28,86808,2,0,L|242:119,1,81.25,0|0,1:0|2:0,0:0:0:0:
309,166,87245,2,0,L|356:159,1,40.625,0|0,1:0|2:0,0:0:0:0:
464,228,87536,6,0,L|365:243,1,81.25,8|0,0:1|0:0,0:0:0:0:
320,316,87973,1,2,0:2:0:0:
338,306,88119,2,0,L|350:254,1,40.625,2|0,0:2|0:0,0:0:0:0:
437,142,88410,1,8,0:1:0:0:
228,367,88701,6,0,P|182:353|155:324,1,81.25,0|0,1:0|0:0,0:0:0:0:
80,249,89138,1,0,1:0:0:0:
67,347,89284,2,0,P|56:300|67:262,1,81.25,2|0,0:2|1:0,0:0:0:0:
217,129,89866,5,8,0:1:0:0:
205,141,90012,1,0,1:0:0:0:
193,151,90157,2,0,L|186:201,1,40.625,0|0,1:0|0:0,0:0:0:0:
107,102,90449,2,0,L|114:52,1,40.625,2|0,0:2|0:0,0:0:0:0:
199,17,90740,1,0,0:0:0:0:
306,177,91031,6,0,L|400:165,1,81.25,0|2,1:0|0:2,0:0:0:0:
484,246,91468,1,8,0:1:0:0:
391,256,91614,2,0,L|471:266,1,81.25,2|0,0:2|1:0,0:0:0:0:
271,370,92196,5,8,0:1:0:0:
257,357,92342,1,0,1:0:0:0:
245,345,92488,2,0,L|254:288,1,40.625,0|8,1:0|0:1,0:0:0:0:
306,177,92779,2,0,L|312:217,1,40.625,8|0,0:1|1:0,0:0:0:0:
354,335,93070,1,2,0:2:0:0:
210,212,93361,6,0,L|108:195,1,81.25,0|2,1:0|0:2,0:0:0:0:
36,177,93798,1,0,1:0:0:0:
48,188,93944,2,0,L|97:178,1,40.625,2|0,0:2|0:0,0:0:0:0:
75,87,94235,2,0,L|124:77,1,40.625,0|0,1:0|0:0,0:0:0:0:
217,51,94526,6,0,L|206:102,2,40.625,8|0|2,0:1|0:0|0:2,0:0:0:0:
231,38,94963,1,0,0:0:0:0:
244,26,95109,1,2,0:2:0:0:
331,62,95400,1,2,0:2:0:0:
429,50,95691,5,0,1:0:0:0:
376,180,95983,1,2,0:2:0:0:
287,169,96128,2,0,L|377:156,1,81.25,0|0,1:0|2:0,0:0:0:0:
468,135,96565,2,0,L|460:183,1,40.625,0|0,1:0|2:0,0:0:0:0:
418,278,96857,6,0,L|328:265,1,81.25,8|2,0:1|0:2,0:0:0:0:
285,346,97293,1,0,0:0:0:0:
300,337,97439,2,0,L|311:287,1,40.625,2|0,0:2|0:0,0:0:0:0:
461,175,97730,1,8,0:1:0:0:
341,93,98022,6,0,L|249:78,1,81.25,0|2,1:0|0:2,0:0:0:0:
230,0,98458,1,0,1:0:0:0:
215,9,98604,2,0,L|228:61,1,40.625,2|0,0:2|0:0,0:0:0:0:
107,48,98895,2,0,L|116:98,1,40.625,0|0,1:0|0:0,0:0:0:0:
58,174,99187,6,0,L|4:164,2,40.625,8|0|2,0:1|0:0|0:2,0:0:0:0:
65,190,99624,1,0,0:0:0:0:
72,204,99769,1,2,0:2:0:0:
25,289,100060,1,2,0:2:0:0:
96,363,100352,5,0,1:0:0:0:
203,254,100643,1,2,0:2:0:0:
206,348,100789,2,0,L|223:255,1,81.25,0|0,1:0|2:0,0:0:0:0:
174,175,101225,2,0,L|238:164,1,40.625,0|0,1:0|2:0,0:0:0:0:
417,214,101517,6,0,L|334:229,1,81.25,8|2,0:1|0:2,0:0:0:0:
307,134,101954,1,0,0:0:0:0:
320,151,102099,2,0,L|309:208,1,40.625,2|0,0:2|0:0,0:0:0:0:
457,301,102391,1,8,0:1:0:0:
406,98,102682,6,0,P|366:61|331:54,1,81.25,0|0,1:0|2:0,0:0:0:0:
196,73,103119,1,0,1:0:0:0:
260,16,103264,2,0,P|208:32|185:58,1,81.25,2|0,0:2|1:0,0:0:0:0:
57,196,103847,6,0,L|9:204,2,40.625,8|0|2,0:1|0:0|0:2,0:0:0:0:
134,246,104284,1,0,0:0:0:0:
146,230,104429,2,0,L|153:186,1,40.625,2|0,0:2|2:0,0:0:0:0:
67,103,104721,1,2,0:2:0:0:
66,353,105012,6,0,L|153:339,1,81.25,0|0,1:0|0:0,0:0:0:0:
314,276,105449,1,0,1:0:0:0:
220,288,105594,2,0,L|300:300,1,81.25,2|0,0:2|1:0,0:0:0:0:
483,187,106177,6,0,L|402:174,1,81.25,8|2,0:1|0:2,0:0:0:0:
365,83,106614,1,0,0:0:0:0:
378,96,106759,2,0,L|385:161,1,40.625,2|0,0:2|0:0,0:0:0:0:
481,279,107051,1,8,0:1:0:0:
272,87,107342,6,0,P|234:121|223:153,1,81.25,0|2,1:0|0:2,0:0:0:0:
206,245,107779,1,0,1:0:0:0:
219,232,107924,2,0,L|213:183,1,40.625,2|0,0:2|0:0,0:0:0:0:
102,204,108216,2,0,L|96:155,1,40.625,0|0,1:0|0:0,0:0:0:0:
226,27,108507,5,8,0:1:0:0:
243,39,108653,1,0,1:0:0:0:
259,51,108798,2,0,L|250:104,1,40.625,0|0,1:0|0:0,0:0:0:0:
447,115,109090,2,0,L|440:155,1,40.625,2|0,0:2|0:0,0:0:0:0:
331,164,109381,1,2,0:2:0:0:
469,337,109672,6,0,P|432:313|390:311,1,81.25,0|2,1:0|0:2,0:0:0:0:
215,361,110109,1,8,0:1:0:0:
314,345,110255,2,0,P|280:367|240:372,1,81.25,2|0,0:2|1:0,0:0:0:0:
2,188,110837,5,8,0:1:0:0:
20,175,110983,1,0,1:0:0:0:
40,166,111128,2,0,L|31:211,1,40.625,0|8,1:0|0:1,0:0:0:0:
132,342,111420,2,0,L|139:302,1,40.625,8|0,0:1|1:0,0:0:0:0:
31,63,111711,1,4,0:2:0:0:
257,277,112002,6,0,B|300:243|352:266|352:266|373:318|438:321,1,195.00000743866,4|0,1:0|2:0,0:0:0:0:
356,144,112439,1,0,1:0:0:0:
437,230,112585,6,0,L|429:172,1,32.5,2|0,0:0|2:0,0:0:0:0:
279,27,112876,6,0,P|252:67|248:115,1,97.50000371933,0|0,1:0|2:0,0:0:0:0:
276,299,113167,5,8,0:1:0:0:
336,163,113313,1,0,1:0:0:0:
301,282,113458,2,0,L|320:182,1,97.50000371933,0|0,1:0|2:0,0:0:0:0:
423,319,113750,6,0,L|376:327,1,32.5,2|0,0:2|2:0,0:0:0:0:
428,340,114041,2,0,L|381:348,1,32.5,2|0,0:2|2:0,0:0:0:0:
178,367,114332,6,0,B|136:365|116:326|116:326|59:305|6:360,1,195.00000743866,0|0,1:0|0:0,0:0:0:0:
100,137,114769,2,0,B|142:135|162:96|162:96|219:75|272:130,1,195.00000743866,0|0,1:0|2:0,0:0:0:0:
199,281,115206,2,0,P|192:222|206:183,1,97.50000371933,0|0,1:0|0:0,0:0:0:0:
409,177,115497,5,8,0:1:0:0:
285,235,115643,1,0,1:0:0:0:
396,201,115789,2,0,L|289:216,1,97.50000371933,0|0,1:0|0:0,0:0:0:0:
60,281,116080,6,0,B|98:316|98:316|75:119,1,195,4|0,0:2|2:0,0:0:0:0:
80,55,116371,2,0,B|42:20|42:20|65:217,1,195,8|0,0:1|2:0,0:0:0:0:
178,50,116662,6,0,B|246:76|291:22|291:22|327:24|358:62,1,195.00000743866,4|0,1:0|0:0,0:0:0:0:
405,201,117099,1,0,1:0:0:0:
478,145,117245,6,0,L|518:140,1,32.5,2|0,0:0|2:0,0:0:0:0:
351,54,117536,6,0,P|312:88|305:154,1,97.50000371933,0|0,1:0|2:0,0:0:0:0:
405,201,117827,5,8,0:1:0:0:
281,265,117973,1,0,1:0:0:0:
388,221,118119,2,0,L|284:239,1,97.50000371933,0|0,1:0|2:0,0:0:0:0:
385,319,118410,6,0,L|379:355,1,32.5,2|0,0:2|2:0,0:0:0:0:
404,334,118701,2,0,L|392:384,1,32.5,2|0,0:2|2:0,0:0:0:0:
227,335,118992,6,0,B|169:298|110:338|110:338|93:384|40:389,1,195.00000743866,0|0,1:0|0:0,0:0:0:0:
75,133,119429,2,0,B|74:164|28:181|28:181|-11:240|25:298,1,195.00000743866,0|0,1:0|0:0,0:0:0:0:
70,43,119866,2,0,P|119:48|152:83,1,97.50000371933,0|0,1:0|0:0,0:0:0:0:
186,238,120157,5,8,0:1:0:0:
243,115,120303,1,0,1:0:0:0:
208,222,120449,2,0,L|225:109,1,97.50000371933,0|0,1:0|0:0,0:0:0:0:
408,37,120740,6,0,B|435:88|435:88|415:223,1,195,4|0,0:2|2:0,0:0:0:0:
408,337,121031,2,0,B|381:286|381:286|401:151,1,195,8|0,0:1|2:0,0:0:0:0:
309,364,121323,6,0,B|268:362|250:327|250:327|174:315|138:373,1,195.00000743866,4|0,1:0|0:0,0:0:0:0:
20,237,121759,1,8,1:3:0:0:
99,280,121905,6,0,L|109:227,1,32.5,2|0,0:0|0:0,0:0:0:0:
46,26,122196,6,0,P|3:81|1:114,1,97.50000371933,8|0,1:3|0:0,0:0:0:0:
94,164,122488,5,8,0:1:0:0:
226,94,122634,1,0,1:0:0:0:
115,138,122780,2,0,L|240:120,1,97.50000371933,0|0,1:0|2:0,0:0:0:0:
334,17,123070,6,0,L|314:120,1,97.5,2|0,0:2|2:0,0:0:0:0:
132,264,123653,6,0,B|180:236|226:261|226:261|262:308|320:302,1,195.00000743866,0|0,1:0|0:0,0:0:0:0:
485,172,124090,2,0,B|437:144|391:169|391:169|355:216|297:210,1,195.00000743866,8|0,1:3|0:0,0:0:0:0:
431,350,124526,2,0,P|438:293|425:253,1,97.50000371933,8|0,1:3|0:0,0:0:0:0:
315,112,124818,5,8,0:1:0:0:
437,42,124963,1,8,1:3:0:0:
332,83,125109,2,0,L|447:64,1,97.50000371933,8|0,1:3|0:0,0:0:0:0:
218,17,125400,6,0,L|205:76,1,32.5,2|0,0:0|2:0,0:0:0:0:
107,232,125691,6,0,L|1:247,1,97.50000371933,8|0,0:1|2:0,0:0:0:0:
29,78,125983,6,0,B|98:53|130:88|130:88|155:136|212:133,1,195.00000743866,0|0,1:0|0:0,0:0:0:0:
262,309,126420,1,0,1:0:0:0:
194,254,126565,6,0,L|204:202,1,32.5,2|0,0:0|0:0,0:0:0:0:
244,44,126857,6,0,P|280:69|298:137,1,97.50000371933,0|0,1:0|0:0,0:0:0:0:
262,309,127148,5,8,0:1:0:0:
392,244,127293,1,0,1:0:0:0:
281,285,127439,2,0,L|391:270,1,97.50000371933,0|0,1:0|2:0,0:0:0:0:
455,69,127730,5,2,0:2:0:0:
455,69,128313,6,0,L|427:188,1,97.50000371933,0|0,1:0|0:0,0:0:0:0:
459,322,128604,5,2,0:0:0:0:
347,158,128750,1,8,0:1:0:0:
289,225,128895,6,0,L|296:271,1,32.5,2|0,0:0|0:0,0:0:0:0:
196,59,129187,6,0,L|164:175,1,97.50000371933,0|0,1:0|0:0,0:0:0:0:
132,298,129478,5,8,0:1:0:0:
0,237,129624,1,0,1:0:0:0:
21,369,129769,5,0,1:0:0:0:
89,207,129915,1,8,0:1:0:0:
132,298,130060,6,0,B|273:330|273:330|331:302,1,195,8|0,0:1|2:0,0:0:0:0:
238,349,130352,6,0,L|227:393,1,32.5,4|0,0:2|0:0,0:0:0:0:
289,225,130643,6,0,B|339:203|381:230|381:230|409:277|467:270,1,195.00000743866,4|0,1:0|0:0,0:0:0:0:
497,18,131080,2,0,B|447:-4|405:23|405:23|377:70|319:63,1,195.00000743866,0|0,1:0|2:0,0:0:0:0:
460,189,131517,2,0,P|471:144|446:85,1,97.50000371933,0|0,1:0|2:0,0:0:0:0:
234,32,131808,5,8,0:1:0:0:
137,59,131954,1,0,1:0:0:0:
41,88,132099,1,0,1:0:0:0:
41,88,132973,6,0,B|72:144|62:194|62:194|22:216|5:269,1,195.00000743866,0|0,1:0|0:0,0:0:0:0:
154,370,133410,2,0,B|123:314|133:264|133:264|173:242|190:189,1,195.00000743866,0|0,1:0|2:0,0:0:0:0:
155,19,133847,2,0,P|146:73|161:119,1,97.50000371933,0|0,1:0|0:0,0:0:0:0:
299,193,134138,5,8,0:1:0:0:
274,69,134284,1,0,1:0:0:0:
275,179,134429,2,0,L|295:67,1,97.50000371933,0|0,1:0|0:0,0:0:0:0:
186,201,134721,6,0,L|132:211,1,32.5,4|0,0:2|2:0,0:0:0:0:
379,137,135012,6,0,P|399:172|402:231,1,97.50000371933,8|0,0:1|2:0,0:0:0:0:
176,358,135303,6,0,B|140:364|120:330|120:330|53:300|-1:365,1,195.00000743866,4|0,1:0|0:0,0:0:0:0:
249,223,135740,2,0,B|272:251|252:285|252:285|260:358|343:372,1,195.00000743866,0|0,1:0|2:0,0:0:0:0:
140,231,136177,2,0,P|150:170|187:135,1,97.50000371933,0|0,1:0|2:0,0:0:0:0:
402,228,136468,5,8,0:1:0:0:
420,128,136614,1,0,1:0:0:0:
435,34,136759,1,0,1:0:0:0:
435,34,137633,6,0,B|368:36|337:88|337:88|277:73|277:22,1,195.00000743866,0|0,1:0|0:0,0:0:0:0:
33,77,138070,2,0,B|100:75|131:23|131:23|191:38|191:89,1,195.00000743866,0|0,1:0|0:0,0:0:0:0:
60,260,138507,2,0,P|49:215|60:164,1,97.50000371933,0|0,1:0|0:0,0:0:0:0:
252,132,138798,5,8,0:1:0:0:
143,208,138944,1,0,1:0:0:0:
250,158,139090,2,0,L|145:180,1,97.50000371933,0|0,1:0|0:0,0:0:0:0:
222,289,139381,6,0,L|231:240,1,32.5,4|0,0:2|2:0,0:0:0:0:
279,41,139672,6,0,P|326:75|341:120,1,97.50000371933,8|0,0:1|2:0,0:0:0:0:
311,333,139963,6,0,B|361:295|416:321|416:321|438:367|498:369,1,195.00000743866,4|0,1:0|0:0,0:0:0:0:
323,234,140400,1,8,1:3:0:0:
408,206,140546,6,0,L|399:155,1,32.5,2|0,0:0|0:0,0:0:0:0:
253,135,140837,6,0,L|283:22,1,97.50000371933,8|0,1:3|0:0,0:0:0:0:
9,110,141128,5,8,0:1:0:0:
25,201,141274,1,0,1:0:0:0:
44,294,141420,1,0,1:0:0:0:
44,294,142293,6,0,B|113:273|163:317|163:317|199:306|216:265,1,195.00000743866,0|0,1:0|0:0,0:0:0:0:
237,27,142730,2,0,B|220:97|157:118|157:118|149:155|176:190,1,195.00000743866,8|0,1:3|0:0,0:0:0:0:
302,324,143167,2,0,P|312:271|295:226,1,97.50000371933,8|0,1:3|0:0,0:0:0:0:
237,27,143458,5,8,0:1:0:0:
375,64,143604,1,8,1:3:0:0:
258,57,143750,2,0,L|378:37,1,97.50000371933,8|0,1:3|0:0,0:0:0:0:
460,102,144041,6,0,L|446:159,1,32.5,4|0,0:2|2:0,0:0:0:0:
298,230,144332,6,0,P|286:180|303:133,1,97.50000371933,8|0,0:1|2:0,0:0:0:0:
482,323,144624,6,0,B|442:300|393:325|393:325|365:372|294:368,1,195.00000743866,0|0,1:0|0:0,0:0:0:0:
114,266,145060,1,0,1:0:0:0:
65,344,145206,6,0,L|54:406,1,32.5,2|0,0:0|0:0,0:0:0:0:
203,274,145497,6,0,P|191:213|166:183,1,97.50000371933,0|0,1:0|0:0,0:0:0:0:
36,73,145789,5,8,0:1:0:0:
133,52,145934,1,0,1:0:0:0:
233,34,146080,1,0,1:0:0:0:
233,34,146954,6,0,B|246:65|281:79|281:79|322:19|401:37,1,195.00000743866,0|0,1:0|0:0,0:0:0:0:
345,306,147391,2,0,B|365:279|359:241|359:241|287:236|263:159,1,195.00000743866,8|0,0:1|0:0,0:0:0:0:
455,103,147827,2,0,P|466:156|458:205,1,97.50000371933,0|0,1:0|0:0,0:0:0:0:
345,306,148119,5,8,0:1:0:0:
467,337,148264,1,0,1:0:0:0:
361,330,148410,2,0,L|471:312,1,97.50000371933,0|8,1:0|0:1,0:0:0:0:
194,222,148701,6,0,B|64:197|64:197|-6:236,1,195,8|0,0:1|2:0,0:0:0:0:
110,168,148992,6,0,L|101:124,1,32.5,4|0,0:2|0:0,0:0:0:0:
336,11,149284,6,0,B|465:36|465:36|499:61|480:114,1,204.750006053209,4|0,1:0|2:0,0:0:0:0:
310,219,149721,1,0,1:0:0:0:
248,161,149866,6,0,L|260:105,1,32.5,2|0,0:0|2:0,0:0:0:0:
141,55,150157,6,0,P|205:27|250:35,1,102.375003026605,0|0,1:0|2:0,0:0:0:0:
471,189,150449,5,8,0:1:0:0:
310,219,150594,1,0,1:0:0:0:
378,128,150740,2,0,L|396:255,1,102.375003026605,0|0,1:0|2:0,0:0:0:0:
290,363,151031,6,0,L|302:307,1,32.5,2|0,0:2|2:0,0:0:0:0:
273,348,151322,2,0,L|285:292,1,32.5,2|0,0:2|2:0,0:0:0:0:
55,37,151614,6,0,B|23:162|23:162|20:206|55:227,1,204.750006053209,0|0,1:0|0:0,0:0:0:0:
253,242,152051,2,0,B|198:215|147:249|147:249|139:301|84:316,1,204.750006053209,0|0,1:0|2:0,0:0:0:0:
134,128,152488,2,0,L|165:5,1,102.375003026605,0|0,1:0|0:0,0:0:0:0:
313,32,152779,5,8,0:1:0:0:
347,203,152924,1,0,1:0:0:0:
233,134,153070,2,0,L|357:115,1,102.375003026605,0|0,1:0|0:0,0:0:0:0:
478,341,153361,6,0,B|332:318|332:318|283:338,1,195,4|0,0:2|2:0,0:0:0:0:
130,342,153653,2,0,B|276:365|276:365|325:345,1,195,8|0,0:1|2:0,0:0:0:0:
33,358,153944,6,0,B|8:226|8:226|16:189|55:172,1,204.750006053209,4|0,1:0|0:0,0:0:0:0:
183,32,154381,1,0,1:0:0:0:
241,102,154526,6,0,L|231:138,1,32.5,2|0,0:0|2:0,0:0:0:0:
2,80,154818,6,0,P|34:44|95:33,1,102.375003026605,0|0,1:0|2:0,0:0:0:0:
295,229,155109,5,8,0:1:0:0:
135,197,155255,1,0,1:0:0:0:
232,133,155400,2,0,L|207:244,1,102.375003026605,0|0,1:0|2:0,0:0:0:0:
45,282,155691,6,0,L|35:228,1,32.5,2|0,0:2|2:0,0:0:0:0:
65,295,155983,2,0,L|59:263,1,32.5,2|0,0:2|2:0,0:0:0:0:
183,32,156274,6,0,B|244:1|288:36|288:36|320:93|385:80,1,204.750006053209,0|0,1:0|0:0,0:0:0:0:
506,254,156711,2,0,B|466:249|452:217|452:217|480:79,1,204.750006053209,0|0,1:0|0:0,0:0:0:0:
360,183,157148,2,0,L|251:163,1,102.375003026605,0|0,1:0|0:0,0:0:0:0:
145,16,157439,5,8,0:1:0:0:
170,187,157585,1,0,1:0:0:0:
64,120,157730,2,0,L|164:101,1,102.375003026605,0|0,1:0|0:0,0:0:0:0:
349,86,158022,6,0,B|391:48|391:48|357:193,1,195,4|0,0:2|2:0,0:0:0:0:
382,304,158313,2,0,B|340:342|340:342|374:197,1,195,8|0,0:1|2:0,0:0:0:0:
244,355,158604,6,0,B|104:325|104:325|69:329|44:368,1,204.750006053209,4|0,1:0|0:0,0:0:0:0:
63,149,159041,1,8,1:3:0:0:
6,214,159187,6,0,L|-4:267,1,32.5,2|0,0:0|0:0,0:0:0:0:
244,355,159478,6,0,L|228:240,1,102.375003026605,8|0,1:3|0:0,0:0:0:0:
63,149,159769,5,8,0:1:0:0:
220,113,159915,1,0,1:0:0:0:
128,55,160060,2,0,L|162:220,1,102.375003026605,0|0,1:0|2:0,0:0:0:0:
229,253,160352,6,0,L|343:231,1,97.5,2|0,0:2|2:0,0:0:0:0:
477,382,160934,6,0,B|450:341|464:290|464:290|503:248|469:168,1,204.750006053209,0|0,1:0|0:0,0:0:0:0:
324,39,161371,2,0,B|351:80|337:131|337:131|298:173|332:253,1,204.750006053209,8|0,1:3|0:0,0:0:0:0:
510,93,161808,2,0,P|471:49|417:39,1,102.375003026605,8|0,1:3|0:0,0:0:0:0:
193,179,162099,5,8,0:1:0:0:
234,16,162245,1,8,1:3:0:0:
135,81,162391,2,0,L|252:102,1,102.375003026605,8|0,1:3|0:0,0:0:0:0:
86,172,162682,6,0,L|73:225,1,32.5,2|0,0:0|2:0,0:0:0:0:
0,369,162973,6,0,P|49:341|98:342,1,102.375003026605,8|0,0:1|2:0,0:0:0:0:
379,303,163264,6,0,B|242:325|242:325|204:294|215:253,1,204.750006053209,0|0,1:0|0:0,0:0:0:0:
384,138,163701,1,0,1:0:0:0:
454,193,163847,6,0,L|445:242,1,32.5,2|0,0:0|0:0,0:0:0:0:
405,44,164138,6,0,P|352:47|307:80,1,102.375003026605,0|0,1:0|0:0,0:0:0:0:
306,257,164429,5,8,0:1:0:0:
132,219,164575,1,0,1:0:0:0:
235,168,164721,2,0,L|206:296,1,102.375003026605,0|0,1:0|2:0,0:0:0:0:
66,371,165012,5,2,0:2:0:0:
66,371,165594,6,0,L|49:262,1,102.375003026605,0|0,1:0|0:0,0:0:0:0:
1,104,165886,5,2,0:0:0:0:
132,219,166031,1,8,0:1:0:0:
89,115,166177,6,0,L|77:163,1,32.5,2|0,0:0|0:0,0:0:0:0:
228,368,166468,6,0,L|211:259,1,102.375003026605,0|0,1:0|0:0,0:0:0:0:
221,67,166759,5,8,0:1:0:0:
365,192,166905,1,0,1:0:0:0:
204,163,167051,5,0,1:0:0:0:
312,17,167196,1,8,0:1:0:0:
365,192,167342,6,0,B|392:242|392:242|366:381,1,195,8|0,0:1|2:0,0:0:0:0:
422,282,167633,6,0,L|465:278,1,32.5,4|0,0:2|0:0,0:0:0:0:
366,377,167924,5,2,0:2:0:0:
