osu file format v14

[General]
AudioFilename: audio.mp3
AudioLeadIn: 0
PreviewTime: 185837
Countdown: 0
SampleSet: Drum
StackLeniency: 0
Mode: 0
LetterboxInBreaks: 0
WidescreenStoryboard: 1

[Editor]
Bookmarks: 9478,167924
DistanceSpacing: 3
BeatDivisor: 8
GridSize: 4
TimelineZoom: 3.099999

[Metadata]
Title:Hot Pink
TitleUnicode:Hot Pink
Artist:Let's Eat Grandma
ArtistUnicode:Let's Eat Grandma
Creator:Myxo
Version:Expert
Source:
Tags:experimental pop english duo sophie i'm all ears myxomatosis mint appleeaterx dtm9 nowa cut version
BeatmapID:2388944
BeatmapSetID:1144152

[Difficulty]
HPDrainRate:4
CircleSize:5
OverallDifficulty:8
ApproachRate:8.5
SliderMultiplier:1.4
SliderTickRate:0.5

[Events]
//Background and Video events
0,0,"Pink+2560x1440.png",0,0
//Break Periods
//Storyboard Layer 0 (Background)
//Storyboard Layer 1 (Fail)
//Storyboard Layer 2 (Pass)
//Storyboard Layer 3 (Foreground)
//Storyboard Layer 4 (Overlay)
//Storyboard Sound Samples

[TimingPoints]
158,582.52427184466,4,3,1,40,1,0
9478,-200,4,3,1,40,0,0
25497,-133.333333333333,4,3,1,40,0,0
28119,-100,4,3,1,40,0,0
32779,-133.333333333333,4,3,1,40,0,0
36274,-400,4,3,1,40,0,0
37439,-100,4,3,1,40,0,0
42099,-133.333333333333,4,3,1,40,0,0
44138,-133.333333333333,4,3,1,50,0,0
45594,-266.666666666667,4,3,1,50,0,0
46323,-100,4,3,1,50,0,0
47342,-33.3333333333333,4,3,1,50,0,0
48507,-50,4,3,1,50,0,0
49381,-33.3333333333333,4,3,1,50,0,0
50837,-50,4,3,1,50,0,0
51420,-33.3333333333333,4,3,1,50,0,0
55643,-100,4,3,1,60,0,0
56080,-50,4,3,1,80,0,1
56153,-50,4,3,1,80,0,0
60740,-50,4,3,1,80,0,1
60813,-50,4,3,1,80,0,0
65400,-50,4,3,1,80,0,1
65473,-50,4,3,1,80,0,0
67148,-100,4,3,1,80,0,0
67730,-66.6666666666667,4,3,1,80,0,0
68167,-33.3333333333333,4,3,1,80,0,0
68604,-50,4,3,1,80,0,0
74284,-111.111111111111,4,3,1,80,0,0
74721,-50,4,3,1,60,0,0
112002,-50,4,3,1,80,0,1
112075,-50,4,3,1,80,0,0
116080,-150.001500015,4,3,1,80,0,0
116662,-50,4,3,1,80,0,1
116735,-50,4,3,1,80,0,0
120740,-150.000015000001,4,3,1,80,0,0
121323,-50,4,3,1,80,0,1
121395,-50,4,3,1,80,0,0
123070,-100,4,3,1,80,0,0
123653,-50,4,3,1,80,0,0
124235,-33.3333333333333,4,3,1,80,0,0
124526,-50,4,3,1,80,0,0
125983,-50,4,3,1,80,0,0
130206,-200,4,3,1,80,0,0
130643,-50,4,3,1,80,0,1
130716,-50,4,3,1,80,0,0
134575,-100,4,3,1,80,0,0
135303,-50,4,3,1,80,0,1
135376,-50,4,3,1,80,0,0
139235,-100,4,3,1,80,0,0
139963,-50,4,3,1,80,0,1
140036,-50,4,3,1,80,0,0
143895,-100,4,3,1,80,0,0
144624,-50,4,3,1,80,0,0
149284,-33.3333333333333,4,3,1,80,0,1
149357,-33.3333333333333,4,3,1,80,0,0
152488,-50,4,3,1,80,0,0
153216,-100,4,3,1,80,0,0
153944,-50,4,3,1,80,0,1
154017,-50,4,3,1,80,0,0
155691,-133.333333333333,4,3,1,30,0,0
155764,-133.333333333333,4,3,2,40,0,0
155837,-133.333333333333,4,3,1,50,0,0
155910,-133.333333333333,4,3,2,60,0,0
155983,-133.333333333333,4,3,1,70,0,0
156056,-133.333333333333,4,3,2,80,0,0
156128,-133.333333333333,4,3,1,80,0,0
156274,-50,4,3,1,80,0,0
157876,-100,4,3,1,80,0,0
158604,-33.3333333333333,4,3,1,80,0,1
158677,-33.3333333333333,4,3,1,80,0,0
159478,-50,4,3,1,80,0,0
160206,-44.4444444444445,4,3,2,45,0,0
160279,-44.4444444444445,4,3,1,50,0,0
160352,-44.4444444444445,4,3,2,55,0,0
160424,-44.4444444444445,4,3,1,60,0,0
160497,-44.4444444444445,4,3,2,65,0,0
160570,-44.4444444444445,4,3,1,70,0,0
160643,-44.4444444444445,4,3,2,75,0,0
160716,-44.4444444444445,4,3,1,80,0,0
160789,-44.4444444444445,4,3,1,80,0,0
160934,-33.3333333333333,4,3,1,80,0,0
161808,-50,4,3,1,80,0,0
162536,-100,4,3,1,80,0,0
163264,-50,4,3,1,80,0,0
167488,-33.3333333333333,4,3,1,80,0,0

[Colours]
Combo1 : 255,255,255
Combo2 : 253,94,169

[HitObjects]
209,101,9478,6,0,P|173:81|109:76,1,105,2|0,0:2|2:1,0:1:0:0:
256,192,10643,5,0,0:1:0:0:
303,101,11517,6,0,P|339:81|403:76,1,105,2|0,0:2|2:1,0:1:0:0:
256,192,12973,5,0,0:1:0:0:
172,158,14138,6,0,P|130:158|72:186,1,105,2|0,0:2|2:1,0:1:0:0:
256,192,15303,5,0,0:1:0:0:
340,158,16177,6,0,P|381:158|439:186,1,105,2|0,0:2|2:1,0:1:0:0:
256,192,17633,5,0,0:1:0:0:
172,226,18798,6,0,P|136:247|100:300,1,105,2|0,0:2|2:1,0:1:0:0:
256,192,19963,5,0,0:1:0:0:
340,226,20837,6,0,P|375:247|411:300,1,105,2|0,0:2|2:1,0:1:0:0:
256,192,22293,5,0,0:1:0:0:
209,283,23458,6,0,P|189:319|184:383,1,105,2|0,0:2|2:1,0:1:0:0:
256,192,24624,5,0,0:1:0:0:
328,381,25497,6,0,P|326:329|303:283,1,105,2|0,0:2|2:1,0:1:0:0:
256,192,26225,5,0,0:1:0:0:
256,192,26954,1,0,0:1:0:0:
256,192,27391,1,0,0:1:0:0:
256,192,27536,1,0,0:1:0:0:
256,384,28119,5,0,1:1:0:0:
256,384,28556,1,0,1:1:0:0:
256,384,28992,1,0,1:1:0:0:
107,236,29284,6,0,L|174:217,1,70,2|0,0:2|0:1,0:1:0:0:
337,236,29866,2,0,L|404:217,1,70,2|0,0:2|0:1,0:1:0:0:
256,384,30886,5,0,1:1:0:0:
256,384,31323,1,0,1:1:0:0:
256,384,32779,1,0,1:1:0:0:
256,384,33216,1,0,1:1:0:0:
256,384,33653,1,0,1:1:0:0:
73,323,33944,6,0,L|177:294,1,105.000004005432,2|0,0:2|0:1,0:1:0:0:
338,323,34818,2,0,L|439:294,1,105.000004005432,2|0,0:2|0:1,0:1:0:0:
256,384,35546,5,0,1:1:0:0:
256,384,35983,1,0,1:1:0:0:
256,166,36274,6,0,L|256:218,1,52.5,2|0,0:2|2:1,0:1:0:0:
256,0,37439,5,0,1:1:0:0:
256,0,37876,1,0,1:1:0:0:
256,0,38312,1,0,1:1:0:0:
405,148,38604,6,0,L|337:166,1,70,2|0,0:2|0:1,0:1:0:0:
175,148,39186,2,0,L|107:166,1,70,2|0,0:2|0:1,0:1:0:0:
256,0,40206,5,0,1:1:0:0:
256,0,40643,1,0,1:1:0:0:
256,0,42099,1,0,1:1:0:0:
256,0,42536,1,0,1:1:0:0:
256,0,42973,1,0,1:1:0:0:
439,61,43264,6,0,L|335:90,1,105.000004005432,2|0,0:2|0:1,0:1:0:0:
174,61,44138,2,0,L|72:89,1,105.000004005432,2|0,0:2|0:1,0:1:0:0:
256,0,44866,5,0,1:1:0:0:
256,0,45303,1,0,1:1:0:0:
256,218,45594,6,0,L|256:166,1,52.5,2|0,0:2|0:1,0:1:0:0:
290,74,46323,2,0,L|222:92,1,70,2|0,0:2|2:1,0:1:0:0:
35,46,46759,6,0,P|67:56|72:89,1,70,2|0,0:3|0:1,0:1:0:0:
3,160,47342,2,0,P|17:139|42:144,1,52.5000020027161,2|0,0:3|2:1,0:1:0:0:
180,177,47488,2,0,P|156:185|138:167,1,52.5000020027161,2|0,0:1|2:1,0:1:0:0:
85,234,47633,2,0,P|70:213|82:191,1,52.5000020027161,2|0,0:3|2:1,0:1:0:0:
156,70,47779,2,0,P|156:94|133:105,1,52.5000020027161,2|0,0:1|2:1,0:1:0:0:
256,192,47924,5,8,0:1:0:0:
291,0,48507,2,0,L|221:0,1,70,4|0,0:2|2:1,0:1:0:0:
356,70,49381,6,0,P|356:94|379:105,1,52.5000020027161,2|0,0:3|2:1,0:1:0:0:
509,160,49526,2,0,P|495:139|470:144,1,52.5000020027161,2|0,0:1|2:1,0:1:0:0:
332,177,49672,2,0,P|356:185|374:167,1,52.5000020027161,2|0,0:3|2:1,0:1:0:0:
467,58,49818,2,0,P|442:64|439:90,1,52.5000020027161,2|0,0:1|2:1,0:1:0:0:
427,234,49964,2,0,P|442:213|430:191,1,52.5000020027161,2|0,0:3|2:1,0:1:0:0:
356,70,50110,2,0,P|356:94|379:105,1,52.5000020027161,2|0,0:1|2:1,0:1:0:0:
256,192,50255,5,8,0:1:0:0:
291,0,50837,2,0,L|221:0,1,70,4|0,0:2|2:1,0:1:0:0:
256,192,51128,1,8,0:1:0:0:
42,333,51420,6,0,P|62:317|86:326,1,52.5000020027161,2|0,0:3|2:1,0:1:0:0:
42,333,51565,2,0,P|62:317|86:326,1,52.5000020027161,2|0,0:3|2:1,0:1:0:0:
184,287,51711,2,0,P|157:279|150:258,1,52.5000020027161,2|0,0:1|2:1,0:1:0:0:
184,287,51856,2,0,P|157:279|150:258,1,52.5000020027161,2|0,0:1|2:1,0:1:0:0:
95,183,52002,2,0,P|115:167|139:176,1,52.5000020027161,2|0,0:3|2:1,0:1:0:0:
95,183,52148,2,0,P|115:167|139:176,1,52.5000020027161,2|0,0:3|2:1,0:1:0:0:
256,112,52293,6,0,L|256:63,3,35.0000013351441,8|8|8|8,0:2|0:2|0:2|0:2,0:1:0:0:
256,192,52585,1,8,0:1:0:0:
470,333,54041,6,0,P|449:317|425:326,1,52.5000020027161,2|0,0:1|2:1,0:1:0:0:
256,192,54187,5,8,0:1:0:0:
328,287,54332,6,0,P|354:279|361:258,1,52.5000020027161,2|0,0:3|2:1,0:1:0:0:
328,287,54478,2,0,P|354:279|361:258,1,52.5000020027161,2|0,0:3|2:1,0:1:0:0:
417,183,54623,2,0,P|396:167|372:176,1,52.5000020027161,2|0,0:1|2:1,0:1:0:0:
417,183,54769,2,0,P|396:167|372:176,1,52.5000020027161,2|0,0:1|2:1,0:1:0:0:
256,192,54915,5,8,0:1:0:0:
298,51,55060,6,0,P|324:43|331:22,1,52.5000020027161,2|0,0:3|2:1,0:1:0:0:
214,51,55206,2,0,P|193:35|169:44,1,52.5000020027161,2|0,0:1|2:1,0:1:0:0:
256,192,55352,5,8,0:1:0:0:
256,192,55497,1,8,0:1:0:0:
256,122,55643,2,0,L|256:194,1,70,4|0,0:2|2:1,0:1:0:0:
256,384,56080,5,4,1:1:0:0:
133,337,56225,6,0,L|66:310,1,70,2|0,0:3|2:1,0:1:0:0:
256,384,56517,5,0,1:1:0:0:
379,337,56662,6,0,L|446:310,1,70,2|0,0:3|2:1,0:1:0:0:
256,384,56954,5,0,1:1:0:0:
256,192,57245,1,8,0:1:0:0:
256,384,57391,1,0,1:1:0:0:
256,384,57536,1,0,1:1:0:0:
89,232,57827,6,0,L|54:167,1,70,2|0,0:2|2:1,0:1:0:0:
423,232,58119,2,0,L|458:167,1,70,2|0,0:2|2:1,0:1:0:0:
178,269,58556,2,0,L|167:193,1,70,2|0,0:3|2:1,0:1:0:0:
256,384,58847,5,0,1:1:0:0:
334,269,58992,6,0,L|345:193,1,70,2|0,0:3|2:1,0:1:0:0:
256,384,59284,5,0,1:1:0:0:
256,306,59429,6,0,L|256:270,1,35,2|0,0:3|2:1,0:1:0:0:
256,192,59575,5,8,0:1:0:0:
256,384,59721,1,0,1:1:0:0:
256,384,59866,1,0,1:1:0:0:
256,113,60157,6,0,L|256:43,1,70,4|0,0:2|2:1,0:1:0:0:
256,192,60449,5,8,0:1:0:0:
256,384,60740,1,4,1:1:0:0:
144,313,60886,6,0,L|168:288,1,35,2|0,0:3|2:1,0:1:0:0:
144,313,61031,2,0,L|117:342,1,35,2|0,0:3|2:1,0:1:0:0:
256,384,61177,5,0,1:1:0:0:
344,288,61323,6,0,L|394:235,1,70,2|0,0:3|2:1,0:1:0:0:
256,384,61614,5,0,1:1:0:0:
256,192,61905,1,8,0:1:0:0:
256,384,62051,1,0,1:1:0:0:
256,384,62196,1,0,1:1:0:0:
88,239,62488,6,0,L|8:260,1,70,2|0,0:2|2:1,0:1:0:0:
424,337,62779,2,0,L|504:316,1,70,2|0,0:2|2:1,0:1:0:0:
168,288,63216,2,0,L|118:341,1,70,2|0,0:3|2:1,0:1:0:0:
256,384,63507,5,0,1:1:0:0:
367,262,63653,6,0,L|390:236,1,35,2|0,0:3|2:1,0:1:0:0:
367,262,63798,2,0,L|344:288,1,35,2|0,0:3|2:1,0:1:0:0:
256,384,63944,5,0,1:1:0:0:
256,306,64090,6,0,L|256:270,1,35,2|0,0:3|2:1,0:1:0:0:
256,192,64235,5,8,0:1:0:0:
256,384,64381,1,0,1:1:0:0:
256,384,64526,1,0,1:1:0:0:
256,113,64818,6,0,L|256:43,1,70,4|0,0:2|2:1,0:1:0:0:
256,192,65110,5,8,0:1:0:0:
256,384,65401,1,4,1:1:0:0:
133,337,65546,6,0,L|66:310,1,70,2|0,0:3|2:1,0:1:0:0:
256,384,65837,5,0,1:1:0:0:
411,322,65983,6,0,L|443:308,1,35,2|0,0:3|2:1,0:1:0:0:
411,323,66129,2,0,L|379:337,1,35,2|0,0:3|2:1,0:1:0:0:
256,384,66274,5,0,1:1:0:0:
256,306,66420,6,0,L|256:270,1,35,2|0,0:3|2:1,0:1:0:0:
256,192,66565,5,8,0:1:0:0:
256,384,66711,1,0,1:1:0:0:
256,384,66857,1,0,1:1:0:0:
181,172,67148,6,0,P|184:121|217:79,1,105,2|0,0:2|2:1,0:1:0:0:
295,79,67730,2,0,P|327:120|330:172,1,105,2|0,0:2|2:1,0:1:0:0:
256,384,68167,5,0,1:1:0:0:
132,245,68313,6,0,P|100:204|97:152,1,105,2|0,0:2|2:1,0:1:0:0:
256,384,68604,5,0,1:1:0:0:
256,306,68750,6,0,L|256:270,1,35,2|0,0:3|2:1,0:1:0:0:
256,192,68895,5,8,0:1:0:0:
256,384,69041,1,0,1:1:0:0:
256,384,69187,1,0,1:1:0:0:
414,152,69478,6,0,P|411:204|380:245,1,105,2|0,0:2|2:1,0:1:0:0:
256,192,69769,5,8,0:1:0:0:
30,383,70060,1,8,1:3:0:0:
143,314,70206,6,0,L|150:279,1,35,2|0,0:3|2:1,0:1:0:0:
143,314,70352,2,0,L|135:348,1,35,2|0,0:3|2:1,0:1:0:0:
256,384,70497,5,8,1:3:0:0:
369,314,70643,6,0,L|362:279,1,35,2|0,0:3|2:1,0:1:0:0:
369,314,70789,2,0,L|377:348,1,35,2|0,0:3|2:1,0:1:0:0:
482,383,70934,5,8,1:3:0:0:
256,306,71080,6,0,L|256:270,1,35,2|0,0:3|2:1,0:1:0:0:
256,192,71225,5,8,0:1:0:0:
256,384,71371,1,0,1:1:0:0:
256,384,71517,1,0,1:1:0:0:
101,173,71808,6,0,L|60:234,1,70,2|0,0:2|2:1,0:1:0:0:
360,279,72245,2,0,L|375:348,1,70,2|0,0:3|2:1,0:1:0:0:
152,279,72536,2,0,L|137:348,1,70,2|0,0:3|2:1,0:1:0:0:
256,192,72827,5,8,0:1:0:0:
430,202,72973,6,0,L|411:173,1,35,2|0,0:3|2:1,0:1:0:0:
430,202,73119,2,0,L|449:231,1,35,2|0,0:3|2:1,0:1:0:0:
256,384,73264,5,0,1:1:0:0:
256,306,73410,6,0,L|256:270,1,35,2|0,0:3|2:1,0:1:0:0:
256,192,73556,5,8,0:1:0:0:
256,384,73701,1,0,1:1:0:0:
256,384,73847,1,0,1:1:0:0:
256,192,73992,1,8,0:1:0:0:
256,192,74138,1,8,0:1:0:0:
256,113,74284,2,0,L|256:48,1,62.9999980773926,4|0,0:2|2:1,0:1:0:0:
256,50,74721,5,0,1:1:0:0:
256,50,75157,1,0,1:1:0:0:
306,0,75303,5,0,0:1:0:0:
256,50,75594,5,0,1:1:0:0:
256,192,75886,1,8,0:1:0:0:
206,142,76031,5,0,0:1:0:0:
206,142,76177,1,0,0:1:0:0:
206,142,76323,1,0,0:1:0:0:
206,142,76759,1,0,0:1:0:0:
398,192,77051,5,0,1:1:0:0:
448,242,77342,5,0,0:1:0:0:
398,192,77488,5,0,1:1:0:0:
398,192,77924,1,0,1:1:0:0:
256,192,78216,1,8,0:1:0:0:
306,142,78507,5,0,0:1:0:0:
306,142,78653,1,0,0:1:0:0:
306,142,78798,1,0,0:1:0:0:
306,142,78944,1,0,0:1:0:0:
256,192,79090,5,8,0:1:0:0:
256,334,79381,1,0,1:1:0:0:
206,384,79526,5,0,0:1:0:0:
256,334,79818,5,0,1:1:0:0:
256,334,80255,1,0,1:1:0:0:
256,192,80546,1,8,0:1:0:0:
306,242,80691,5,0,0:1:0:0:
306,242,80837,1,0,0:1:0:0:
306,242,80983,1,0,0:1:0:0:
306,242,81128,1,0,0:1:0:0:
306,242,81274,1,0,0:1:0:0:
306,242,81420,1,0,0:1:0:0:
114,192,81711,5,0,1:1:0:0:
64,142,82002,5,0,0:1:0:0:
114,192,82148,5,0,1:1:0:0:
114,192,82585,1,0,1:1:0:0:
256,192,82876,1,8,0:1:0:0:
114,192,83167,1,0,1:1:0:0:
114,192,83313,1,0,1:1:0:0:
114,192,83458,1,0,1:1:0:0:
114,192,83604,1,0,1:1:0:0:
256,192,83750,1,8,0:1:0:0:
256,50,84041,1,0,1:1:0:0:
306,0,84332,5,0,0:1:0:0:
256,50,84478,5,0,1:1:0:0:
306,0,84624,5,0,0:1:0:0:
256,50,84915,5,0,1:1:0:0:
256,192,85206,1,8,0:1:0:0:
206,142,85352,5,0,0:1:0:0:
206,142,85498,1,0,0:1:0:0:
206,142,85644,1,0,0:1:0:0:
206,142,86080,1,0,0:1:0:0:
398,192,86371,5,0,1:1:0:0:
448,242,86662,5,0,0:1:0:0:
398,192,86808,5,0,1:1:0:0:
448,242,86954,5,0,0:1:0:0:
398,192,87245,5,0,1:1:0:0:
256,192,87536,1,8,0:1:0:0:
306,142,87827,5,0,0:1:0:0:
306,142,87973,1,0,0:1:0:0:
306,142,88119,1,0,0:1:0:0:
306,142,88264,1,0,0:1:0:0:
256,192,88410,5,8,0:1:0:0:
256,334,88701,1,0,1:1:0:0:
206,384,88992,5,0,0:1:0:0:
256,334,89138,5,0,1:1:0:0:
206,384,89429,5,0,0:1:0:0:
256,334,89575,5,0,1:1:0:0:
256,192,89866,1,8,0:1:0:0:
256,334,90012,1,0,1:1:0:0:
256,334,90157,1,0,1:1:0:0:
306,242,90303,5,0,0:1:0:0:
306,242,90449,1,0,0:1:0:0:
306,242,90595,1,0,0:1:0:0:
306,242,90740,1,0,0:1:0:0:
114,192,91031,5,0,1:1:0:0:
64,142,91177,5,0,0:1:0:0:
256,192,91468,5,8,0:1:0:0:
114,192,91905,1,0,1:1:0:0:
256,192,92196,1,8,0:1:0:0:
114,192,92342,1,0,1:1:0:0:
114,192,92488,1,0,1:1:0:0:
256,192,92633,1,8,0:1:0:0:
256,192,92779,1,8,0:1:0:0:
114,192,92924,1,0,1:1:0:0:
206,242,93070,5,0,0:1:0:0:
256,50,93361,5,0,1:1:0:0:
256,50,93798,1,0,1:1:0:0:
306,0,93944,6,0,L|341:0,1,35,2|0,0:2|2:1,0:1:0:0:
206,0,94090,2,0,L|171:0,1,35,2|0,0:2|2:1,0:1:0:0:
256,50,94235,5,0,1:1:0:0:
306,0,94381,6,0,L|341:0,1,35,2|0,0:2|2:1,0:1:0:0:
256,192,94526,5,8,0:1:0:0:
206,142,94818,6,0,L|167:142,1,35,2|0,0:2|2:1,0:1:0:0:
206,142,95109,2,0,L|167:142,1,35,2|0,0:2|2:1,0:1:0:0:
398,192,95691,5,0,1:1:0:0:
448,242,95983,5,0,0:1:0:0:
398,192,96128,5,0,1:1:0:0:
398,192,96565,1,0,1:1:0:0:
256,192,96856,1,8,0:1:0:0:
306,142,97148,5,0,0:1:0:0:
306,142,97294,1,0,0:1:0:0:
306,142,97440,1,0,0:1:0:0:
306,142,97585,1,0,0:1:0:0:
256,192,97730,5,8,0:1:0:0:
256,334,98022,1,0,1:1:0:0:
256,334,98459,1,0,1:1:0:0:
206,384,98604,6,0,L|171:384,1,35,2|0,0:2|2:1,0:1:0:0:
306,384,98750,2,0,L|341:384,1,35,2|0,0:2|2:1,0:1:0:0:
256,334,98896,5,0,1:1:0:0:
206,384,99041,6,0,L|171:384,1,35,2|0,0:2|2:1,0:1:0:0:
256,192,99187,5,8,0:1:0:0:
306,242,99478,6,0,L|345:242,1,35,2|0,0:2|2:1,0:1:0:0:
306,242,99769,2,0,L|345:242,1,35,2|0,0:2|2:1,0:1:0:0:
114,192,100352,5,0,1:1:0:0:
64,142,100643,5,0,0:1:0:0:
114,192,100789,5,0,1:1:0:0:
114,192,101226,1,0,1:1:0:0:
256,192,101517,1,8,0:1:0:0:
114,192,101808,1,0,1:1:0:0:
114,192,101954,1,0,1:1:0:0:
114,192,102099,1,0,1:1:0:0:
114,192,102245,1,0,1:1:0:0:
256,192,102391,1,8,0:1:0:0:
256,50,102682,1,0,1:1:0:0:
306,0,102973,5,0,0:1:0:0:
256,50,103119,5,0,1:1:0:0:
306,0,103265,5,0,0:1:0:0:
256,50,103556,5,0,1:1:0:0:
256,192,103847,1,8,0:1:0:0:
206,142,103993,5,0,0:1:0:0:
206,142,104139,1,0,0:1:0:0:
206,142,104285,1,0,0:1:0:0:
206,142,104721,1,0,0:1:0:0:
398,192,105012,5,0,1:1:0:0:
448,242,105303,5,0,0:1:0:0:
398,192,105449,5,0,1:1:0:0:
448,242,105595,5,0,0:1:0:0:
398,192,105886,5,0,1:1:0:0:
256,192,106177,1,8,0:1:0:0:
306,142,106468,5,0,0:1:0:0:
306,142,106614,1,0,0:1:0:0:
306,142,106760,1,0,0:1:0:0:
306,142,106905,1,0,0:1:0:0:
256,192,107051,5,8,0:1:0:0:
256,334,107342,1,0,1:1:0:0:
256,334,107779,1,0,1:1:0:0:
206,384,107924,6,0,L|171:384,1,35,2|0,0:2|2:1,0:1:0:0:
306,384,108070,2,0,L|341:384,1,35,2|0,0:2|2:1,0:1:0:0:
256,334,108216,5,0,1:1:0:0:
206,384,108361,6,0,L|171:384,1,35,2|0,0:2|2:1,0:1:0:0:
256,192,108507,5,8,0:1:0:0:
256,334,108653,1,0,1:1:0:0:
256,334,108798,1,0,1:1:0:0:
306,242,109090,6,0,L|345:242,1,35,2|0,0:2|2:1,0:1:0:0:
114,192,109672,5,0,1:1:0:0:
64,142,109963,5,0,0:1:0:0:
256,192,110109,5,8,0:1:0:0:
64,142,110255,5,0,0:1:0:0:
114,192,110546,5,0,1:1:0:0:
256,192,110837,1,8,0:1:0:0:
114,192,110983,1,0,1:1:0:0:
114,192,111129,1,0,1:1:0:0:
256,192,111274,1,8,0:1:0:0:
256,192,111420,1,8,0:1:0:0:
114,192,111565,1,0,1:1:0:0:
114,192,111711,1,0,1:1:0:0:
256,384,112002,5,4,1:1:0:0:
133,337,112148,6,0,L|66:310,1,70,2|0,0:3|2:1,0:1:0:0:
256,384,112439,5,0,1:1:0:0:
379,337,112585,6,0,L|446:310,1,70,2|0,0:3|2:1,0:1:0:0:
256,384,112876,5,0,1:1:0:0:
256,192,113167,1,8,0:1:0:0:
256,384,113313,1,0,1:1:0:0:
256,384,113458,1,0,1:1:0:0:
107,192,113750,6,0,L|11:192,1,70,2|0,0:2|2:1,0:1:0:0:
405,192,114041,2,0,L|501:192,1,70,2|0,0:2|2:1,0:1:0:0:
256,0,114332,5,0,1:1:0:0:
133,47,114478,6,0,L|66:74,1,70,2|0,0:3|2:1,0:1:0:0:
256,0,114769,5,0,1:1:0:0:
379,47,114915,6,0,L|446:74,1,70,2|0,0:3|2:1,0:1:0:0:
256,0,115206,5,0,1:1:0:0:
256,78,115352,6,0,L|256:114,1,35,2|0,0:3|2:1,0:1:0:0:
256,192,115497,5,8,0:1:0:0:
256,0,115643,1,0,1:1:0:0:
256,0,115789,1,0,1:1:0:0:
256,78,116080,6,0,L|256:114,1,35,4|0,0:2|2:1,0:1:0:0:
256,192,116371,5,8,0:1:0:0:
256,384,116662,1,4,1:1:0:0:
144,313,116808,6,0,L|168:288,1,35,2|0,0:3|2:1,0:1:0:0:
144,313,116953,2,0,L|117:342,1,35,2|0,0:3|2:1,0:1:0:0:
256,384,117099,5,0,1:1:0:0:
344,288,117245,6,0,L|394:235,1,70,2|0,0:3|2:1,0:1:0:0:
256,384,117536,5,0,1:1:0:0:
256,192,117827,1,8,0:1:0:0:
256,384,117973,1,0,1:1:0:0:
256,384,118119,1,0,1:1:0:0:
94,231,118410,6,0,L|14:251,1,70,2|0,0:2|2:1,0:1:0:0:
418,153,118701,2,0,L|498:133,1,70,2|0,0:2|2:1,0:1:0:0:
256,0,118992,5,0,1:1:0:0:
168,96,119138,6,0,L|118:149,1,70,2|0,0:3|2:1,0:1:0:0:
256,0,119429,5,0,1:1:0:0:
368,71,119575,6,0,L|344:96,1,35,2|0,0:3|2:1,0:1:0:0:
368,71,119720,2,0,L|395:42,1,35,2|0,0:3|2:1,0:1:0:0:
256,0,119866,5,0,1:1:0:0:
256,78,120012,6,0,L|256:114,1,35,2|0,0:3|2:1,0:1:0:0:
256,192,120157,5,8,0:1:0:0:
256,0,120303,1,0,1:1:0:0:
256,0,120449,1,0,1:1:0:0:
256,78,120740,6,0,L|256:114,1,35,4|0,0:2|2:1,0:1:0:0:
256,192,121031,5,8,0:1:0:0:
0,0,121323,1,4,1:1:0:0:
54,129,121468,6,0,L|80:193,1,70,2|0,0:3|2:1,0:1:0:0:
0,0,121759,5,8,1:3:0:0:
140,18,121905,6,0,L|209:27,1,70,2|0,0:3|2:1,0:1:0:0:
0,0,122196,5,8,1:3:0:0:
114,86,122342,6,0,L|144:108,1,35,2|0,0:3|2:1,0:1:0:0:
256,192,122488,5,8,0:1:0:0:
256,384,122633,1,0,1:1:0:0:
256,384,122779,1,0,1:1:0:0:
213,288,123070,6,0,P|264:288|302:254,1,105,2|0,0:2|2:0,0:0:0:0:
512,0,123653,5,0,1:1:0:0:
458,129,123798,6,0,L|432:193,1,70,2|0,0:3|2:1,0:1:0:0:
512,0,124090,5,8,1:3:0:0:
372,17,124235,6,0,P|308:22|274:74,1,105,2|0,0:2|2:0,0:0:0:0:
512,0,124526,5,8,1:3:0:0:
398,86,124672,6,0,L|368:108,1,35,2|0,0:3|2:1,0:1:0:0:
256,192,124818,5,8,0:1:0:0:
512,0,124963,1,8,1:3:0:0:
512,0,125109,1,8,1:3:0:0:
458,129,125400,6,0,P|436:189|377:208,1,105,2|0,0:2|2:1,0:1:0:0:
256,192,125691,5,8,0:1:0:0:
256,384,125983,1,0,1:1:0:0:
101,323,126128,6,0,L|69:309,1,35,2|0,0:3|2:1,0:1:0:0:
101,323,126274,2,0,L|133:337,1,35,2|0,0:3|2:1,0:1:0:0:
256,384,126420,5,0,1:1:0:0:
411,323,126565,6,0,L|443:309,1,35,2|0,0:3|2:1,0:1:0:0:
411,323,126711,2,0,L|379:337,1,35,2|0,0:3|2:1,0:1:0:0:
256,384,126857,5,0,1:1:0:0:
256,306,127002,6,0,L|256:270,1,35,2|0,0:3|2:1,0:1:0:0:
256,192,127148,5,8,0:1:0:0:
256,384,127293,1,0,1:1:0:0:
256,384,127439,1,0,1:1:0:0:
154,238,127730,6,0,L|138:170,1,70,2|0,0:2|2:1,0:1:0:0:
256,0,128313,5,0,1:1:0:0:
374,170,128458,6,0,L|358:238,1,70,2|0,0:3|2:1,0:1:0:0:
256,192,128750,5,8,0:1:0:0:
166,58,128895,6,0,L|173:92,1,35,2|0,0:3|2:1,0:1:0:0:
338,92,129041,2,0,L|346:58,1,35,2|0,0:3|2:1,0:1:0:0:
256,0,129187,5,0,1:1:0:0:
256,78,129332,6,0,L|256:114,1,35,2|0,0:3|2:1,0:1:0:0:
256,192,129478,5,8,0:1:0:0:
256,384,129624,1,0,1:1:0:0:
256,384,129769,1,0,1:1:0:0:
256,192,129915,1,8,0:1:0:0:
256,192,130060,1,8,0:1:0:0:
256,271,130206,6,0,L|256:306,1,35,4|0,0:2|2:1,0:1:0:0:
256,384,130643,5,4,1:1:0:0:
142,343,130789,6,0,L|76:319,1,70,2|0,0:3|2:1,0:1:0:0:
256,384,131080,5,0,1:1:0:0:
144,225,131225,6,0,L|101:162,1,70,2|0,0:3|2:1,0:1:0:0:
256,384,131517,5,0,1:1:0:0:
256,192,131808,1,8,0:1:0:0:
256,384,131954,1,0,1:1:0:0:
256,384,132099,1,0,1:1:0:0:
144,225,132245,6,0,L|104:167,1,70,0|2,0:1|2:2,0:1:0:0:
142,343,132536,2,0,L|76:319,1,70,0|2,0:1|2:2,0:1:0:0:
256,0,132973,5,0,1:1:0:0:
370,41,133119,6,0,L|436:65,1,70,2|0,0:3|2:1,0:1:0:0:
256,0,133410,5,0,1:1:0:0:
368,159,133555,6,0,L|411:222,1,70,2|0,0:3|2:1,0:1:0:0:
256,0,133847,5,0,1:1:0:0:
256,78,133992,6,0,L|256:114,1,35,2|0,0:3|2:1,0:1:0:0:
256,192,134138,5,8,0:1:0:0:
256,0,134284,1,0,1:1:0:0:
256,0,134429,1,0,1:1:0:0:
256,78,134575,6,0,L|256:114,1,35,2|4,0:3|2:2,0:1:0:0:
256,192,135012,5,8,0:1:0:0:
256,384,135303,1,4,1:1:0:0:
144,313,135449,6,0,L|168:288,1,35,2|0,0:3|2:1,0:1:0:0:
144,313,135594,2,0,L|120:338,1,35,2|0,0:3|2:1,0:1:0:0:
256,384,135740,5,0,1:1:0:0:
75,257,135886,6,0,L|11:282,1,70,2|0,0:3|2:1,0:1:0:0:
256,384,136177,5,0,1:1:0:0:
256,192,136468,1,8,0:1:0:0:
256,384,136614,1,0,1:1:0:0:
256,384,136759,1,0,1:1:0:0:
75,257,136905,6,0,L|11:282,1,70,0|2,0:1|2:2,0:1:0:0:
168,288,137196,2,0,L|118:341,1,70,0|2,0:1|2:2,0:1:0:0:
256,0,137633,5,0,1:1:0:0:
344,96,137779,6,0,L|394:43,1,70,2|0,0:3|2:1,0:1:0:0:
256,0,138070,5,0,1:1:0:0:
469,114,138216,6,0,L|436:126,1,35,2|0,0:3|2:1,0:1:0:0:
469,114,138361,2,0,L|531:90,1,35,2|0,0:3|2:1,0:1:0:0:
256,0,138507,5,0,1:1:0:0:
256,78,138653,6,0,L|256:114,1,35,2|0,0:3|2:1,0:1:0:0:
256,192,138798,5,8,0:1:0:0:
256,0,138944,1,0,1:1:0:0:
256,0,139089,1,0,1:1:0:0:
256,78,139235,6,0,L|256:114,1,35,2|4,0:3|2:2,0:1:0:0:
256,192,139672,5,8,0:1:0:0:
0,0,139963,1,4,1:1:0:0:
54,129,140255,6,0,L|78:188,1,35,2|0,0:3|2:1,0:1:0:0:
0,0,140400,5,8,1:3:0:0:
140,18,140546,6,0,L|203:26,1,35,2|0,0:3|2:1,0:1:0:0:
140,18,140691,2,0,L|203:26,1,35,2|0,0:3|2:1,0:1:0:0:
0,0,140837,5,8,1:3:0:0:
114,86,140983,6,0,L|144:108,1,35,2|0,0:3|2:1,0:1:0:0:
256,192,141128,5,8,0:1:0:0:
256,384,141274,1,0,1:1:0:0:
256,384,141420,1,0,1:1:0:0:
256,306,141857,6,0,L|256:271,1,35,2|0,0:2|2:1,0:1:0:0:
256,306,142003,2,0,L|256:271,1,35,2|0,0:2|2:0,0:0:0:0:
512,0,142293,5,0,1:1:0:0:
458,129,142439,6,0,L|434:188,1,35,2|0,0:3|2:1,0:1:0:0:
512,0,142730,5,8,1:3:0:0:
372,18,142876,6,0,L|309:26,1,35,2|0,0:3|2:1,0:1:0:0:
372,18,143021,2,0,L|309:26,1,35,2|0,0:3|2:1,0:1:0:0:
512,0,143167,5,8,1:3:0:0:
398,86,143313,6,0,L|368:108,1,35,2|0,0:3|2:1,0:1:0:0:
256,192,143458,5,8,0:1:0:0:
512,0,143604,1,8,1:3:0:0:
512,0,143750,1,8,1:3:0:0:
398,86,143895,6,0,L|368:108,1,35,2|4,0:3|0:2,0:1:0:0:
256,192,144332,5,8,0:1:0:0:
256,384,144624,1,0,1:1:0:0:
108,331,144769,6,0,L|76:319,1,35,2|0,0:3|2:1,0:1:0:0:
108,331,144915,2,0,L|76:319,1,35,2|0,0:3|2:1,0:1:0:0:
256,384,145060,5,0,1:1:0:0:
144,225,145206,6,0,L|108:173,1,35,2|0,0:3|2:1,0:1:0:0:
144,225,145352,2,0,L|108:173,1,35,2|0,0:3|2:1,0:1:0:0:
256,384,145497,5,0,1:1:0:0:
256,306,145643,6,0,L|256:270,1,35,2|0,0:3|2:1,0:1:0:0:
256,192,145789,5,8,0:1:0:0:
256,384,145934,1,0,1:1:0:0:
256,384,146080,1,0,1:1:0:0:
256,306,146517,6,0,L|256:271,1,35,2|0,0:2|2:1,0:1:0:0:
256,306,146663,2,0,L|256:271,1,35,2|0,0:2|2:1,0:1:0:0:
256,0,146954,5,0,1:1:0:0:
368,159,147099,6,0,L|404:211,1,35,2|0,0:3|2:1,0:1:0:0:
368,159,147245,2,0,L|404:211,1,35,2|0,0:3|2:1,0:1:0:0:
256,192,147391,5,8,0:1:0:0:
403,52,147536,6,0,L|435:64,1,35,2|0,0:3|2:1,0:1:0:0:
403,52,147682,2,0,L|435:64,1,35,2|0,0:3|2:1,0:1:0:0:
256,0,147828,5,0,1:1:0:0:
256,78,147973,6,0,L|256:114,1,35,2|0,0:3|2:1,0:1:0:0:
256,192,148119,5,8,0:1:0:0:
256,384,148264,1,0,1:1:0:0:
256,384,148410,1,0,1:1:0:0:
256,192,148556,1,8,0:1:0:0:
256,192,148701,1,8,0:1:0:0:
256,271,148847,6,0,L|256:306,1,35,4|0,0:2|2:1,0:1:0:0:
256,271,149138,2,0,L|256:306,1,35,4|0,0:2|2:1,0:1:0:0:
256,384,149284,5,4,1:1:0:0:
86,297,149429,6,2,B|133:284|143:340|138:340|132:341|143:397|190:384,1,157.500006008148,2|0,0:1|2:1,0:1:0:0:
256,384,149721,5,0,1:1:0:0:
321,384,149793,6,2,B|368:397|379:341|373:340|368:340|378:284|426:297,1,157.500006008148,2|0,0:1|2:1,0:1:0:0:
256,384,150157,5,0,1:1:0:0:
256,192,150449,1,8,0:1:0:0:
256,384,150594,1,0,1:1:0:0:
256,384,150740,1,0,1:1:0:0:
184,192,150886,5,2,0:2:0:0:
184,192,150958,1,2,0:2:0:0:
184,192,151031,2,2,B|156:232|196:296|232:236|256:308|256:308|280:236|316:296|356:232|328:192,1,315.000012016297,2|0,0:1|2:1,0:1:0:0:
256,0,151614,5,0,1:1:0:0:
86,87,151759,6,2,B|133:99|143:43|138:43|132:42|143:-13|190:0,1,157.500006008148,2|0,0:1|2:1,0:1:0:0:
256,0,152051,5,0,1:1:0:0:
321,0,152124,6,2,B|368:-13|379:42|373:43|368:43|378:99|426:87,1,157.500006008148,2|0,0:1|2:1,0:1:0:0:
256,0,152487,5,0,1:1:0:0:
256,78,152633,6,0,L|256:114,1,35,2|0,0:3|2:1,0:1:0:0:
256,192,152779,5,8,0:1:0:0:
256,0,152925,1,0,1:1:0:0:
256,0,153070,1,0,1:1:0:0:
256,113,153216,6,0,L|256:78,2,35,2|4|0,0:3|0:2|0:0,0:0:0:0:
256,192,153653,5,8,0:1:0:0:
256,271,153725,6,0,L|256:306,1,35,2|0,0:3|0:0,0:0:0:0:
256,384,153944,5,4,1:1:0:0:
144,313,154090,6,0,L|168:288,1,35,2|0,0:3|2:1,0:1:0:0:
144,313,154235,2,0,L|117:342,1,35,2|0,0:3|2:1,0:1:0:0:
256,384,154381,5,0,1:1:0:0:
344,288,154527,6,0,L|394:235,1,70,2|0,0:3|2:1,0:1:0:0:
256,384,154818,5,0,1:1:0:0:
256,192,155109,1,8,0:1:0:0:
256,384,155255,1,0,1:1:0:0:
256,384,155401,1,0,1:1:0:0:
256,260,155691,6,2,B|276:246|257:224|256:226|254:227|236:206|256:192,1,78.7500030040742,2|0,0:2|2:2,0:2:0:0:
256,0,156274,5,0,1:1:0:0:
168,96,156420,6,0,L|118:149,1,70,2|0,0:3|2:1,0:1:0:0:
256,0,156711,5,0,1:1:0:0:
368,71,156857,6,0,L|344:96,1,35,2|0,0:3|2:1,0:1:0:0:
368,71,157002,2,0,L|395:42,1,35,2|0,0:3|2:1,0:1:0:0:
256,0,157148,5,0,1:1:0:0:
256,78,157294,6,0,L|256:114,1,35,2|0,0:3|2:1,0:1:0:0:
256,192,157439,5,8,0:1:0:0:
256,0,157585,1,0,1:1:0:0:
256,0,157731,1,0,1:1:0:0:
256,113,157876,6,0,L|256:78,2,35,2|4|0,0:3|0:2|0:0,0:0:0:0:
256,192,158313,5,8,0:1:0:0:
0,0,158604,1,4,1:1:0:0:
197,23,158750,6,2,B|163:58|126:15|130:11|135:8|98:-34|64:0,1,157.500006008148,2|0,0:1|2:1,0:1:0:0:
0,0,159041,5,8,1:3:0:0:
16,60,159114,6,2,B|-7:102|43:126|45:121|47:115|99:139|75:182,1,157.500006008148,2|0,0:1|2:1,0:1:0:0:
0,0,159478,5,8,1:3:0:0:
114,85,159624,6,0,L|143:107,1,35,2|0,0:3|2:1,0:1:0:0:
256,192,159769,5,8,0:1:0:0:
256,384,159915,1,0,1:1:0:0:
256,384,160060,1,0,1:1:0:0:
324,278,160206,6,2,B|302:321|253:293|256:288|260:284|211:255|189:299,2,157.500006008148,2|2|2,0:2|0:2|0:2,0:2:0:0:
512,0,160934,5,0,1:1:0:0:
315,23,161080,6,2,B|349:58|386:15|382:11|377:8|414:-34|448:0,1,157.500006008148,2|0,0:1|2:1,0:1:0:0:
512,0,161371,5,8,1:3:0:0:
496,60,161444,6,2,B|519:102|469:126|467:121|465:115|413:139|437:182,1,157.500006008148,2|0,0:1|2:1,0:1:0:0:
512,0,161808,5,8,1:3:0:0:
398,85,161954,6,0,L|369:107,1,35,2|0,0:3|2:1,0:1:0:0:
256,192,162099,5,8,0:1:0:0:
512,0,162245,1,8,1:3:0:0:
512,0,162391,1,8,1:3:0:0:
370,106,162536,6,0,L|398:85,2,35,2|4|0,0:3|0:2|0:1,0:1:0:0:
256,192,162973,5,8,0:1:0:0:
256,384,163264,1,0,1:1:0:0:
101,323,163410,6,0,L|69:309,1,35,2|0,0:3|2:1,0:1:0:0:
101,323,163555,2,0,L|133:337,1,35,2|0,0:3|2:1,0:1:0:0:
256,384,163701,5,0,1:1:0:0:
411,323,163847,6,0,L|443:309,1,35,2|0,0:3|2:1,0:1:0:0:
411,323,163992,2,0,L|379:337,1,35,2|0,0:3|2:1,0:1:0:0:
256,384,164138,5,0,1:1:0:0:
256,306,164284,6,0,L|256:270,1,35,2|0,0:3|2:1,0:1:0:0:
256,192,164429,5,8,0:1:0:0:
256,384,164574,1,0,1:1:0:0:
256,384,164720,1,0,1:1:0:0:
154,238,165011,6,0,L|138:170,1,70,2|0,0:2|2:1,0:1:0:0:
256,0,165594,5,0,1:1:0:0:
374,170,165740,6,0,L|358:238,1,70,2|0,0:3|2:1,0:1:0:0:
256,192,166031,5,8,0:1:0:0:
166,58,166177,6,0,L|173:92,1,35,2|0,0:3|2:1,0:1:0:0:
338,92,166322,2,0,L|346:58,1,35,2|0,0:3|2:1,0:1:0:0:
256,0,166468,5,0,1:1:0:0:
256,78,166614,6,0,L|256:114,1,35,2|0,0:3|2:1,0:1:0:0:
256,192,166759,5,8,0:1:0:0:
256,384,166905,1,0,1:1:0:0:
256,384,167050,1,0,1:1:0:0:
256,192,167196,1,8,0:1:0:0:
256,192,167341,1,8,0:1:0:0:
152,364,167488,6,0,B|140:328|188:288|232:348|256:272|256:272|280:348|324:288|372:328|360:364,1,315.000012016297,4|2,0:2|0:2,0:0:0:0:
