osu file format v14

[General]
AudioFilename: Leslie_Wai_-_Paradigm_(Official_Audio).mp3
AudioLeadIn: 0
PreviewTime: 303047
Countdown: 0
SampleSet: Normal
StackLeniency: 0.7
Mode: 0
LetterboxInBreaks: 0
WidescreenStoryboard: 0

[Editor]
DistanceSpacing: 0.8
BeatDivisor: 4
GridSize: 4
TimelineZoom: 2.799999

[Metadata]
Title:Paradigm
TitleUnicode:Paradigm
Artist:Leslie Wai
ArtistUnicode:Leslie Wai
Creator:aktos
Version:Marathon
Source:
Tags:Electronic
BeatmapID:839842
BeatmapSetID:384341

[Difficulty]
HPDrainRate:4
CircleSize:4
OverallDifficulty:7
ApproachRate:8
SliderMultiplier:2.09999990463257
SliderTickRate:2

[Events]
//Background and Video events
0,0,"maxresdefault.jpg",0,0
//Break Periods
2,30017,36451
2,37401,43836
2,59555,71528
2,207247,220917
2,295863,302147
2,338093,339070
2,362093,364917
//Storyboard Layer 0 (Background)
//Storyboard Layer 1 (Fail)
//Storyboard Layer 2 (Pass)
//Storyboard Layer 3 (Foreground)
//Storyboard Sound Samples

[TimingPoints]
29817,461.538461538462,4,1,0,66,1,0
44586,-100,4,1,0,66,0,0
55663,-66.6666666666667,4,1,0,45,0,0
58432,-66.6666666666667,4,1,0,45,0,0
58547,-100,4,1,0,45,0,0
59355,-100,4,1,0,45,0,0
74124,-76.9230769230769,4,1,0,66,0,1
76086,-76.9230769230769,4,1,0,5,0,1
76317,-76.9230769230769,4,1,0,66,0,1
86009,-133.333333333333,4,1,0,66,0,1
88778,-133.333333333333,4,1,0,66,0,1
88893,-66.6666666666667,4,1,0,66,0,1
90855,-83.3333333333333,4,1,0,5,0,1
91086,-83.3333333333333,4,1,0,66,0,1
103663,-100,4,1,0,66,0,0
104470,-66.6666666666667,4,1,0,66,0,0
105393,-100,4,1,0,66,0,0
105509,-100,4,1,0,66,0,0
106317,-66.6666666666667,4,1,0,66,0,0
107240,-100,4,1,0,66,0,0
108047,-100,4,1,0,66,0,0
108278,-100,4,1,0,66,0,0
111047,-100,4,1,0,66,0,0
111797,-100,4,1,0,66,0,0
111970,-100,4,1,0,66,0,0
114509,-100,4,1,0,66,0,0
114740,-100,4,1,0,66,0,0
115432,-100,4,1,0,66,0,0
115663,-100,4,1,0,66,0,0
122124,-66.6666666666667,4,1,0,66,0,0
122355,-100,4,1,0,66,0,0
122586,-66.6666666666667,4,1,0,66,0,0
122817,-100,4,1,0,66,0,0
125586,-100,4,1,0,66,0,0
125817,-100,4,1,0,66,0,0
126509,-100,4,1,0,66,0,0
126740,-100,4,1,0,66,0,0
140586,-100,4,1,0,66,0,0
144047,-100,4,1,0,66,0,0
146932,-66.6666666666667,4,1,0,66,0,1
147855,-100,4,1,0,66,0,0
177740,-76.9230769230769,4,1,0,66,0,0
180970,-50,4,1,0,66,0,0
181201,-100,4,1,0,66,0,0
184662,-66.6666666666667,4,1,0,66,0,0
184893,-76.9230769230769,4,1,0,66,0,0
185124,-76.9230769230769,4,1,0,66,0,0
188355,-100,4,1,0,66,0,0
192509,-76.9230769230769,4,1,0,66,0,0
195970,-100,4,1,0,66,0,0
196778,-100,4,3,0,5,0,0
197355,-50,4,3,0,5,0,0
197932,-76.9230769230769,4,1,0,66,0,0
199893,-76.9230769230769,4,1,0,66,0,0
205201,-100,4,1,0,5,0,0
207047,-100,4,1,0,65,0,0
221855,-100,4,1,0,5,0,0
222663,-100,4,1,0,5,0,0
222740,-100,4,1,0,65,0,0
222778,-100,4,1,0,5,0,0
223586,-100,4,1,0,5,0,0
223663,-100,4,1,0,64,0,0
223701,-100,4,1,0,5,0,0
224509,-100,4,1,0,65,0,0
224624,-100,4,1,0,5,0,0
225393,-100,4,1,0,5,0,0
225509,-100,4,1,0,66,0,0
225547,-100,4,1,0,5,0,0
226317,-100,4,1,0,5,0,0
226432,-100,4,1,0,64,0,0
226470,-100,4,1,0,5,0,0
227240,-100,4,1,0,5,0,0
227355,-100,4,1,0,64,0,0
227393,-100,4,1,0,5,0,0
228163,-100,4,1,0,5,0,0
228278,-100,4,1,0,65,0,0
228317,-100,4,1,0,5,0,0
229086,-100,4,1,0,5,0,0
229201,-100,4,1,0,65,0,0
229317,-100,4,1,0,5,0,0
236509,-100,4,1,0,5,0,0
236586,-200,4,1,0,65,0,0
237509,-100,4,1,0,65,0,0
241086,-66.6666666666667,4,1,0,65,0,0
242932,-100,4,1,0,65,0,0
244317,-100,4,1,0,5,0,0
244547,-100,4,1,0,67,0,0
251355,-200,4,1,0,65,0,0
252163,-200,4,1,0,65,0,0
252278,-100,4,1,0,65,0,0
254124,-66.6666666666667,4,1,0,65,0,0
254932,-100,4,1,0,65,0,0
258624,-133.333333333333,4,1,0,5,0,0
259663,-100,4,1,0,65,0,0
261970,-100,4,1,0,30,0,0
262201,-100,4,1,0,30,0,0
262240,-100,4,1,0,65,0,0
279047,-100,4,1,0,25,0,0
280817,-100,4,1,0,25,0,0
280893,-100,4,1,0,65,0,0
285586,-100,4,1,0,35,0,0
285701,-100,4,1,0,65,0,0
285778,-100,4,1,0,35,0,0
285893,-100,4,1,0,65,0,0
285970,-100,4,1,0,35,0,0
286047,-100,4,1,0,65,0,0
295624,-100,4,1,0,5,0,0
295701,-100,4,1,0,65,0,0
303047,-83.3333333333333,4,1,0,65,0,1
306278,-50,4,1,0,65,0,1
306624,-83.3333333333333,4,1,0,65,0,1
312624,-83.3333333333333,4,1,0,5,0,1
312740,-83.3333333333333,4,1,0,65,0,1
313086,-83.3333333333333,4,1,0,5,0,1
313201,-83.3333333333333,4,1,0,65,0,1
332586,-100,4,1,0,65,0,0
391432,-100,4,1,0,85,0,0
418893,-50,4,1,0,65,0,0
421201,-100,4,1,0,40,0,0
423393,-100,4,1,0,35,0,0
425240,-100,4,1,0,30,0,0
427086,-100,4,1,0,20,0,0
428586,-100,4,1,0,15,0,0
432278,-100,4,1,0,10,0,0
434470,-200,4,1,0,5,0,0
435740,-200,4,1,0,5,0,0

[HitObjects]
255,189,29817,5,0,0:0:0:0:
256,184,37201,5,0,0:0:0:0:
256,303,44586,5,0,0:0:0:0:
176,156,45047,1,0,0:0:0:0:
256,303,45509,1,0,0:0:0:0:
176,156,45970,1,0,0:0:0:0:
328,84,46432,5,0,0:0:0:0:
256,236,46893,1,0,0:0:0:0:
328,84,47355,1,0,0:0:0:0:
256,236,47817,1,0,0:0:0:0:
160,100,48278,5,0,0:0:0:0:
84,296,48740,2,0,L|168:92,1,209.999990463257
163,101,49663,1,0,0:0:0:0:
332,92,50124,2,0,B|356:116|356:116|344:136|344:136|376:156|376:156|356:184|356:184|388:204|388:204|372:240|372:240|400:268|400:268,2,209.999990463257
332,92,51509,1,0,0:0:0:0:
96,68,51970,6,0,L|40:92,2,52.4999976158143
96,232,52432,1,0,0:0:0:0:
272,56,52663,1,0,0:0:0:0:
160,192,52893,6,0,L|212:124,2,52.4999976158143
284,308,53355,1,0,0:0:0:0:
176,76,53586,1,0,0:0:0:0:
292,184,53817,6,0,L|296:264,2,52.4999976158143
192,304,54278,1,0,0:0:0:0:
336,64,54509,1,0,0:0:0:0:
294,236,54740,6,0,L|288:144,2,52.4999976158143
290,184,55201,2,0,L|295:257,2,52.4999976158143
44,320,55663,6,2,L|68:240,1,78.7499994277954
84,296,55893,2,2,L|112:208,1,78.7499994277954
128,280,56124,2,2,L|176:188,1,78.7499994277954
176,264,56355,2,2,L|228:192,1,78.7499994277954
226,269,56586,2,2,L|290:217,1,78.7499994277954
372,240,56817,6,2,L|308:300,1,78.7499994277954
344,196,57047,2,2,L|252:228,1,78.7499994277954
320,152,57278,2,2,L|216:164,1,78.7499994277954
304,104,57509,2,2,L|208:96,1,78.7499994277954
80,284,57740,2,2,L|120:212,1,78.7499994277954
144,276,57970,2,2,L|192:208,1,78.7499994277954
200,284,58201,2,2,L|272:232,1,78.7499994277954
264,168,58432,5,2,0:0:0:0:
304,140,58547,1,2,0:0:0:0:
340,172,58663,1,2,0:0:0:0:
348,212,58778,1,2,0:0:0:0:
320,244,58893,1,2,0:0:0:0:
280,252,59009,1,2,0:0:0:0:
240,248,59124,1,2,0:0:0:0:
208,220,59240,1,2,0:0:0:0:
204,180,59355,1,2,0:0:0:0:
424,104,72278,5,8,0:0:0:0:
448,184,72509,2,0,L|464:260,2,52.4999976158143,0|0|10,0:0|0:0|0:0,0:0:0:0:
424,104,72970,5,8,0:0:0:0:
292,88,73201,1,6,0:0:0:0:
352,184,73432,2,8,L|316:248,1,69.9999968210857,8|0,0:0|0:0,0:0:0:0:
292,252,73663,1,10,0:0:0:0:
208,256,73893,1,2,0:0:0:0:
168,240,74009,1,6,0:0:0:0:
128,212,74124,6,0,B|128:104|164:48|304:48,1,272.999975105287,8|0,0:0|0:0,0:0:0:0:
372,28,74817,5,4,0:0:0:0:
368,128,75047,2,0,L|316:76,2,68.2499937763218,8|0|4,0:0|0:0|0:0,0:0:0:0:
316,160,75393,1,0,0:0:0:0:
296,180,75509,1,8,0:0:0:0:
296,208,75624,1,0,0:0:0:0:
312,232,75740,1,2,0:0:0:0:
332,244,75855,1,0,0:0:0:0:
360,256,75970,6,0,B|432:268|432:268|456:328,2,136.499987552644,8|0|8,0:0|0:0|0:0,0:0:0:0:
284,308,76662,1,0,0:0:0:0:
160,300,76893,5,8,0:0:0:0:
132,260,77008,1,0,0:0:0:0:
112,212,77124,1,0,0:0:0:0:
92,164,77240,2,0,L|76:72,3,68.2499937763218,0|8|2|0,0:0|0:0|0:0|0:0,0:0:0:0:
228,96,77817,6,0,B|189:1,3,68.2499937763218,8|0|0|0,0:0|0:0|0:0|0:0,0:0:0:0:
156,48,78278,5,0,0:0:0:0:
136,96,78393,1,0,0:0:0:0:
132,148,78509,1,0,0:0:0:0:
144,196,78624,1,0,0:0:0:0:
180,232,78739,6,0,B|220:188|284:196|340:236,2,136.499987552644,8|8|10,0:0|0:0|0:0,0:0:0:0:
264,292,79432,1,0,0:0:0:0:
296,288,79509,1,0,0:0:0:0:
328,276,79586,1,0,0:0:0:0:
356,260,79663,1,8,0:0:0:0:
296,180,79893,1,0,0:0:0:0:
376,116,80124,1,8,0:0:0:0:
132,292,80355,1,0,0:0:0:0:
259,43,80816,1,0,0:0:0:0:
168,56,81047,2,0,L|92:108,2,68.2499937763218,8|0|0,0:0|0:0|0:0,0:0:0:0:
220,164,81509,6,0,B|228:28|388:12|380:160|304:152|308:92,1,272.999975105287,8|8,0:0|0:0,0:0:0:0:
313,110,82201,1,0,0:0:0:0:
228,156,82432,1,8,0:0:0:0:
180,172,82547,1,0,0:0:0:0:
140,144,82663,1,0,0:0:0:0:
156,96,82778,1,0,0:0:0:0:
196,68,82893,2,0,L|120:0,2,68.2499937763218,8|0|2,0:0|0:0|0:0,0:0:0:0:
304,60,83355,6,0,B|313:118|192:184,1,136.499987552644,8|0,0:0|0:0,0:0:0:0:
216,256,83817,2,0,B|174:286|68:176,1,136.499987552644,8|0,0:0|0:0,0:0:0:0:
48,136,84278,1,8,0:0:0:0:
72,92,84393,1,0,0:0:0:0:
116,68,84509,1,0,0:0:0:0:
160,76,84624,2,0,B|168:-4,2,68.2499937763218,0|8|0,0:0|0:0|0:0,0:0:0:0:
224,168,85201,6,0,B|320:196|320:196|248:244|248:244|216:152,1,272.999975105287,8|8,0:0|0:0,0:0:0:0:
219,162,85893,1,0,0:0:0:0:
152,64,86124,5,8,0:0:0:0:
400,196,86355,1,0,0:0:0:0:
96,232,86586,1,8,0:0:0:0:
100,152,86817,1,0,0:0:0:0:
336,332,87278,1,0,0:0:0:0:
88,60,87509,6,0,B|168:24|168:24|248:40|216:108|216:108|272:124,1,236.249998283386
300,212,88432,1,0,0:0:0:0:
184,232,88663,1,0,0:0:0:0:
48,176,88893,6,0,B|-24:116|88:48|268:68,1,314.999997711182,8|8,0:0|0:0,0:0:0:0:
368,53,89586,1,0,0:0:0:0:
228,240,89817,1,8,0:0:0:0:
188,248,89932,1,0,0:0:0:0:
148,240,90047,1,0,0:0:0:0:
112,220,90163,1,0,0:0:0:0:
152,220,90278,5,8,0:0:0:0:
192,216,90393,1,0,0:0:0:0:
232,204,90509,1,0,0:0:0:0:
272,188,90624,1,2,0:0:0:0:
264,136,90740,6,0,B|284:64|284:64|204:20,2,157.499998855591,8|0|8,0:0|0:0|0:0,0:0:0:0:
356,180,91432,1,0,0:0:0:0:
288,256,91663,1,8,0:0:0:0:
244,252,91778,1,0,0:0:0:0:
208,232,91893,1,0,0:0:0:0:
176,204,92009,1,0,0:0:0:0:
148,168,92124,2,0,B|100:120|112:56|168:24,1,125.99999043274,8|2,0:0|0:0,0:0:0:0:
324,32,92586,5,8,0:0:0:0:
85,226,92817,1,0,0:0:0:0:
324,32,93047,1,8,0:0:0:0:
85,226,93278,1,0,0:0:0:0:
244,232,93509,2,0,L|312:256,4,62.9999952163698,8|0|0|0|8,0:0|0:0|0:0|0:0|0:0,0:0:0:0:
364,85,94201,2,0,L|316:44,1,62.9999952163698
368,89,94432,5,8,0:0:0:0:
352,257,94663,1,0,0:0:0:0:
105,244,94893,1,8,0:0:0:0:
80,56,95124,1,0,0:0:0:0:
423,229,95586,1,0,0:0:0:0:
356,302,95817,1,8,0:0:0:0:
256,304,96047,1,2,0:0:0:0:
204,304,96163,1,2,0:0:0:0:
156,296,96278,6,0,B|156:200|-68:200|224:64|144:224,1,251.999980865479,8|8,0:0|0:0,0:0:0:0:
366,242,96970,1,0,0:0:0:0:
380,144,97201,1,8,0:0:0:0:
420,112,97317,1,0,0:0:0:0:
436,64,97432,1,0,0:0:0:0:
416,16,97547,1,0,0:0:0:0:
388,56,97663,5,8,0:0:0:0:
352,92,97779,1,0,0:0:0:0:
308,116,97893,1,0,0:0:0:0:
260,128,98009,1,2,0:0:0:0:
248,28,98124,6,0,B|120:28,1,125.99999043274,8|0,0:0|0:0,0:0:0:0:
120,308,98586,2,0,L|256:308,1,125.99999043274,8|0,0:0|0:0,0:0:0:0:
343,38,99047,1,8,0:0:0:0:
376,68,99163,1,0,0:0:0:0:
408,96,99278,1,0,0:0:0:0:
444,132,99393,1,0,0:0:0:0:
404,164,99509,1,10,0:0:0:0:
312,208,99740,1,0,0:0:0:0:
176,120,99970,6,0,B|196:12|72:4|60:168|184:120,1,251.999980865479,8|8,0:0|0:0,0:0:0:0:
128,212,100663,1,0,0:0:0:0:
184,36,100893,1,8,0:0:0:0:
128,212,101124,1,0,0:0:0:0:
396,224,101355,1,8,0:0:0:0:
128,212,101586,1,0,0:0:0:0:
380,72,102047,1,0,0:0:0:0:
376,344,102278,1,8,0:0:0:0:
244,116,102509,1,0,0:0:0:0:
160,336,102970,1,0,0:0:0:0:
244,116,103201,1,8,0:0:0:0:
64,216,103432,1,2,0:0:0:0:
328,116,103663,5,8,0:0:0:0:
63,325,104124,1,12,0:0:0:0:
68,60,104586,1,8,0:0:0:0:
368,40,104817,1,0,0:0:0:0:
228,216,105047,1,8,0:0:0:0:
68,59,105278,1,2,0:0:0:0:
99,215,105509,6,0,P|136:258|184:248,1,104.999995231629,8|0,0:0|0:0,0:0:0:0:
99,215,105970,2,0,P|145:241|197:204,1,104.999995231629,8|0,0:0|0:0,0:0:0:0:
188,152,106432,5,8,0:0:0:0:
384,104,106663,1,0,0:0:0:0:
328,300,106893,1,8,0:0:0:0:
88,264,107124,1,2,0:0:0:0:
288,130,107355,2,0,P|306:86|288:32,1,104.999995231629,8|0,0:0|0:0,0:0:0:0:
346,111,107817,2,0,P|312:43|272:31,1,104.999995231629,8|0,0:0|0:0,0:0:0:0:
136,168,108278,5,8,0:0:0:0:
176,340,108509,1,0,0:0:0:0:
400,188,108740,1,8,0:0:0:0:
104,52,108970,1,2,0:0:0:0:
316,32,109201,2,0,B|384:32|384:32|384:84,1,104.999995231629,8|0,0:0|0:0,0:0:0:0:
296,204,109663,1,8,0:0:0:0:
296,204,109893,1,0,0:0:0:0:
84,240,110124,1,8,0:0:0:0:
123,86,110355,1,0,0:0:0:0:
156,60,110470,1,0,0:0:0:0:
196,48,110586,1,8,0:0:0:0:
384,84,110817,1,2,0:0:0:0:
166,206,111047,6,0,B|120:180|120:180|148:131,1,104.999995231629,8|0,0:0|0:0,0:0:0:0:
104,208,111509,2,0,B|92:161|92:161|153:130,1,104.999995231629,8|0,0:0|0:0,0:0:0:0:
440,48,111970,1,8,0:0:0:0:
124,96,112201,1,0,0:0:0:0:
328,268,112432,1,8,0:0:0:0:
124,96,112663,1,2,0:0:0:0:
328,268,112893,1,8,0:0:0:0:
216,48,113124,1,0,0:0:0:0:
260,48,113240,1,0,0:0:0:0:
300,48,113355,1,8,0:0:0:0:
152,168,113586,5,0,0:0:0:0:
180,300,113817,1,8,0:0:0:0:
304,184,114047,1,0,0:0:0:0:
352,312,114278,1,0,0:0:0:0:
352,312,114509,1,2,0:0:0:0:
180,80,114740,6,0,B|220:40|220:40|261:81,1,104.999995231629,8|0,0:0|0:0,0:0:0:0:
328,84,115201,2,0,B|292:41|292:41|245:84,1,104.999995231629,8|0,0:0|0:0,0:0:0:0:
96,184,115663,1,8,0:0:0:0:
256,328,115893,1,0,0:0:0:0:
424,180,116124,1,8,0:0:0:0:
255,74,116355,1,2,0:0:0:0:
132,64,116586,6,0,L|211:139,1,104.999995231629,8|0,0:0|0:0,0:0:0:0:
384,68,117047,2,0,L|301:145,1,104.999995231629,8|0,0:0|0:0,0:0:0:0:
256,196,117509,2,0,L|256:328,1,122.4999944369,8|0,0:0|0:0,0:0:0:0:
256,248,117970,1,8,0:0:0:0:
256,164,118201,1,2,0:0:0:0:
128,104,118432,6,0,P|139:71|212:57,1,104.999995231629,8|0,0:0|0:0,0:0:0:0:
380,280,118893,2,0,P|360:320|297:331,1,104.999995231629,8|0,0:0|0:0,0:0:0:0:
201,52,119355,2,0,P|248:31|297:56,1,104.999995231629,8|0,0:0|0:0,0:0:0:0:
301,333,119817,2,0,P|255:353|201:321,1,104.999995231629,8|0,0:0|0:0,0:0:0:0:
300,56,120278,2,0,P|348:68|376:120,1,104.999995231629,8|0,0:0|0:0,0:0:0:0:
384,156,120624,5,0,0:0:0:0:
376,196,120740,1,10,0:0:0:0:
256,112,120970,5,0,0:0:0:0:
216,52,121201,2,0,P|256:24|300:56,1,104.999995231629,8|0,0:0|0:0,0:0:0:0:
423,170,121663,1,8,0:0:0:0:
96,128,121893,1,2,0:0:0:0:
96,192,122124,6,0,L|49:198,6,26.2499988079071,8|0|0|0|0|0|0,0:0|0:0|0:0|0:0|0:0|0:0|0:0,0:0:0:0:
256,324,122586,2,0,L|240:358,6,26.2499988079071,8|0|0|0|0|0|0,0:0|0:0|0:0|0:0|0:0|0:0|0:0,0:0:0:0:
357,276,123047,5,8,0:0:0:0:
401,84,123278,2,0,L|301:126,1,104.999995231629,0|8,0:0|0:0,0:0:0:0:
304,124,123740,1,2,0:0:0:0:
80,48,123970,5,8,0:0:0:0:
192,320,124201,1,0,0:0:0:0:
80,49,124432,1,8,0:0:0:0:
192,320,124663,1,0,0:0:0:0:
352,216,125124,5,0,0:0:0:0:
433,33,125355,1,8,0:0:0:0:
349,215,125586,1,2,0:0:0:0:
431,33,125817,6,0,B|457:81|457:81|440:133,1,104.999995231629,8|0,0:0|0:0,0:0:0:0:
416,208,126278,2,0,B|395:257|395:257|435:321,1,104.999995231629,8|0,0:0|0:0,0:0:0:0:
224,260,126740,1,8,0:0:0:0:
87,196,126970,1,0,0:0:0:0:
368,36,127201,1,8,0:0:0:0:
336,232,127432,1,2,0:0:0:0:
248,56,127663,5,8,0:0:0:0:
288,44,127778,1,0,0:0:0:0:
328,52,127893,1,0,0:0:0:0:
356,84,128009,1,0,0:0:0:0:
316,96,128124,5,8,0:0:0:0:
276,108,128240,1,0,0:0:0:0:
240,128,128355,1,0,0:0:0:0:
220,164,128470,1,0,0:0:0:0:
392,104,128586,6,0,P|414:152|368:189,1,104.999995231629,8|0,0:0|0:0,0:0:0:0:
65,57,129278,1,0,0:0:0:0:
104,244,129509,5,8,0:0:0:0:
136,272,129624,1,0,0:0:0:0:
176,288,129740,1,0,0:0:0:0:
216,292,129855,1,0,0:0:0:0:
176,288,129970,5,8,0:0:0:0:
136,272,130086,1,0,0:0:0:0:
116,236,130201,1,0,0:0:0:0:
116,192,130317,1,0,0:0:0:0:
120,152,130432,6,0,P|152:96|209:79,1,104.999995231629,8|0,0:0|0:0,0:0:0:0:
184,76,130893,2,0,P|248:64|293:88,1,104.999995231629,8|0,0:0|0:0,0:0:0:0:
472,208,131586,2,0,P|424:264|408:272,1,87.4999960263571,0|8,0:0|0:0,0:0:0:0:
447,57,132047,1,0,0:0:0:0:
52,248,132509,2,0,P|88:204|148:196,1,104.999995231629,0|8,0:0|0:0,0:0:0:0:
408,128,133201,5,0,0:0:0:0:
68,208,133663,1,0,0:0:0:0:
288,72,134124,1,0,0:0:0:0:
184,328,134586,1,0,0:0:0:0:
152,48,135047,1,0,0:0:0:0:
436,320,135509,1,0,0:0:0:0:
152,180,135970,1,0,0:0:0:0:
376,64,136432,1,0,0:0:0:0:
68,104,136893,1,0,0:0:0:0:
216,304,137355,1,0,0:0:0:0:
412,168,137817,1,0,0:0:0:0:
300,108,138278,1,0,0:0:0:0:
112,288,138740,1,0,0:0:0:0:
192,88,139201,1,0,0:0:0:0:
412,308,139663,1,0,0:0:0:0:
256,196,140124,1,0,0:0:0:0:
200,276,140586,5,0,0:0:0:0:
200,100,140817,1,0,0:0:0:0:
360,192,141047,1,0,0:0:0:0:
160,192,141278,1,0,0:0:0:0:
312,100,141509,1,0,0:0:0:0:
312,276,141740,1,0,0:0:0:0:
200,100,141970,1,0,0:0:0:0:
360,192,142201,1,0,0:0:0:0:
200,276,142432,1,0,0:0:0:0:
312,100,142663,1,0,0:0:0:0:
312,276,142893,1,0,0:0:0:0:
160,192,143124,1,0,0:0:0:0:
360,192,143355,1,0,0:0:0:0:
200,276,143586,1,0,0:0:0:0:
200,100,143817,1,0,0:0:0:0:
256,192,144047,1,0,0:0:0:0:
256,192,144278,12,0,146817,0:0:0:0:
280,112,147047,6,0,L|345:66,1,78.7499994277954,8|0,0:0|0:0,0:0:0:0:
355,70,147278,5,0,0:0:0:0:
355,70,147393,1,0,0:0:0:0:
355,70,147509,1,8,0:0:0:0:
372,260,147740,5,0,0:0:0:0:
372,260,147855,1,0,0:0:0:0:
372,260,147970,2,0,P|284:269|239:165,1,209.999990463257,8|10,0:0|0:0,0:0:0:0:
376,52,148663,1,0,0:0:0:0:
416,64,148778,1,0,0:0:0:0:
448,92,148893,1,8,0:0:0:0:
112,248,149124,5,0,0:0:0:0:
420,324,149355,2,0,L|444:252,1,52.4999976158143,8|0,0:0|0:0,0:0:0:0:
436,274,149586,1,0,0:0:0:0:
344,152,149817,1,10,0:0:0:0:
88,80,150278,5,8,0:0:0:0:
224,72,150509,1,0,0:0:0:0:
264,72,150624,1,0,0:0:0:0:
308,72,150740,1,8,0:0:0:0:
380,116,150970,2,0,B|436:152|436:152|432:204,1,104.999995231629,0|8,0:0|0:0,0:0:0:0:
328,264,151432,1,0,0:0:0:0:
292,240,151547,1,0,0:0:0:0:
260,216,151663,6,0,B|232:192|232:192|220:120,1,104.999995231629,10|0,0:0|0:0,0:0:0:0:
156,72,152124,2,0,P|104:60|64:96,2,104.999995231629,8|0|8,0:0|0:0|0:0,0:0:0:0:
336,124,152817,1,0,0:0:0:0:
168,228,153047,1,8,0:0:0:0:
132,204,153163,1,0,0:0:0:0:
112,168,153278,1,0,0:0:0:0:
320,44,153509,5,10,0:0:0:0:
380,232,153970,2,0,B|344:272|344:272|276:272,1,104.999995231629,8|0,0:0|0:0,0:0:0:0:
252,272,154317,2,0,B|196:272|196:272|124:184,1,157.499992847443,8|0,0:0|0:0,0:0:0:0:
136,96,154893,2,0,L|180:128,2,52.4999976158143,8|0|0,0:0|0:0|0:0,0:0:0:0:
180,308,155355,5,10,0:0:0:0:
396,40,155817,2,0,P|448:48|488:80,2,104.999995231629,8|2|8,0:0|0:0|0:0,0:0:0:0:
276,224,156509,1,0,0:0:0:0:
112,88,156740,1,8,0:0:0:0:
144,64,156855,1,0,0:0:0:0:
184,48,156970,1,0,0:0:0:0:
432,120,157201,1,10,0:0:0:0:
156,268,157663,5,8,0:0:0:0:
128,236,157778,1,0,0:0:0:0:
112,196,157893,1,0,0:0:0:0:
120,156,158009,1,0,0:0:0:0:
376,228,158355,2,0,B|420:192|420:192|424:128,2,104.999995231629,0|8|0,0:0|0:0|0:0,0:0:0:0:
304,28,159047,5,10,0:0:0:0:
88,228,159509,2,0,B|96:280|96:280|152:280,1,104.999995231629,8|0,0:0|0:0,0:0:0:0:
108,208,159970,1,8,0:0:0:0:
164,272,160201,1,0,0:0:0:0:
376,148,160432,1,8,0:0:0:0:
208,264,160893,5,8,0:0:0:0:
132,68,161124,1,0,0:0:0:0:
380,124,161355,1,8,0:0:0:0:
212,296,161586,1,0,0:0:0:0:
272,60,161817,1,8,0:0:0:0:
120,208,162047,1,0,0:0:0:0:
336,260,162278,1,10,0:0:0:0:
256,40,162740,6,0,P|204:40|176:84,1,104.999995231629,8|0,0:0|0:0,0:0:0:0:
424,176,163201,2,0,P|440:228|416:272,2,104.999995231629,8|0|8,0:0|0:0|0:0,0:0:0:0:
164,296,163893,1,2,0:0:0:0:
68,60,164124,1,0,0:0:0:0:
256,32,164586,5,8,0:0:0:0:
116,180,165047,2,0,P|128:252|164:276,2,104.999995231629,8|0|8,0:0|0:0|0:0,0:0:0:0:
352,40,165970,1,8,0:0:0:0:
376,76,166086,1,0,0:0:0:0:
392,116,166201,1,2,0:0:0:0:
136,224,166432,5,8,0:0:0:0:
352,40,166893,1,8,0:0:0:0:
380,72,167009,1,0,0:0:0:0:
396,108,167124,2,0,P|408:136|408:172,2,52.4999976158143,0|0|8,0:0|0:0|0:0,0:0:0:0:
144,112,167586,1,0,0:0:0:0:
252,304,167817,1,10,0:0:0:0:
180,44,168278,5,8,0:0:0:0:
64,256,168740,2,0,B|76:308|76:308|140:320,2,104.999995231629,8|0|8,0:0|0:0|0:0,0:0:0:0:
256,192,169432,1,0,0:0:0:0:
256,192,169663,1,8,0:0:0:0:
104,312,170124,5,10,0:0:0:0:
408,312,170586,1,8,0:0:0:0:
108,196,170817,1,0,0:0:0:0:
408,192,171047,1,8,0:0:0:0:
256,84,171278,1,0,0:0:0:0:
408,192,171509,1,8,0:0:0:0:
100,192,171970,1,10,0:0:0:0:
412,36,172432,6,0,P|368:72|388:112,1,104.999995231629,8|0,0:0|0:0,0:0:0:0:
444,168,172893,2,0,P|464:196|420:248,1,104.999995231629,8|0,0:0|0:0,0:0:0:0:
184,272,173355,1,8,0:0:0:0:
144,264,173470,1,0,0:0:0:0:
116,232,173586,1,0,0:0:0:0:
256,80,173817,5,10,0:0:0:0:
256,80,174278,2,0,B|232:132|232:132|184:132,1,104.999995231629,8|0,0:0|0:0,0:0:0:0:
328,316,174740,1,8,0:0:0:0:
328,316,175201,2,0,B|380:304|380:304|416:268,1,104.999995231629,8|0,0:0|0:0,0:0:0:0:
412,56,175663,1,10,0:0:0:0:
144,60,176124,2,0,P|92:64|60:108,1,104.999995231629,8|0,0:0|0:0,0:0:0:0:
64,204,176586,5,0,0:0:0:0:
84,240,176701,1,0,0:0:0:0:
112,272,176817,1,0,0:0:0:0:
148,292,176932,1,0,0:0:0:0:
188,304,177047,1,0,0:0:0:0:
232,304,177163,1,0,0:0:0:0:
272,296,177278,1,0,0:0:0:0:
304,268,177393,1,0,0:0:0:0:
296,228,177509,5,8,0:0:0:0:
96,332,177740,6,0,B|72:304|72:304|108:280|108:280|96:220,1,136.499987552644,0|8,0:0|0:0,0:0:0:0:
84,116,178201,1,0,0:0:0:0:
192,92,178432,2,0,B|256:56|256:56|308:92,1,136.499987552644,8|0,0:0|0:0,0:0:0:0:
412,124,178893,1,8,0:0:0:0:
376,228,179124,2,0,B|324:248|324:248|340:260|340:260|272:276,1,136.499987552644,0|8,0:0|0:0,0:0:0:0:
132,340,179586,2,0,B|60:332|92:288|92:288|24:268,1,136.499987552644
216,204,180047,1,0,0:0:0:0:
120,152,180278,2,0,B|152:92|152:92|228:96,1,136.499987552644,0|8,0:0|0:0,0:0:0:0:
220,95,180740,1,0,0:0:0:0:
312,84,180970,2,0,L|360:104,2,52.4999976158143
308,88,181201,5,8,0:0:0:0:
44,352,181663,1,8,0:0:0:0:
200,40,182124,2,0,B|244:104|244:104|236:136,1,104.999995231629,8|0,0:0|0:0,0:0:0:0:
237,130,182470,1,0,0:0:0:0:
196,188,182586,6,0,B|192:216|192:216|272:260,1,104.999995231629,8|0,0:0|0:0,0:0:0:0:
259,252,182932,1,4,0:0:0:0:
320,132,183047,6,0,P|376:132|416:172,1,104.999995231629,8|0,0:0|0:0,0:0:0:0:
428,356,183509,6,0,B|380:320|380:320|332:316,1,104.999995231629,8|0,0:0|0:0,0:0:0:0:
192,200,183970,1,8,0:0:0:0:
64,32,184201,1,0,0:0:0:0:
116,96,184432,1,8,0:0:0:0:
196,128,184663,2,0,B|212:116,9,17.4999992052714,0|0|0|8|0|0|0|0|0|8,0:0|0:0|0:0|0:0|0:0|0:0|0:0|0:0|0:0|0:0,0:0:0:0:
444,288,185124,6,0,B|384:268|384:268|392:260|392:260|328:252,1,136.499987552644,0|8,0:0|0:0,0:0:0:0:
448,152,185586,1,0,0:0:0:0:
100,140,185817,2,0,B|128:224|128:224|176:224,1,136.499987552644,8|0,0:0|0:0,0:0:0:0:
400,76,186278,1,8,0:0:0:0:
224,272,186509,1,0,0:0:0:0:
56,104,186740,1,8,0:0:0:0:
144,192,186970,2,0,B|128:204|128:204|256:236,1,136.499987552644,0|8,0:0|0:0,0:0:0:0:
296,120,187432,2,0,B|296:144|296:144|392:60,1,136.499987552644,0|8,0:0|0:0,0:0:0:0:
440,240,187893,1,0,0:0:0:0:
84,296,188124,1,8,0:0:0:0:
364,176,188355,1,0,0:0:0:0:
144,180,188586,6,0,P|160:136|112:112,1,104.999995231629,8|0,0:0|0:0,0:0:0:0:
116,110,189047,2,0,P|152:68|196:88,1,104.999995231629,8|0,0:0|0:0,0:0:0:0:
368,116,189509,6,0,B|352:96|352:96|340:176,1,104.999995231629,8|0,0:0|0:0,0:0:0:0:
288,232,189970,2,0,B|216:288|216:288|196:276,1,104.999995231629,8|0,0:0|0:0,0:0:0:0:
124,252,190432,6,0,P|88:212|112:176,1,104.999995231629,8|0,0:0|0:0,0:0:0:0:
300,64,190893,1,8,0:0:0:0:
384,212,191124,1,0,0:0:0:0:
144,284,191355,2,0,P|92:264|96:216,1,104.999995231629,8|0,0:0|0:0,0:0:0:0:
180,144,191817,2,0,L|228:120,1,52.4999976158143,8|0,0:0|0:0,0:0:0:0:
276,96,192047,2,0,L|346:60,1,69.9999968210857
388,36,192278,5,8,0:0:0:0:
444,184,192509,2,0,B|412:220|412:220|432:232|432:232|384:284,1,136.499987552644,0|8,0:0|0:0,0:0:0:0:
272,280,192970,1,0,0:0:0:0:
140,248,193201,2,0,B|96:196|96:196|140:140,1,136.499987552644,8|0,0:0|0:0,0:0:0:0:
320,52,193663,1,8,0:0:0:0:
140,248,193893,1,0,0:0:0:0:
320,52,194124,1,8,0:0:0:0:
272,280,194355,2,0,B|336:300|336:300|392:256,1,136.499987552644,0|8,0:0|0:0,0:0:0:0:
88,76,194817,1,0,0:0:0:0:
240,40,195047,2,0,B|288:68|288:68|272:84|272:84|328:120,1,136.499987552644,8|0,0:0|0:0,0:0:0:0:
360,280,195509,1,8,0:0:0:0:
72,244,195740,1,0,0:0:0:0:
88,56,195970,1,8,0:0:0:0:
352,84,196201,5,0,0:0:0:0:
364,108,196278,1,0,0:0:0:0:
376,132,196355,1,0,0:0:0:0:
388,156,196432,1,8,0:0:0:0:
328,212,196663,5,0,0:0:0:0:
256,216,196893,2,0,P|212:212|136:128,1,157.499998855591,8|8,0:0|0:0,0:0:0:0:
136,128,197355,2,0,L|128:88,16,26.2499988079071
444,96,198047,1,0,0:0:0:0:
272,156,198278,1,8,0:0:0:0:
444,96,198509,1,0,0:0:0:0:
432,200,198740,2,0,B|412:268|412:268|336:280,1,136.499987552644,8|0,0:0|0:0,0:0:0:0:
264,260,199201,2,0,B|320:208|320:208|272:164,2,136.499987552644,8|0|8,0:0|0:0|0:0,0:0:0:0:
23,72,199893,6,0,B|63:112|63:112|151:116,1,136.499987552644,0|8,0:0|0:0,0:0:0:0:
143,116,200355,2,0,B|208:129|208:129|243:200,1,136.499987552644,0|8,0:0|0:0,0:0:0:0:
240,192,200817,2,0,B|205:247|205:247|249:335,1,136.499987552644,0|8,0:0|0:0,0:0:0:0:
445,51,201278,2,0,B|373:43|373:43|338:104,1,136.499987552644,0|8,0:0|0:0,0:0:0:0:
342,99,201740,2,0,B|354:148|354:148|318:240,1,136.499987552644,0|8,0:0|0:0,0:0:0:0:
323,229,202201,2,0,B|295:301|295:301|222:313,1,136.499987552644,0|8,0:0|0:0,0:0:0:0:
288,332,202547,5,0,0:0:0:0:
340,316,202663,1,0,0:0:0:0:
372,272,202778,1,0,0:0:0:0:
416,240,202893,2,0,L|468:288,2,68.2499937763218,8|0|0,0:0|0:0|0:0,0:0:0:0:
416,240,203240,1,0,0:0:0:0:
408,184,203355,6,0,L|296:84,1,136.499987552644,8|0,0:0|0:0,0:0:0:0:
306,93,203817,2,0,L|422:193,1,136.499987552644,8|0,0:0|0:0,0:0:0:0:
364,228,204278,2,0,L|244:124,1,136.499987552644,8|0,0:0|0:0,0:0:0:0:
260,138,204740,2,0,L|368:232,1,136.499987552644,8|0,0:0|0:0,0:0:0:0:
404,52,205201,2,0,L|356:60,1,34.9999984105428,8|0,0:0|0:0,0:0:0:0:
376,112,205432,2,0,L|332:120,1,34.9999984105428
336,176,205663,2,0,L|292:180,1,34.9999984105428,8|0,0:0|0:0,0:0:0:0:
292,236,205893,2,0,L|248:244,1,34.9999984105428
212,276,206124,2,0,B|180:268|180:268|172:280|172:280|176:252|176:252|164:276|164:276|164:248|164:248|152:272|152:272|152:244|152:244|144:268|144:268|140:240|140:240|132:264|132:264|128:236|128:236|120:260|120:260|116:232|116:232|108:256|108:256|108:240|108:240|76:228,1,419.999980926514,8|8,0:0|0:0,0:0:0:0:
152,192,221817,5,8,0:0:0:0:
256,192,221855,12,0,222624,0:0:0:0:
344,124,222740,5,8,0:0:0:0:
256,192,222778,12,0,223547,0:0:0:0:
192,132,223663,5,8,0:0:0:0:
256,192,223701,12,0,224470,0:0:0:0:
308,268,224586,5,8,0:0:0:0:
256,192,224624,12,0,225393,0:0:0:0:
208,264,225509,5,8,0:0:0:0:
256,192,225547,12,0,226317,0:0:0:0:
200,136,226432,5,8,0:0:0:0:
256,192,226470,12,0,227240,0:0:0:0:
328,256,227355,5,8,0:0:0:0:
256,192,227393,12,0,228163,0:0:0:0:
308,108,228278,5,8,0:0:0:0:
256,192,228317,12,0,229086,0:0:0:0:
92,100,229201,5,8,0:0:0:0:
256,192,229317,12,0,236470,0:0:0:0:
152,212,236586,6,0,B|128:148|128:148|172:80|172:80|240:72,1,209.999990463257,8|8,0:0|0:0,0:0:0:0:
248,112,237624,2,0,L|240:156,2,34.9999984105428
308,148,237970,1,8,0:0:0:0:
304,232,238201,1,0,0:0:0:0:
48,144,238432,6,0,B|96:108|96:108|152:100|152:100|192:140|192:140|240:136|240:136,1,209.999990463257,10|8,0:0|0:0,0:0:0:0:
284,144,239047,1,0,0:0:0:0:
312,156,239124,1,0,0:0:0:0:
232,64,239355,5,8,0:0:0:0:
268,88,239470,1,0,0:0:0:0:
304,108,239586,1,0,0:0:0:0:
344,96,239701,1,0,0:0:0:0:
380,76,239817,2,0,P|328:44|280:40,1,104.999995231629,8|0,0:0|0:0,0:0:0:0:
424,160,240278,6,0,B|448:200|448:200|372:220|372:220|448:280,1,209.999990463257,8|10,0:0|0:0,0:0:0:0:
128,320,241201,1,0,0:0:0:0:
100,288,241317,1,0,0:0:0:0:
140,272,241432,1,0,0:0:0:0:
112,240,241547,1,0,0:0:0:0:
152,224,241663,1,0,0:0:0:0:
128,188,241778,1,0,0:0:0:0:
168,172,241893,1,0,0:0:0:0:
144,136,242009,1,0,0:0:0:0:
184,120,242124,1,0,0:0:0:0:
224,108,242240,1,0,0:0:0:0:
264,112,242355,1,0,0:0:0:0:
304,124,242470,1,0,0:0:0:0:
336,152,242586,1,0,0:0:0:0:
360,184,242701,1,0,0:0:0:0:
368,224,242817,1,0,0:0:0:0:
356,264,242932,1,0,0:0:0:0:
252,188,243047,6,0,L|304:168,1,52.4999976158143,8|0,0:0|0:0,0:0:0:0:
216,68,243509,2,0,L|276:52,1,52.4999976158143,8|0,0:0|0:0,0:0:0:0:
64,100,243970,2,0,P|168:44|216:112,2,209.999990463257,8|4|8,0:0|0:0|0:0,0:0:0:0:
48,204,245124,1,0,0:0:0:0:
212,312,245355,1,8,0:0:0:0:
416,68,245586,1,2,0:0:0:0:
212,312,245817,6,0,B|176:264|176:264|220:236,1,104.999995231629,8|0,0:0|0:0,0:0:0:0:
416,68,246278,2,0,B|464:36|464:36,2,52.4999976158143,8|0|0,0:0|0:0|0:0,0:0:0:0:
280,288,246740,5,10,0:0:0:0:
240,276,246855,1,0,0:0:0:0:
204,256,246970,1,0,0:0:0:0:
176,228,247086,1,0,0:0:0:0:
156,192,247201,6,0,B|116:148|136:108|180:80|220:108|240:148|200:192,1,209.999990463257,8|8,0:0|0:0,0:0:0:0:
280,152,247778,1,0,0:0:0:0:
296,148,247893,1,0,0:0:0:0:
312,144,248009,1,0,0:0:0:0:
328,140,248124,1,0,0:0:0:0:
440,52,248586,1,8,0:0:0:0:
80,72,248817,1,0,0:0:0:0:
252,208,249047,1,8,0:0:0:0:
440,52,249278,1,0,0:0:0:0:
96,308,249740,1,0,0:0:0:0:
232,72,249971,1,8,0:0:0:0:
296,280,250201,1,0,0:0:0:0:
104,128,250663,1,0,0:0:0:0:
436,228,250893,1,8,0:0:0:0:
360,56,251124,1,2,0:0:0:0:
292,184,251355,6,0,B|232:184|232:184|232:252|232:252|164:252|164:252,1,183.74999165535,8|0,0:0|0:0,0:0:0:0:
144,224,252278,1,8,0:0:0:0:
112,196,252393,1,0,0:0:0:0:
88,160,252509,1,0,0:0:0:0:
88,120,252624,1,0,0:0:0:0:
112,84,252740,1,0,0:0:0:0:
144,56,252855,2,0,L|224:68,1,52.4999976158143,0|2,0:0|0:0,0:0:0:0:
444,60,253201,5,8,0:0:0:0:
88,256,253663,1,8,0:0:0:0:
88,92,253893,1,0,0:0:0:0:
348,200,254124,2,0,L|364:280,1,78.7499994277954,8|0,0:0|0:0,0:0:0:0:
348,200,254355,2,0,L|284:148,1,78.7499994277954
352,204,254586,2,0,L|416:152,2,78.7499994277954,8|0|0,0:0|0:0|0:0,0:0:0:0:
108,144,255047,5,8,0:0:0:0:
248,80,255278,1,8,0:0:0:0:
156,268,255509,1,8,0:0:0:0:
390,54,255970,5,0,0:0:0:0:
360,80,256085,1,0,0:0:0:0:
360,124,256201,1,0,0:0:0:0:
324,144,256316,1,0,0:0:0:0:
328,184,256431,1,0,0:0:0:0:
288,200,256547,1,0,0:0:0:0:
292,240,256662,1,0,0:0:0:0:
252,244,256778,1,0,0:0:0:0:
244,292,256893,1,0,0:0:0:0:
208,272,257008,1,0,0:0:0:0:
180,304,257124,1,0,0:0:0:0:
164,264,257240,1,0,0:0:0:0:
124,272,257355,1,0,0:0:0:0:
140,232,257470,1,0,0:0:0:0:
100,216,257585,1,0,0:0:0:0:
128,184,257701,1,0,0:0:0:0:
132,144,257817,6,0,L|132:92,1,52.4999976158143,8|0,0:0|0:0,0:0:0:0:
256,92,258278,2,0,L|256:144,1,52.4999976158143,8|0,0:0|0:0,0:0:0:0:
77,119,258740,6,0,P|140:24|185:146,1,275.624997997284
88,160,259778,5,0,0:0:0:0:
116,192,259893,2,0,L|160:244,1,52.4999976158143
188,248,260124,5,8,0:0:0:0:
272,260,260355,1,2,0:0:0:0:
316,188,260586,2,0,B|260:222|283:144|214:203,1,104.999995231629,8|0,0:0|0:0,0:0:0:0:
180,124,261047,1,0,0:0:0:0:
244,68,261278,1,2,0:0:0:0:
368,72,261509,5,8,0:0:0:0:
400,96,261624,1,0,0:0:0:0:
392,136,261740,1,0,0:0:0:0:
352,148,261855,1,0,0:0:0:0:
320,120,261970,2,0,L|289:96,3,34.9999984105428,8|0|0|0,0:0|0:0|0:0|0:0,0:0:0:0:
389,227,262432,6,0,L|311:297,2,104.999995231629,8|0|8,0:0|0:0|0:0,0:0:0:0:
220,56,263355,1,8,0:0:0:0:
100,332,263586,1,0,0:0:0:0:
37,88,263817,1,8,0:0:0:0:
280,292,264047,1,0,0:0:0:0:
389,42,264509,1,2,0:0:0:0:
421,192,264740,1,8,0:0:0:0:
277,149,264970,1,0,0:0:0:0:
442,80,265201,6,0,L|392:94,2,52.4999976158143,8|0|0,0:0|0:0|0:0,0:0:0:0:
452,164,265663,2,0,L|460:206,1,34.9999984105428,8|0,0:0|0:0,0:0:0:0:
428,248,265893,2,0,L|387:270,1,34.9999984105428
144,291,266124,5,10,0:0:0:0:
306,85,267047,2,0,L|270:43,2,52.4999976158143,10|0|0,0:0|0:0|0:0,0:0:0:0:
424,247,267509,1,8,0:0:0:0:
356,296,267740,1,0,0:0:0:0:
97,145,267970,6,8,L|73:134,1,17.4999992052714
152,128,268201,5,0,0:0:0:0:
219,305,268432,1,8,0:0:0:0:
405,270,268663,1,0,0:0:0:0:
116,141,268893,1,10,0:0:0:0:
425,118,269124,1,0,0:0:0:0:
85,259,269355,1,8,0:0:0:0:
130,73,269586,6,0,L|121:56,1,17.4999992052714
322,56,269817,6,0,P|383:76|353:194,1,209.999990463257,8|8,0:0|0:0,0:0:0:0:
252,259,270740,1,10,0:0:0:0:
212,244,270855,1,0,0:0:0:0:
180,216,270970,1,0,0:0:0:0:
168,176,271086,1,0,0:0:0:0:
81,84,271201,6,0,L|97:73,1,17.4999992052714,8|0,0:0|0:0,0:0:0:0:
81,84,271317,2,0,L|66:99,1,17.4999992052714
81,84,271547,2,0,L|68:73,1,17.4999992052714
140,108,271663,5,8,0:0:0:0:
176,88,271778,1,0,0:0:0:0:
216,84,271893,1,0,0:0:0:0:
260,88,272009,1,0,0:0:0:0:
300,100,272124,1,0,0:0:0:0:
332,128,272240,1,0,0:0:0:0:
332,128,272355,1,0,0:0:0:0:
336,132,272470,1,0,0:0:0:0:
368,160,272586,6,0,P|380:248|276:252,2,209.999990463257,8|8|10,0:0|0:0|0:0,0:0:0:0:
40,60,274432,5,8,0:0:0:0:
40,60,274547,1,0,0:0:0:0:
84,64,274663,1,0,0:0:0:0:
84,64,274778,1,0,0:0:0:0:
124,60,274893,6,0,L|128:40,1,17.4999992052714,8|0,0:0|0:0,0:0:0:0:
232,84,275240,1,0,0:0:0:0:
272,96,275355,6,0,P|325:130|253:222,1,209.999990463257,8|8,0:0|0:0,0:0:0:0:
288,244,276278,1,10,0:0:0:0:
248,228,276393,1,0,0:0:0:0:
256,188,276509,1,0,0:0:0:0:
220,168,276624,1,0,0:0:0:0:
216,124,276740,6,0,P|208:96|200:124,1,69.9999968210857,8|0,0:0|0:0,0:0:0:0:
340,64,277201,5,8,0:0:0:0:
448,272,277432,1,0,0:0:0:0:
340,64,277663,1,10,0:0:0:0:
132,236,277893,1,0,0:0:0:0:
448,272,278124,1,0,0:0:0:0:
340,64,278355,1,0,0:0:0:0:
132,236,278586,1,10,0:0:0:0:
448,272,278817,1,0,0:0:0:0:
256,192,279047,12,0,280817,0:0:0:0:
256,136,280893,5,10,0:0:0:0:
112,252,281817,1,8,0:0:0:0:
148,272,281932,2,0,L|192:264,2,34.9999984105428
384,44,282278,2,0,L|388:92,2,34.9999984105428,8|0|0,0:0|0:0|0:0,0:0:0:0:
404,192,282740,5,10,0:0:0:0:
320,196,282970,5,0,0:0:0:0:
352,272,283201,2,0,B|304:308|304:308|276:260,1,104.999995231629,8|0,0:0|0:0,0:0:0:0:
204,300,283663,2,0,L|176:252,1,52.4999976158143,8|0,0:0|0:0,0:0:0:0:
152,220,283893,1,0,0:0:0:0:
264,36,284124,1,8,0:0:0:0:
408,232,284355,5,0,0:0:0:0:
360,84,284586,6,0,P|304:184|216:176,1,209.999990463257,8|8,0:0|0:0,0:0:0:0:
160,324,285509,2,0,L|104:304,1,52.4999976158143,8|0,0:0|0:0,0:0:0:0:
80,276,285740,2,0,L|72:224,1,52.4999976158143,0|2,0:0|0:0,0:0:0:0:
88,184,285970,6,0,L|132:152,2,52.4999976158143,8|0|0,0:0|0:0|0:0,0:0:0:0:
130,153,286317,1,0,0:0:0:0:
172,152,286432,5,8,0:0:0:0:
196,188,286547,1,0,0:0:0:0:
228,216,286663,1,0,0:0:0:0:
264,240,286778,1,0,0:0:0:0:
304,252,286893,1,8,0:0:0:0:
280,220,287009,5,0,0:0:0:0:
268,180,287124,1,0,0:0:0:0:
272,140,287240,1,0,0:0:0:0:
288,104,287355,6,0,P|252:24|156:60,2,209.999990463257,8|8|10,0:0|0:0|0:0,0:0:0:0:
124,48,289201,5,8,0:0:0:0:
108,88,289317,1,0,0:0:0:0:
104,128,289432,1,0,0:0:0:0:
108,168,289547,1,0,0:0:0:0:
112,208,289663,6,0,L|88:232,1,17.4999992052714,8|0,0:0|0:0,0:0:0:0:
296,276,290009,1,0,0:0:0:0:
328,252,290124,6,0,B|292:204|292:204|224:224|224:224|208:144,1,209.999990463257,8|10,0:0|0:0,0:0:0:0:
436,44,291047,1,8,0:0:0:0:
408,76,291163,1,0,0:0:0:0:
424,116,291278,1,0,0:0:0:0:
392,144,291393,1,0,0:0:0:0:
408,184,291509,6,0,P|432:192|408:204,1,52.4999976158143,8|0,0:0|0:0,0:0:0:0:
112,56,291970,2,0,B|92:120|160:96|168:144,1,104.999995231629,8|0,0:0|0:0,0:0:0:0:
248,344,292432,1,10,0:0:0:0:
440,184,292893,2,0,P|424:144|372:116,1,104.999995231629,8|0,0:0|0:0,0:0:0:0:
248,84,293355,1,8,0:0:0:0:
152,200,293586,1,0,0:0:0:0:
384,72,294048,1,0,0:0:0:0:
448,296,294278,1,8,0:0:0:0:
168,88,294509,1,0,0:0:0:0:
156,212,294970,1,0,0:0:0:0:
388,48,295201,1,8,0:0:0:0:
396,280,295432,1,0,0:0:0:0:
256,192,295663,5,0,0:0:0:0:
84,160,303047,6,0,B|236:76,1,125.99999043274,10|10,0:0|0:0,0:0:0:0:
244,92,303393,2,0,B|312:96,1,62.9999952163698,10|10,0:0|0:0,0:0:0:0:
388,56,303970,2,0,L|444:124,1,62.9999952163698,8|0,0:0|0:0,0:0:0:0:
412,152,304201,2,0,L|336:144,1,62.9999952163698
344,196,304432,2,0,L|396:268,1,62.9999952163698,8|0,0:0|0:0,0:0:0:0:
340,280,304663,1,0,0:0:0:0:
344,284,304778,1,0,0:0:0:0:
300,264,304893,6,0,P|248:204|268:180,1,125.99999043274,10|10,0:0|0:0,0:0:0:0:
312,156,305240,2,0,L|380:132,1,62.9999952163698,10|10,0:0|0:0,0:0:0:0:
272,16,305817,2,0,L|208:60,1,62.9999952163698,8|0,0:0|0:0,0:0:0:0:
262,78,306047,2,0,L|234:134,1,62.9999952163698
283,144,306278,2,0,L|280:172,8,26.2499988079071,8|0|0|0|0|0|0|0|0,0:0|0:0|0:0|0:0|0:0|0:0|0:0|0:0|0:0,0:0:0:0:
424,44,306740,5,8,0:0:0:0:
68,296,307201,1,8,0:0:0:0:
144,56,307663,1,8,0:0:0:0:
180,80,307778,1,0,0:0:0:0:
216,100,307893,1,0,0:0:0:0:
252,124,308009,1,0,0:0:0:0:
252,124,308124,1,8,0:0:0:0:
252,124,308240,2,0,L|304:168,2,62.9999952163698,0|0|2,0:0|0:0|0:0,0:0:0:0:
207,173,308586,5,8,0:0:0:0:
78,58,308817,1,0,0:0:0:0:
350,64,309047,1,8,0:0:0:0:
328,292,309278,1,0,0:0:0:0:
144,20,309740,1,0,0:0:0:0:
416,152,309970,1,8,0:0:0:0:
140,264,310201,1,0,0:0:0:0:
81,36,310432,6,0,B|264:48,1,125.99999043274,10|10,0:0|0:0,0:0:0:0:
256,56,310778,1,10,0:0:0:0:
256,56,310893,1,10,0:0:0:0:
364,224,311355,1,8,0:0:0:0:
328,188,311470,1,0,0:0:0:0:
300,148,311586,2,0,L|223:175,1,62.9999952163698
196,192,311817,1,8,0:0:0:0:
196,192,311932,2,0,L|152:136,1,62.9999952163698
193,107,312163,1,0,0:0:0:0:
238,86,312278,6,0,P|296:79|312:204,1,188.999985649109,10|10,0:0|0:0,0:0:0:0:
332,184,312740,2,10,P|385:268|323:297,1,188.999985649109
220,288,313201,1,8,0:0:0:0:
84,188,313432,1,0,0:0:0:0:
92,68,313547,1,0,0:0:0:0:
92,68,313663,1,10,0:0:0:0:
252,96,314124,6,0,B|36:96|472:96|252:96,1,251.999980865479,8|8,0:0|0:0,0:0:0:0:
466,195,315047,2,0,P|452:284|392:292,1,125.99999043274,8|0,0:0|0:0,0:0:0:0:
328,248,315509,1,8,0:0:0:0:
256,277,315740,2,0,P|224:224|236:160,2,125.99999043274,0|8|0,0:0|0:0|0:0,0:0:0:0:
168,239,316432,2,0,L|288:344,1,125.99999043274,8|0,0:0|0:0,0:0:0:0:
340,204,316893,2,0,L|488:168,2,125.99999043274,8|0|8,0:0|0:0|0:0,0:0:0:0:
256,192,317586,1,0,0:0:0:0:
64,232,317817,6,0,B|36:136|112:124|112:124|160:152|160:152|196:96,1,251.999980865479
360,104,318509,1,0,0:0:0:0:
256,236,318740,1,8,0:0:0:0:
256,236,318855,1,0,0:0:0:0:
284,268,318970,1,0,0:0:0:0:
284,268,319086,1,0,0:0:0:0:
324,264,319201,1,8,0:0:0:0:
324,264,319317,1,0,0:0:0:0:
364,248,319432,1,0,0:0:0:0:
364,248,319547,1,0,0:0:0:0:
410,116,319663,6,0,B|392:168|392:168|296:92,1,125.99999043274,10|10,0:0|0:0,0:0:0:0:
292,96,320009,2,0,L|208:44,1,62.9999952163698,10|10,0:0|0:0,0:0:0:0:
140,40,320355,1,0,0:0:0:0:
112,136,320586,1,8,0:0:0:0:
112,176,320701,1,0,0:0:0:0:
132,212,320817,1,0,0:0:0:0:
172,228,320932,1,0,0:0:0:0:
212,212,321047,1,8,0:0:0:0:
88,264,321509,6,0,P|124:296|204:304,2,125.99999043274,10|0|10,0:0|0:0|0:0,0:0:0:0:
88,264,322201,1,0,0:0:0:0:
84,36,322432,6,0,L|156:44,1,62.9999952163698,8|0,0:0|0:0,0:0:0:0:
146,43,322663,2,0,L|117:117,1,62.9999952163698
123,101,322893,2,0,L|193:117,1,62.9999952163698,8|10,0:0|0:0,0:0:0:0:
136,144,323124,2,0,L|216:168,1,62.9999952163698,8|8,0:0|0:0,0:0:0:0:
244,180,323355,5,8,0:0:0:0:
428,232,323586,1,0,0:0:0:0:
256,32,323817,1,8,0:0:0:0:
448,68,324047,1,0,0:0:0:0:
312,296,324509,1,0,0:0:0:0:
304,40,324740,1,8,0:0:0:0:
80,156,324970,1,0,0:0:0:0:
440,68,325201,6,0,B|376:108|376:108|464:160|464:200|448:244|448:244|384:244|384:244|352:192|268:224,1,440.999966514589
267,224,326124,1,8,0:0:0:0:
216,312,326355,1,0,0:0:0:0:
176,296,326470,1,0,0:0:0:0:
152,264,326586,1,8,0:0:0:0:
140,224,326701,2,0,L|180:152,2,62.9999952163698
235,144,327047,6,0,L|387:224,1,125.99999043274,10|0,0:0|0:0,0:0:0:0:
368,78,327509,2,0,L|340:238,1,125.99999043274,10|0,0:0|0:0,0:0:0:0:
120,296,327970,5,8,0:0:0:0:
352,64,328201,1,0,0:0:0:0:
400,292,328432,1,8,0:0:0:0:
116,204,328893,6,0,L|91:71,1,125.99999043274,10|0,0:0|0:0,0:0:0:0:
241,212,329355,2,0,L|87:202,1,125.99999043274,10|0,0:0|0:0,0:0:0:0:
332,64,329817,5,8,0:0:0:0:
312,304,330047,1,0,0:0:0:0:
108,184,330278,1,8,0:0:0:0:
332,64,330509,1,0,0:0:0:0:
168,304,330970,1,0,0:0:0:0:
404,200,331201,1,8,0:0:0:0:
180,56,331432,1,0,0:0:0:0:
312,304,331893,1,0,0:0:0:0:
108,184,332124,1,8,0:0:0:0:
340,56,332355,1,0,0:0:0:0:
156,44,332586,6,0,P|112:56|80:104,1,104.999995231629,10|0,0:0|0:0,0:0:0:0:
144,156,333047,2,0,P|168:116|228:100,1,104.999995231629,10|0,0:0|0:0,0:0:0:0:
304,312,333509,1,8,0:0:0:0:
448,240,333740,1,0,0:0:0:0:
348,56,333970,1,8,0:0:0:0:
388,68,334086,1,0,0:0:0:0:
420,96,334201,1,0,0:0:0:0:
272,280,334432,6,0,P|244:244|296:236,1,104.999995231629,8|0,0:0|0:0,0:0:0:0:
344,288,334893,2,0,P|388:264|348:240,1,104.999995231629,8|0,0:0|0:0,0:0:0:0:
168,300,335355,1,8,0:0:0:0:
52,168,335586,1,0,0:0:0:0:
339,61,335817,1,8,0:0:0:0:
341,86,335932,1,0,0:0:0:0:
339,61,336047,1,0,0:0:0:0:
76,292,336278,6,0,P|120:264|108:208,1,104.999995231629,8|0,0:0|0:0,0:0:0:0:
76,292,336740,2,0,P|132:284|168:316,1,104.999995231629,8|0,0:0|0:0,0:0:0:0:
368,116,337201,1,8,0:0:0:0:
368,116,337432,1,0,0:0:0:0:
420,260,337663,2,0,L|400:312,2,52.4999976158143,8|0|0,0:0|0:0|0:0,0:0:0:0:
72,60,339970,6,0,B|124:160,1,104.999995231629,8|0,0:0|0:0,0:0:0:0:
160,228,340432,2,0,L|212:324,1,104.999995231629,8|0,0:0|0:0,0:0:0:0:
436,60,340893,1,8,0:0:0:0:
280,200,341124,1,0,0:0:0:0:
172,40,341355,1,8,0:0:0:0:
280,200,341586,1,0,0:0:0:0:
64,232,341817,1,8,0:0:0:0:
280,200,342047,5,0,0:0:0:0:
264,176,342163,1,0,0:0:0:0:
280,200,342278,1,8,0:0:0:0:
232,268,342509,2,0,P|204:288|132:288,1,104.999995231629,0|8,0:0|0:0,0:0:0:0:
76,228,342970,2,0,P|60:164|88:132,1,104.999995231629,0|8,0:0|0:0,0:0:0:0:
408,72,343663,5,8,0:0:0:0:
220,300,344124,1,8,0:0:0:0:
116,168,344586,2,0,B|116:128|116:128|156:128|156:128|160:88,2,104.999995231629,8|0|8,0:0|0:0|0:0,0:0:0:0:
284,168,345509,5,8,0:0:0:0:
192,76,345740,1,0,0:0:0:0:
360,28,345970,1,8,0:0:0:0:
280,192,346201,1,0,0:0:0:0:
56,60,346663,1,0,0:0:0:0:
68,276,346893,1,8,0:0:0:0:
288,320,347124,1,0,0:0:0:0:
396,96,347355,5,8,0:0:0:0:
396,96,347817,1,8,0:0:0:0:
184,116,348278,2,0,P|144:100|80:120,1,104.999995231629,8|0,0:0|0:0,0:0:0:0:
52,192,348740,2,0,P|52:236|116:256,1,104.999995231629,8|0,0:0|0:0,0:0:0:0:
344,288,349201,1,8,0:0:0:0:
248,160,349432,1,0,0:0:0:0:
220,132,349547,1,0,0:0:0:0:
216,92,349663,1,8,0:0:0:0:
356,140,350124,5,8,0:0:0:0:
80,68,350586,1,8,0:0:0:0:
120,212,351047,2,0,P|96:248|88:308,1,104.999995231629,8|0,0:0|0:0,0:0:0:0:
120,212,351509,2,0,P|160:268|200:268,1,104.999995231629,8|0,0:0|0:0,0:0:0:0:
392,64,351970,5,8,0:0:0:0:
364,280,352201,1,0,0:0:0:0:
160,208,352432,1,8,0:0:0:0:
96,308,352663,1,0,0:0:0:0:
72,128,352893,6,0,B|104:76|104:76|144:100,1,104.999995231629,8|0,0:0|0:0,0:0:0:0:
212,148,353355,2,0,B|268:176|268:176|312:156,1,104.999995231629,8|0,0:0|0:0,0:0:0:0:
384,124,353817,2,0,B|444:144|444:144|456:192,1,104.999995231629,8|0,0:0|0:0,0:0:0:0:
416,260,354278,2,0,L|392:292,3,34.9999984105428,8|0|0|0,0:0|0:0|0:0|0:0,0:0:0:0:
112,248,354740,5,8,0:0:0:0:
364,52,355201,1,8,0:0:0:0:
256,300,355663,6,0,P|240:236|208:212,1,104.999995231629,8|0,0:0|0:0,0:0:0:0:
144,164,356124,1,8,0:0:0:0:
144,164,356355,1,0,0:0:0:0:
192,96,356586,2,0,B|252:108|252:108|296:124,1,104.999995231629,8|0,0:0|0:0,0:0:0:0:
376,116,357047,2,0,B|320:80|320:80|280:60,1,104.999995231629,8|0,0:0|0:0,0:0:0:0:
260,144,357509,1,8,0:0:0:0:
200,204,357740,1,0,0:0:0:0:
280,228,357970,1,8,0:0:0:0:
112,332,358432,5,8,0:0:0:0:
128,64,358893,1,8,0:0:0:0:
400,232,359355,6,0,P|344:204|312:172,1,104.999995231629,8|0,0:0|0:0,0:0:0:0:
284,96,359817,2,0,P|296:56|356:56,1,104.999995231629,8|0,0:0|0:0,0:0:0:0:
408,212,360509,2,0,P|396:260|340:264,1,104.999995231629,0|8,0:0|0:0,0:0:0:0:
280,216,360970,2,0,P|224:196|168:200,1,104.999995231629,0|8,0:0|0:0,0:0:0:0:
100,224,361432,2,0,P|96:268|148:296,2,104.999995231629,0|8|0,0:0|0:0|0:0,0:0:0:0:
396,160,365817,6,0,P|376:120|228:96,1,209.999990463257,8|8,0:0|0:0,0:0:0:0:
196,124,366393,1,0,0:0:0:0:
172,160,366508,1,0,0:0:0:0:
164,200,366624,1,0,0:0:0:0:
168,240,366740,6,0,P|204:280|356:272,1,209.999990463257,8|8,0:0|0:0,0:0:0:0:
384,256,367317,1,0,0:0:0:0:
400,216,367432,1,0,0:0:0:0:
384,176,367547,1,0,0:0:0:0:
344,160,367663,6,0,P|312:184|144:200,1,209.999990463257,8|8,0:0|0:0,0:0:0:0:
112,180,368240,1,0,0:0:0:0:
104,140,368355,1,0,0:0:0:0:
120,100,368470,1,0,0:0:0:0:
148,68,368586,6,0,B|264:48|264:48|264:148,1,209.999990463257,8|8,0:0|0:0,0:0:0:0:
260,184,369163,1,0,0:0:0:0:
260,224,369278,1,0,0:0:0:0:
256,264,369393,1,0,0:0:0:0:
296,252,369509,6,0,B|368:68|-8:84|196:356|368:68|136:48,1,419.999980926514,8|8,0:0|0:0,0:0:0:0:
108,44,370547,1,0,0:0:0:0:
76,72,370663,1,0,0:0:0:0:
64,112,370778,1,0,0:0:0:0:
76,152,370893,1,8,0:0:0:0:
100,188,371009,1,0,0:0:0:0:
140,204,371124,2,0,B|152:260|332:272|180:64|352:52|464:164|364:268,1,419.999980926514
292,280,372278,2,0,P|240:288|188:272,1,104.999995231629,8|0,0:0|0:0,0:0:0:0:
272,296,372740,2,0,P|216:304|164:284,1,104.999995231629,8|0,0:0|0:0,0:0:0:0:
304,120,373201,6,0,P|340:152|280:284,1,209.999990463257,8|8,0:0|0:0,0:0:0:0:
248,280,373778,1,0,0:0:0:0:
208,268,373893,1,0,0:0:0:0:
172,244,374009,1,0,0:0:0:0:
152,208,374124,6,0,B|152:164|208:136|328:224,1,209.999990463257,8|8,0:0|0:0,0:0:0:0:
368,220,374701,1,0,0:0:0:0:
396,188,374817,1,0,0:0:0:0:
408,148,374932,1,0,0:0:0:0:
380,116,375047,6,0,L|316:124,1,52.4999976158143,8|0,0:0|0:0,0:0:0:0:
312,164,375278,2,0,L|356:204,1,52.4999976158143
324,232,375509,2,0,L|264:252,1,52.4999976158143,8|0,0:0|0:0,0:0:0:0:
236,268,375740,5,0,0:0:0:0:
196,272,375855,1,0,0:0:0:0:
156,276,375970,1,8,0:0:0:0:
172,164,376201,1,0,0:0:0:0:
84,124,376432,1,8,0:0:0:0:
208,296,376893,6,0,P|104:256|96:156,2,209.999990463257,8|8|8,0:0|0:0|0:0,0:0:0:0:
288,268,378047,1,0,0:0:0:0:
284,184,378278,1,8,0:0:0:0:
200,184,378509,1,0,0:0:0:0:
144,120,378740,6,0,L|264:120,2,104.999995231629,8|0|8,0:0|0:0|0:0,0:0:0:0:
108,196,379432,1,0,0:0:0:0:
180,240,379663,1,8,0:0:0:0:
416,68,379893,1,0,0:0:0:0:
108,196,380124,1,8,0:0:0:0:
316,304,380355,1,0,0:0:0:0:
416,68,380586,5,8,0:0:0:0:
64,76,381047,1,8,0:0:0:0:
248,344,381509,1,8,0:0:0:0:
384,216,381970,2,0,B|396:152|396:152|376:104,1,104.999995231629,8|0,0:0|0:0,0:0:0:0:
320,176,382432,2,0,B|340:116|340:116|324:72,1,104.999995231629,8|0,0:0|0:0,0:0:0:0:
244,100,382893,1,8,0:0:0:0:
196,168,383124,1,0,0:0:0:0:
312,64,383355,6,0,P|372:48|412:72,1,104.999995231629,8|0,0:0|0:0,0:0:0:0:
312,64,383817,2,0,P|256:56|208:76,1,104.999995231629,8|0,0:0|0:0,0:0:0:0:
88,304,384278,5,8,0:0:0:0:
416,68,384740,1,8,0:0:0:0:
352,304,385201,1,8,0:0:0:0:
180,200,385663,2,0,P|176:148|128:104,1,104.999995231629,8|0,0:0|0:0,0:0:0:0:
180,152,386124,2,0,P|192:104|244:72,1,104.999995231629,8|0,0:0|0:0,0:0:0:0:
192,104,386586,2,0,P|176:48|144:16,1,104.999995231629,8|0,0:0|0:0,0:0:0:0:
180,52,387047,2,0,P|216:8|260:-4,2,104.999995231629,8|0|8,0:0|0:0|0:0,0:0:0:0:
180,52,387740,1,0,0:0:0:0:
316,48,387970,6,0,P|408:48|424:148,1,209.999990463257,8|8,0:0|0:0,0:0:0:0:
404,184,388547,1,0,0:0:0:0:
376,212,388663,1,0,0:0:0:0:
344,236,388778,1,0,0:0:0:0:
308,256,388893,2,0,P|272:264|244:260,3,52.4999976158143,8|0|0|0,0:0|0:0|0:0|0:0,0:0:0:0:
216,260,389355,5,8,0:0:0:0:
136,232,389586,5,0,0:0:0:0:
120,132,391663,6,0,P|112:180|136:240,2,104.999995231629,8|0|8,0:0|0:0|0:0,0:0:0:0:
176,72,392355,2,0,P|272:32|372:60,1,209.999990463257
412,132,393047,2,0,P|436:200|424:228,1,104.999995231629,8|0,0:0|0:0,0:0:0:0:
364,284,393509,2,0,P|308:324|264:324,1,104.999995231629,8|0,0:0|0:0,0:0:0:0:
224,256,393970,2,0,P|292:212|304:88,2,209.999990463257,8|10|10,0:0|0:0|0:0,0:0:0:0:
172,96,395355,6,0,P|108:104|64:76,2,104.999995231629,8|0|8,0:0|0:0|0:0,0:0:0:0:
256,128,396047,2,0,B|320:156|376:120|376:120|392:168|392:168|440:152,1,209.999990463257
304,28,396740,2,0,P|232:28|196:52,1,104.999995231629,8|0,0:0|0:0,0:0:0:0:
152,108,397201,1,8,0:0:0:0:
116,184,397432,1,0,0:0:0:0:
172,248,397663,2,0,P|236:268|284:268,2,104.999995231629,8|0|10,0:0|0:0|0:0,0:0:0:0:
116,184,398355,1,2,0:0:0:0:
92,104,398586,1,10,0:0:0:0:
256,80,399047,6,0,P|256:132|300:160,2,104.999995231629,8|0|8,0:0|0:0|0:0,0:0:0:0:
344,32,399740,2,0,B|324:80|324:80|388:68|460:64|408:148|408:148,1,209.999990463257
408,212,400432,2,0,P|356:252|316:260,1,104.999995231629,8|0,0:0|0:0,0:0:0:0:
236,276,400893,2,0,P|176:280|128:260,1,104.999995231629,8|0,0:0|0:0,0:0:0:0:
88,196,401355,2,0,P|72:136|96:88,1,104.999995231629,8|0,0:0|0:0,0:0:0:0:
172,48,401817,1,10,0:0:0:0:
176,52,402278,1,10,0:0:0:0:
268,192,402740,6,0,B|308:156|308:156|364:152,2,104.999995231629,8|0|8,0:0|0:0|0:0,0:0:0:0:
200,240,403432,2,0,B|120:312|120:312|204:240,1,209.999990463257
256,184,404124,2,0,P|312:132|340:116,1,104.999995231629,8|0,0:0|0:0,0:0:0:0:
416,88,404586,2,0,P|436:144|420:192,1,104.999995231629,8|0,0:0|0:0,0:0:0:0:
380,260,405047,2,0,P|348:308|300:316,1,104.999995231629,8|0,0:0|0:0,0:0:0:0:
264,244,405509,2,0,P|244:188|196:164,2,104.999995231629,10|2|10,0:0|0:0|0:0,0:0:0:0:
92,296,406432,5,8,0:0:0:0:
176,36,406893,1,8,0:0:0:0:
92,300,407355,1,8,0:0:0:0:
256,308,407817,1,8,0:0:0:0:
376,216,408047,1,0,0:0:0:0:
404,68,408278,1,8,0:0:0:0:
228,40,408740,1,8,0:0:0:0:
132,120,408970,1,0,0:0:0:0:
228,40,409201,1,10,0:0:0:0:
264,168,409432,1,2,0:0:0:0:
228,40,409663,1,10,0:0:0:0:
420,48,410124,5,8,0:0:0:0:
96,272,410586,1,8,0:0:0:0:
440,332,411047,1,8,0:0:0:0:
124,112,411509,1,8,0:0:0:0:
400,268,411970,1,8,0:0:0:0:
424,48,412432,1,8,0:0:0:0:
100,152,412893,1,10,0:0:0:0:
232,292,413124,1,2,0:0:0:0:
40,312,413355,1,10,0:0:0:0:
344,44,413817,6,0,P|452:60|472:148,2,209.999990463257,8|8|8,0:0|0:0|0:0,0:0:0:0:
176,60,415201,2,0,P|92:80|72:92,1,104.999995231629,8|0,0:0|0:0,0:0:0:0:
84,172,415663,1,8,0:0:0:0:
148,224,415893,1,0,0:0:0:0:
232,228,416124,2,0,P|272:156|276:128,2,104.999995231629,8|0|8,0:0|0:0|0:0,0:0:0:0:
148,248,416817,1,0,0:0:0:0:
96,180,417047,1,8,0:0:0:0:
160,128,417278,1,0,0:0:0:0:
244,132,417509,2,0,P|292:176|304:228,1,104.999995231629,10|0,0:0|0:0,0:0:0:0:
304,296,417970,2,0,P|236:324|196:316,1,104.999995231629,10|0,0:0|0:0,0:0:0:0:
124,308,418432,2,0,P|56:260|48:232,1,104.999995231629,10|0,0:0|0:0,0:0:0:0:
156,112,418893,5,10,0:0:0:0:
200,88,419009,1,0,0:0:0:0:
252,80,419124,1,0,0:0:0:0:
300,100,419240,1,0,0:0:0:0:
328,136,419355,1,10,0:0:0:0:
340,180,419470,1,0,0:0:0:0:
316,224,419586,1,0,0:0:0:0:
272,248,419701,1,0,0:0:0:0:
224,228,419817,1,10,0:0:0:0:
184,196,419932,1,0,0:0:0:0:
124,196,420047,1,2,0:0:0:0:
88,232,420163,1,0,0:0:0:0:
84,280,420278,5,10,0:0:0:0:
112,320,420393,1,0,0:0:0:0:
160,316,420509,1,2,0:0:0:0:
200,284,420624,1,0,0:0:0:0:
216,232,420740,1,10,0:0:0:0:
200,184,420855,1,0,0:0:0:0:
172,140,420970,1,2,0:0:0:0:
176,88,421086,1,0,0:0:0:0:
216,56,421201,5,0,0:0:0:0:
384,64,421432,1,0,0:0:0:0:
384,64,421547,1,0,0:0:0:0:
188,224,421893,1,0,0:0:0:0:
264,32,422240,1,0,0:0:0:0:
72,192,422586,1,0,0:0:0:0:
224,264,422817,1,0,0:0:0:0:
224,264,422932,1,0,0:0:0:0:
224,264,423047,1,0,0:0:0:0:
20,48,423393,5,0,0:0:0:0:
272,80,423740,1,0,0:0:0:0:
376,308,424086,1,0,0:0:0:0:
460,72,424432,1,0,0:0:0:0:
300,124,424663,1,0,0:0:0:0:
300,124,424778,1,0,0:0:0:0:
300,124,424893,1,0,0:0:0:0:
56,56,425240,5,0,0:0:0:0:
144,292,425586,1,0,0:0:0:0:
396,300,425932,1,0,0:0:0:0:
216,124,426278,1,0,0:0:0:0:
376,72,426509,1,0,0:0:0:0:
376,72,426624,1,0,0:0:0:0:
376,72,426740,1,0,0:0:0:0:
156,244,427086,5,0,0:0:0:0:
408,312,427432,1,0,0:0:0:0:
380,60,427778,1,0,0:0:0:0:
140,136,428124,1,0,0:0:0:0:
64,284,428355,1,0,0:0:0:0:
232,304,428586,5,0,0:0:0:0:
352,84,428932,1,0,0:0:0:0:
100,92,429278,1,0,0:0:0:0:
28,332,429624,1,0,0:0:0:0:
252,216,429970,1,0,0:0:0:0:
296,144,430201,2,0,L|384:112,2,52.4999976158143
112,136,430778,1,0,0:0:0:0:
272,328,431124,1,0,0:0:0:0:
368,96,431470,1,0,0:0:0:0:
440,340,431817,1,0,0:0:0:0:
272,332,432047,1,0,0:0:0:0:
104,312,432278,5,0,0:0:0:0:
48,68,432624,1,0,0:0:0:0:
300,80,432970,1,0,0:0:0:0:
48,68,433317,1,0,0:0:0:0:
240,228,433663,1,0,0:0:0:0:
324,236,433893,2,0,L|392:244,2,52.4999976158143
260,40,434470,1,0,0:0:0:0:
60,192,434817,1,0,0:0:0:0:
280,316,435163,1,0,0:0:0:0:
344,72,435509,1,0,0:0:0:0:
196,152,435740,2,0,L|132:184,1,52.4999976158143,0|2,0:0|0:0,0:0:0:0:
