osu file format v14

[General]
AudioFilename: audio.mp3
AudioLeadIn: 0
PreviewTime: 51311
Countdown: 1
SampleSet: Normal
StackLeniency: 0.7
Mode: 0
LetterboxInBreaks: 0
WidescreenStoryboard: 0

[Editor]
Bookmarks: 442,18181,34876,51572,68267,84963,101658,110006,143398
DistanceSpacing: 1
BeatDivisor: 4
GridSize: 4
TimelineZoom: 1.7

[Metadata]
Title:Cryptogenic Desires
TitleUnicode:Cryptogenic Desires
Artist:Leprous
ArtistUnicode:Leprous
Creator:fjollesmoll
Version:V1.0
Source:
Tags:progressive metal
BeatmapID:1349618
BeatmapSetID:635997

[Difficulty]
HPDrainRate:5.3
CircleSize:5
OverallDifficulty:8.5
ApproachRate:9.2
SliderMultiplier:1.4
SliderTickRate:1

[Events]
//Background and Video events
0,0,"bg.jpg",0,0
//Break Periods
//Storyboard Layer 0 (Background)
//Storyboard Layer 1 (Fail)
//Storyboard Layer 2 (Pass)
//Storyboard Layer 3 (Foreground)
//Storyboard Sound Samples

[TimingPoints]
442,521.739130434783,6,1,0,100,1,0
3572,521.739130434783,4,1,0,100,1,0
58876,-50,4,1,0,100,0,0
59919,-100,4,1,0,100,0,0
107919,-200,4,1,0,100,0,0
109485,-100,4,1,0,100,0,0
117311,-50,4,1,0,100,0,0
118354,-100,4,1,0,100,0,0
143398,-50,4,1,0,100,0,0
145485,-100,4,1,0,100,0,0

[HitObjects]
204,60,442,5,0,0:0:0:0:
212,80,528,2,0,L|220:104,1,23.3333333333333
308,108,702,1,0,0:0:0:0:
300,128,789,2,0,L|292:152,1,23.3333333333333
256,192,963,1,0,0:0:0:0:
100,96,1485,6,0,L|100:144,1,35
100,152,1746,1,0,0:0:0:0:
144,264,2007,2,0,L|132:232,2,23.3333333333333
192,280,2268,2,0,L|184:252,2,23.3333333333333
228,296,2528,1,0,0:0:0:0:
360,304,2789,5,0,0:0:0:0:
380,216,2920,1,0,0:0:0:0:
372,56,3050,2,0,P|372:76|364:96,1,35
348,104,3311,1,0,0:0:0:0:
420,104,3572,6,0,P|420:124|412:144,1,35
292,248,3833,1,0,0:0:0:0:
372,200,4094,1,0,0:0:0:0:
296,108,4355,6,0,L|308:140,2,23.3333333333333
248,92,4616,2,0,L|256:120,2,23.3333333333333
212,76,4876,1,0,0:0:0:0:
120,40,5137,5,0,0:0:0:0:
112,108,5268,1,0,0:0:0:0:
100,180,5398,1,0,0:0:0:0:
172,160,5659,6,0,L|192:220,1,46.6666666666667
192,224,5920,1,0,0:0:0:0:
252,308,6180,5,0,0:0:0:0:
256,292,6268,2,0,L|264:268,1,23.3333333333333
320,280,6442,1,0,0:0:0:0:
328,260,6528,2,0,L|336:236,1,23.3333333333333
392,252,6702,1,0,0:0:0:0:
420,196,6964,5,0,0:0:0:0:
368,120,7094,1,0,0:0:0:0:
308,36,7224,2,0,L|308:80,1,35,0|0,0:3|0:3,0:3:0:0:
308,92,7485,1,0,0:0:0:0:
308,176,7746,6,0,L|308:124,1,35
312,332,8007,1,0,0:0:0:0:
308,136,8268,1,0,0:1:0:0:
280,192,8528,5,0,0:0:0:0:
272,172,8615,2,0,L|264:148,1,23.3333333333333
208,160,8788,1,0,0:0:0:0:
204,140,8876,2,0,L|196:116,1,23.3333333333333
136,132,9050,1,0,0:0:0:0:
100,188,9311,5,0,0:0:0:0:
72,116,9442,1,0,0:0:0:0:
44,44,9572,1,0,0:0:0:0:
320,76,9833,6,0,L|320:132,1,35
316,248,10094,1,0,0:0:0:0:
388,76,10355,1,0,0:0:0:0:
396,244,10615,5,0,0:0:0:0:
392,256,10702,1,0,0:0:0:0:
384,272,10789,1,0,0:0:0:0:
368,288,10876,5,0,0:0:0:0:
336,300,10963,1,0,0:0:0:0:
304,296,11050,1,0,0:0:0:0:
272,280,11137,5,0,0:0:0:0:
188,252,11398,5,0,0:0:0:0:
208,148,11528,1,0,0:0:0:0:
220,48,11659,1,0,0:0:0:0:
92,64,11920,6,0,P|76:84|72:112,1,35
92,160,12181,1,4,0:0:0:0:
244,264,12442,1,0,0:0:0:0:
316,248,12963,5,0,0:0:0:0:
332,244,13050,1,0,0:0:0:0:
344,236,13137,1,0,0:0:0:0:
356,224,13224,5,0,0:0:0:0:
368,208,13311,1,0,0:0:0:0:
376,184,13398,1,0,0:0:0:0:
372,152,13485,5,0,0:0:0:0:
296,92,13746,1,0,0:0:0:0:
288,176,13876,1,0,0:0:0:0:
280,264,14007,6,0,P|260:260|248:248,1,35
140,140,14268,1,0,0:0:0:0:
180,56,14528,1,0,0:0:0:0:
280,80,14789,5,0,0:0:0:0:
292,88,14876,1,0,0:0:0:0:
304,96,14963,1,0,0:0:0:0:
296,128,15050,5,0,0:0:0:0:
296,140,15137,1,0,0:0:0:0:
296,152,15224,1,0,0:0:0:0:
336,168,15311,5,0,0:0:0:0:
424,124,15572,5,0,0:0:0:0:
408,224,15702,1,0,0:0:0:0:
336,308,15833,1,0,0:0:0:0:
80,312,16094,6,0,L|112:280,1,35
128,264,16355,1,0,0:0:0:0:
164,80,16615,5,0,0:0:0:0:
172,204,17137,5,0,0:0:0:0:
176,216,17224,1,0,0:0:0:0:
180,228,17311,1,0,0:0:0:0:
224,244,17398,5,0,0:0:0:0:
236,248,17485,1,0,0:0:0:0:
248,252,17572,1,0,0:0:0:0:
288,232,17659,5,0,0:0:0:0:
376,192,17920,1,0,0:0:0:0:
332,72,18050,1,0,0:0:0:0:
216,96,18181,5,0,0:0:0:0:
192,96,18311,1,0,0:0:0:0:
164,96,18442,1,0,0:0:0:0:
156,32,18572,5,0,0:0:0:0:
92,136,18702,1,0,0:0:0:0:
92,68,18832,1,0,0:0:0:0:
156,160,18963,1,0,0:0:0:0:
256,192,19485,1,0,0:0:0:0:
256,192,19746,1,0,0:0:0:0:
296,280,20268,5,0,0:0:0:0:
324,280,20398,1,0,0:0:0:0:
348,280,20529,1,0,0:0:0:0:
360,348,20659,5,0,0:0:0:0:
420,244,20789,1,0,0:0:0:0:
420,308,20920,1,0,0:0:0:0:
360,216,21050,1,0,0:0:0:0:
256,192,21572,1,0,0:0:0:0:
256,192,21833,1,0,0:0:0:0:
172,156,22355,1,0,0:0:0:0:
228,236,22485,1,0,0:0:0:0:
264,148,22615,1,0,0:0:0:0:
192,72,22746,5,0,0:0:0:0:
296,152,22876,1,0,0:0:0:0:
224,260,23007,1,0,0:0:0:0:
152,160,23137,1,0,0:0:0:0:
256,192,23659,1,0,0:0:0:0:
256,192,23920,1,0,0:0:0:0:
292,248,24442,1,0,0:0:0:0:
204,140,24572,1,0,0:0:0:0:
328,160,24702,1,0,0:0:0:0:
200,240,24833,5,0,0:0:0:0:
356,148,24963,1,0,0:0:0:0:
184,116,25094,1,0,0:0:0:0:
308,272,25224,1,0,0:0:0:0:
400,68,25746,1,0,0:0:0:0:
403,91,25832,1,0,0:0:0:0:
404,114,25919,1,0,0:0:0:0:
403,137,26006,5,0,0:0:0:0:
401,160,26093,1,0,0:0:0:0:
397,183,26180,1,0,0:0:0:0:
368,200,26268,6,0,L|340:184,2,23.3333333333333
344,140,26528,5,0,0:0:0:0:
148,104,26659,1,0,0:0:0:0:
296,80,26789,5,0,0:0:0:0:
108,180,26920,1,0,0:0:0:0:
304,208,27050,5,0,0:0:0:0:
168,236,27181,1,0,0:0:0:0:
244,264,27311,5,0,0:0:0:0:
216,192,27833,5,0,0:0:0:0:
296,192,28094,1,0,0:0:0:0:
416,248,28615,5,0,0:0:0:0:
408,124,28746,1,0,0:0:0:0:
348,288,28876,5,0,0:0:0:0:
340,80,29007,1,0,0:0:0:0:
284,240,29137,5,0,0:0:0:0:
276,112,29268,1,0,0:0:0:0:
228,176,29398,5,0,0:0:0:0:
296,192,29920,5,0,0:0:0:0:
216,192,30181,1,0,0:0:0:0:
156,248,30702,5,0,0:0:0:0:
112,104,30833,1,0,0:0:0:0:
252,68,30963,1,0,0:0:0:0:
299,203,31094,5,0,0:3:0:0:
248,84,31224,1,0,0:3:0:0:
132,116,31355,1,0,0:3:0:0:
160,224,31485,1,0,0:3:0:0:
256,224,32007,5,0,0:0:0:0:
256,156,32268,1,0,0:0:0:0:
356,248,32789,5,0,0:0:0:0:
400,104,32920,1,0,0:0:0:0:
260,68,33050,1,0,0:0:0:0:
212,203,33181,5,0,0:0:0:0:
264,84,33311,1,0,0:0:0:0:
384,108,33442,1,0,0:0:0:0:
352,224,33572,1,0,0:0:0:0:
312,164,34094,1,0,0:0:0:0:
296,196,34181,1,0,0:0:0:0:
280,216,34268,1,0,0:0:0:0:
256,232,34355,1,0,0:0:0:0:
228,248,34442,1,0,0:0:0:0:
204,256,34528,1,0,0:0:0:0:
180,252,34615,6,0,L|156:236,2,23.3333333333333
80,308,34876,5,0,0:0:0:0:
160,60,35268,1,0,0:0:0:0:
80,80,35398,1,0,0:0:0:0:
284,292,35659,1,0,0:0:0:0:
80,224,35920,1,0,0:0:0:0:
336,148,36181,1,0,0:0:0:0:
80,152,36442,1,0,0:0:0:0:
420,300,36963,5,0,0:0:0:0:
336,100,37355,1,0,0:0:0:0:
416,76,37485,1,0,0:0:0:0:
188,64,37746,1,0,0:0:0:0:
416,236,38007,1,0,0:0:0:0:
184,248,38268,1,0,0:0:0:0:
416,152,38528,1,0,0:0:0:0:
136,72,39050,6,0,L|152:108,1,35
264,304,39311,1,0,0:0:0:0:
264,304,39442,2,0,L|276:252,1,35
308,180,39702,1,0,0:0:0:0:
348,80,39833,1,0,0:0:0:0:
196,64,40094,1,0,0:0:0:0:
256,192,40355,1,0,0:0:0:0:
304,68,40615,1,0,0:0:0:0:
136,312,41137,6,0,L|152:276,1,35
264,80,41398,1,0,0:0:0:0:
264,80,41529,2,0,L|276:132,1,35
292,192,41789,1,0,0:0:0:0:
324,312,41920,1,0,0:0:0:0:
196,320,42181,1,0,0:0:0:0:
312,284,42442,5,0,0:0:0:0:
332,260,42528,1,0,0:0:0:0:
348,228,42615,1,0,0:0:0:0:
356,196,42702,1,0,0:0:0:0:
352,160,42789,1,0,0:0:0:0:
340,128,42876,1,0,0:0:0:0:
320,104,42963,6,0,L|300:80,2,23.3333333333333
252,48,43224,5,0,0:0:0:0:
192,56,43355,1,0,0:0:0:0:
132,76,43485,1,0,0:0:0:0:
68,156,43615,5,0,0:0:0:0:
172,136,43746,1,0,0:0:0:0:
272,168,43876,5,0,0:0:0:0:
164,216,44007,1,0,0:0:0:0:
292,64,44268,5,0,0:0:0:0:
400,188,44528,5,0,0:0:0:0:
268,324,44789,5,0,0:0:0:0:
152,288,45311,5,0,0:0:0:0:
120,232,45442,1,0,0:0:0:0:
108,172,45572,1,0,0:0:0:0:
152,92,45702,5,0,0:0:0:0:
232,152,45833,1,0,0:0:0:0:
264,244,45963,5,0,0:0:0:0:
176,196,46094,1,0,0:0:0:0:
392,192,46355,5,0,0:0:0:0:
188,76,46615,5,0,0:0:0:0:
92,288,46876,5,0,0:0:0:0:
188,76,47398,1,0,0:0:0:0:
256,80,47529,1,0,0:0:0:0:
316,108,47659,1,0,0:0:0:0:
388,168,47789,5,0,0:0:0:0:
304,188,47920,1,0,0:0:0:0:
216,176,48051,1,0,0:0:0:0:
136,140,48181,1,0,0:0:0:0:
368,244,48442,5,0,0:0:0:0:
52,184,48963,5,0,0:0:0:0:
168,312,49485,1,0,0:0:0:0:
236,320,49615,1,0,0:0:0:0:
304,312,49746,1,0,0:0:0:0:
376,292,49876,5,0,0:0:0:0:
332,224,50007,1,0,0:0:0:0:
284,160,50137,1,0,0:0:0:0:
240,96,50268,5,0,0:0:0:0:
236,92,50398,1,0,0:0:0:0:
316,80,50528,1,0,0:0:0:0:
312,76,50658,1,0,0:0:0:0:
384,164,50920,5,0,0:0:0:0:
380,160,51050,1,0,0:0:0:0:
336,328,51311,5,0,0:0:0:0:
232,260,51572,1,0,0:0:0:0:
40,328,51702,1,0,0:0:0:0:
424,268,51963,2,0,L|460:268,1,35
76,240,52224,1,0,0:0:0:0:
460,184,52485,5,0,0:0:0:0:
68,124,52745,1,0,0:0:0:0:
328,84,53006,1,0,0:0:0:0:
480,36,53137,1,0,0:0:0:0:
44,28,53398,1,0,0:0:0:0:
256,192,53658,5,0,0:0:0:0:
240,284,53789,1,0,0:0:0:0:
292,96,54050,2,0,L|308:64,1,35
180,320,54311,1,0,0:0:0:0:
360,48,54572,5,0,0:0:0:0:
104,332,54832,1,0,0:0:0:0:
428,24,55093,1,0,0:0:0:0:
240,48,55224,1,0,0:0:0:0:
280,348,55485,1,0,0:0:0:0:
412,212,55745,5,0,0:0:0:0:
468,356,55876,1,0,0:0:0:0:
444,64,56137,2,0,L|452:24,1,35
380,320,56398,1,0,0:0:0:0:
316,20,56658,5,0,0:0:0:0:
240,344,56919,1,0,0:0:0:0:
168,60,57180,1,0,0:0:0:0:
136,192,57311,1,0,0:0:0:0:
96,24,57572,1,0,0:0:0:0:
40,320,57832,6,0,B|96:356|168:296|168:296|176:364|240:348,1,245
300,324,58876,6,0,P|380:292|308:172,1,233.333333333333
360,100,59398,6,0,P|280:132|352:252,1,233.333333333333
360,244,59919,5,0,0:0:0:0:
420,128,60050,1,0,0:0:0:0:
232,228,60311,1,0,0:0:0:0:
408,344,60572,1,0,0:0:0:0:
288,64,60832,5,0,0:0:0:0:
84,272,61093,1,0,0:0:0:0:
404,352,61354,1,0,0:0:0:0:
456,204,61485,1,0,0:0:0:0:
92,52,61745,1,0,0:0:0:0:
248,256,62006,5,0,0:0:0:0:
164,176,62137,1,0,0:0:0:0:
356,152,62398,1,0,0:0:0:0:
200,344,62658,1,0,0:0:0:0:
320,32,62919,5,0,0:0:0:0:
488,308,63180,1,0,0:0:0:0:
44,140,63441,1,0,0:0:0:0:
44,40,63572,1,0,0:0:0:0:
44,140,63832,1,0,0:0:0:0:
200,40,64093,5,0,0:0:0:0:
200,40,64224,1,0,0:0:0:0:
200,344,64485,1,0,0:0:0:0:
200,40,64745,5,0,0:0:0:0:
328,44,65006,5,0,0:0:0:0:
444,44,65267,5,0,0:0:0:0:
444,44,65528,1,0,0:0:0:0:
444,352,65658,1,0,0:0:0:0:
444,44,65919,5,0,0:0:0:0:
380,196,66180,6,0,P|344:232|280:224,1,116.666666666667
272,216,66702,1,0,0:0:0:0:
152,108,67224,5,0,0:0:0:0:
148,280,67745,5,0,0:0:0:0:
324,260,68267,5,0,0:0:0:0:
324,260,68789,5,0,0:0:0:0:
328,252,68919,1,0,0:0:0:0:
332,244,69050,1,0,0:0:0:0:
336,236,69180,1,0,0:0:0:0:
340,228,69311,1,0,0:0:0:0:
452,120,69572,5,0,0:0:0:0:
456,112,69702,1,0,0:0:0:0:
460,104,69832,1,0,0:0:0:0:
196,272,70354,5,0,0:0:0:0:
196,80,70615,1,0,0:0:0:0:
192,172,70876,1,0,0:0:0:0:
176,272,71137,5,0,0:0:0:0:
168,264,71267,1,0,0:0:0:0:
160,256,71398,1,0,0:0:0:0:
152,248,71528,1,0,0:0:0:0:
144,240,71658,1,0,0:0:0:0:
72,116,71919,5,0,0:0:0:0:
64,108,72050,1,0,0:0:0:0:
56,100,72180,1,0,0:0:0:0:
224,72,72441,1,0,0:0:0:0:
224,72,72963,5,0,0:0:0:0:
232,84,73093,1,0,0:0:0:0:
240,96,73224,1,0,0:0:0:0:
232,108,73354,1,0,0:0:0:0:
220,120,73485,1,0,0:0:0:0:
212,264,73745,5,0,0:0:0:0:
204,276,73876,1,0,0:0:0:0:
212,288,74006,1,0,0:0:0:0:
124,324,74528,5,0,0:0:0:0:
400,320,74789,1,0,0:0:0:0:
320,172,75050,1,0,0:0:0:0:
320,264,75311,5,0,0:0:0:0:
312,252,75441,1,0,0:0:0:0:
304,240,75572,1,0,0:0:0:0:
312,228,75702,1,0,0:0:0:0:
320,216,75832,1,0,0:0:0:0:
280,112,76093,5,0,0:0:0:0:
288,100,76224,1,0,0:0:0:0:
296,88,76354,1,0,0:0:0:0:
380,184,76615,2,0,P|336:184|304:212,1,70
268,244,77006,1,0,0:0:0:0:
92,176,77398,5,0,0:0:0:0:
92,164,77528,1,0,0:0:0:0:
92,152,77658,1,0,0:0:0:0:
92,140,77789,1,0,0:0:0:0:
92,72,77919,1,0,0:0:0:0:
164,236,78180,5,0,0:0:0:0:
200,180,78311,1,0,0:0:0:0:
232,128,78441,1,0,0:0:0:0:
300,272,78702,2,0,P|344:260|376:208,1,105
408,32,79224,1,0,0:0:0:0:
472,232,79485,1,0,0:0:0:0:
400,304,79745,5,0,0:0:0:0:
380,304,79876,1,0,0:0:0:0:
360,264,80006,1,0,0:0:0:0:
360,304,80137,1,0,0:0:0:0:
360,344,80267,1,0,0:0:0:0:
360,344,80528,5,0,0:0:0:0:
360,304,80658,1,0,0:0:0:0:
360,264,80789,2,0,P|376:232|356:208,1,70
304,164,81180,1,0,0:0:0:0:
96,280,81572,5,0,0:0:0:0:
96,248,81702,1,0,0:0:0:0:
100,216,81832,1,0,0:0:0:0:
112,192,81963,1,0,0:0:0:0:
128,168,82093,1,0,0:0:0:0:
128,168,82354,5,0,0:0:0:0:
172,184,82485,1,0,0:0:0:0:
216,200,82615,1,0,0:0:0:0:
356,168,82876,5,0,0:0:0:0:
324,304,83398,5,0,0:0:0:0:
324,304,83919,5,0,0:0:0:0:
332,276,84050,1,0,0:0:0:0:
344,248,84180,1,0,0:0:0:0:
352,216,84311,1,0,0:0:0:0:
360,184,84441,1,0,0:0:0:0:
320,104,84702,1,0,0:0:0:0:
100,100,84963,5,0,0:0:0:0:
96,108,85050,1,0,0:0:0:0:
92,116,85137,1,0,0:0:0:0:
92,124,85224,1,0,0:0:0:0:
92,132,85311,1,0,0:0:0:0:
92,140,85398,1,0,0:0:0:0:
96,148,85485,1,0,0:0:0:0:
100,156,85572,1,0,0:0:0:0:
104,164,85658,1,0,0:0:0:0:
108,176,85745,1,0,0:0:0:0:
108,184,85832,1,0,0:0:0:0:
108,192,85919,1,0,0:0:0:0:
104,200,86006,5,0,0:0:0:0:
112,200,86093,1,0,0:0:0:0:
120,200,86180,1,0,0:0:0:0:
128,204,86267,1,0,0:0:0:0:
136,208,86354,1,0,0:0:0:0:
140,216,86441,1,0,0:0:0:0:
144,224,86528,1,0,0:0:0:0:
144,232,86615,1,0,0:0:0:0:
148,240,86702,1,0,0:0:0:0:
156,248,86789,1,0,0:0:0:0:
164,256,86876,1,0,0:0:0:0:
176,260,86963,1,0,0:0:0:0:
184,268,87050,5,0,0:0:0:0:
180,260,87137,1,0,0:0:0:0:
176,248,87224,1,0,0:0:0:0:
180,236,87311,1,0,0:0:0:0:
188,228,87398,1,0,0:0:0:0:
200,228,87485,1,0,0:0:0:0:
216,232,87572,1,0,0:0:0:0:
224,240,87658,1,0,0:0:0:0:
232,240,87745,1,0,0:0:0:0:
244,232,87832,1,0,0:0:0:0:
252,224,87919,1,0,0:0:0:0:
256,212,88006,1,0,0:0:0:0:
256,196,88093,5,0,0:0:0:0:
268,204,88180,1,0,0:0:0:0:
276,212,88267,1,0,0:0:0:0:
284,220,88354,1,0,0:0:0:0:
292,228,88441,1,0,0:0:0:0:
296,236,88528,1,0,0:0:0:0:
300,248,88615,5,0,0:0:0:0:
300,236,88702,1,0,0:0:0:0:
304,224,88789,1,0,0:0:0:0:
312,216,88876,1,0,0:0:0:0:
320,208,88963,1,0,0:0:0:0:
332,200,89050,1,0,0:0:0:0:
344,192,89137,5,0,0:0:0:0:
356,180,89224,1,0,0:0:0:0:
364,164,89311,1,0,0:0:0:0:
368,148,89398,1,0,0:0:0:0:
364,128,89485,1,0,0:0:0:0:
360,112,89572,1,0,0:0:0:0:
348,92,89658,1,0,0:0:0:0:
328,80,89745,1,0,0:0:0:0:
308,76,89832,1,0,0:0:0:0:
284,80,89919,1,0,0:0:0:0:
264,80,90006,1,0,0:0:0:0:
240,72,90093,1,0,0:0:0:0:
224,60,90180,5,0,0:0:0:0:
216,76,90267,1,0,0:0:0:0:
204,88,90354,1,0,0:0:0:0:
184,96,90441,1,0,0:0:0:0:
160,92,90528,1,0,0:0:0:0:
140,80,90615,1,0,0:0:0:0:
124,60,90702,5,0,0:0:0:0:
120,92,90789,1,0,0:0:0:0:
112,128,90876,1,0,0:0:0:0:
104,160,90963,1,0,0:0:0:0:
96,188,91050,1,0,0:0:0:0:
88,220,91137,1,0,0:0:0:0:
80,248,91224,5,0,0:0:0:0:
100,256,91311,1,0,0:0:0:0:
120,260,91398,1,0,0:0:0:0:
136,256,91485,1,0,0:0:0:0:
156,248,91572,1,0,0:0:0:0:
172,236,91658,1,0,0:0:0:0:
184,224,91745,1,0,0:0:0:0:
204,216,91832,1,0,0:0:0:0:
224,220,91919,1,0,0:0:0:0:
248,232,92006,1,0,0:0:0:0:
264,244,92093,1,0,0:0:0:0:
276,256,92180,1,0,0:0:0:0:
288,276,92267,5,0,0:0:0:0:
316,300,92354,1,0,0:0:0:0:
348,304,92441,1,0,0:0:0:0:
384,300,92528,1,0,0:0:0:0:
412,284,92615,1,0,0:0:0:0:
432,260,92702,1,0,0:0:0:0:
444,228,92789,5,0,0:0:0:0:
396,208,92876,1,0,0:0:0:0:
360,176,92963,1,0,0:0:0:0:
336,132,93050,1,0,0:0:0:0:
328,124,93311,5,0,0:0:0:0:
320,136,93398,1,0,0:0:0:0:
316,156,93485,1,0,0:0:0:0:
320,176,93572,1,0,0:0:0:0:
328,192,93658,1,0,0:0:0:0:
344,204,93745,1,0,0:0:0:0:
360,216,93832,1,0,0:0:0:0:
376,232,93919,1,0,0:0:0:0:
380,248,94006,1,0,0:0:0:0:
376,272,94093,1,0,0:0:0:0:
364,292,94180,1,0,0:0:0:0:
344,304,94267,1,0,0:0:0:0:
324,316,94354,5,0,0:0:0:0:
320,300,94441,1,0,0:0:0:0:
308,284,94528,1,0,0:0:0:0:
288,272,94615,1,0,0:0:0:0:
256,272,94702,1,0,0:0:0:0:
240,288,94789,1,0,0:0:0:0:
232,312,94876,1,0,0:0:0:0:
236,332,94963,1,0,0:0:0:0:
248,352,95050,1,0,0:0:0:0:
272,364,95137,1,0,0:0:0:0:
304,360,95224,1,0,0:0:0:0:
320,340,95311,1,0,0:0:0:0:
328,316,95398,5,0,0:0:0:0:
328,300,95485,1,0,0:0:0:0:
320,280,95572,1,0,0:0:0:0:
312,256,95658,1,0,0:0:0:0:
320,232,95745,1,0,0:0:0:0:
336,216,95832,1,0,0:0:0:0:
356,200,95919,1,0,0:0:0:0:
360,180,96006,1,0,0:0:0:0:
360,160,96093,1,0,0:0:0:0:
348,140,96180,1,0,0:0:0:0:
332,124,96267,1,0,0:0:0:0:
308,108,96354,1,0,0:0:0:0:
280,104,96441,5,0,0:0:0:0:
288,128,96528,1,0,0:0:0:0:
292,152,96615,1,0,0:0:0:0:
292,176,96702,1,0,0:0:0:0:
292,192,96789,1,0,0:0:0:0:
288,216,96876,1,0,0:0:0:0:
280,232,96963,5,0,0:0:0:0:
272,208,97050,1,0,0:0:0:0:
260,184,97137,1,0,0:0:0:0:
248,164,97224,1,0,0:0:0:0:
236,140,97311,1,0,0:0:0:0:
216,120,97398,1,0,0:0:0:0:
200,104,97485,5,0,0:0:0:0:
164,116,97572,1,0,0:0:0:0:
136,140,97658,1,0,0:0:0:0:
120,164,97745,1,0,0:0:0:0:
112,192,97832,1,0,0:0:0:0:
112,224,97919,1,0,0:0:0:0:
120,252,98006,1,0,0:0:0:0:
136,280,98093,1,0,0:0:0:0:
160,304,98180,1,0,0:0:0:0:
188,316,98267,1,0,0:0:0:0:
224,320,98354,1,0,0:0:0:0:
256,316,98441,1,0,0:0:0:0:
288,304,98528,5,0,0:0:0:0:
312,284,98615,1,0,0:0:0:0:
336,260,98702,1,0,0:0:0:0:
356,232,98789,1,0,0:0:0:0:
368,204,98876,1,0,0:0:0:0:
368,172,98963,1,0,0:0:0:0:
360,144,99050,5,0,0:0:0:0:
380,184,99137,1,0,0:0:0:0:
400,224,99224,1,0,0:0:0:0:
416,260,99311,1,0,0:0:0:0:
436,296,99398,1,0,0:0:0:0:
456,336,99485,1,0,0:0:0:0:
472,368,99572,5,0,0:0:0:0:
480,316,99658,1,0,0:0:0:0:
480,264,99745,1,0,0:0:0:0:
468,212,99832,1,0,0:0:0:0:
448,160,99919,1,0,0:0:0:0:
412,120,100006,1,0,0:0:0:0:
368,84,100093,5,0,0:0:0:0:
316,64,100180,1,0,0:0:0:0:
260,48,100267,1,0,0:0:0:0:
204,48,100354,1,0,0:0:0:0:
148,64,100441,1,0,0:0:0:0:
104,96,100528,1,0,0:0:0:0:
84,148,100615,5,0,0:0:0:0:
88,160,100702,1,0,0:0:0:0:
96,172,100789,1,0,0:0:0:0:
104,180,100876,1,0,0:0:0:0:
116,184,100963,1,0,0:0:0:0:
132,188,101050,1,0,0:0:0:0:
160,176,101137,5,0,0:0:0:0:
172,184,101224,1,0,0:0:0:0:
180,196,101311,1,0,0:0:0:0:
184,208,101398,1,0,0:0:0:0:
200,280,101658,5,0,0:0:0:0:
252,252,101919,2,0,L|288:240,2,35
204,284,102311,1,0,0:0:0:0:
344,260,102572,5,0,0:0:0:0:
304,200,102832,2,0,L|292:168,2,35
336,264,103224,1,0,0:0:0:0:
340,288,103485,1,0,0:0:0:0:
368,144,103745,5,0,0:0:0:0:
364,72,104006,2,0,L|376:36,2,35
332,132,104398,1,0,0:0:0:0:
264,176,104658,5,0,0:0:0:0:
200,104,104919,1,0,0:0:0:0:
172,96,105050,2,0,L|160:144,1,46.6666666666667
176,168,105311,1,0,0:0:0:0:
188,208,105572,1,0,0:0:0:0:
216,288,105832,5,0,0:0:0:0:
276,188,106093,1,0,0:0:0:0:
268,124,106224,2,0,L|264:100,2,17.5
344,180,106485,1,0,0:0:0:0:
416,244,106745,5,0,0:0:0:0:
400,144,107006,1,0,0:0:0:0:
392,72,107137,2,0,L|388:48,2,17.5
444,144,107398,1,0,0:0:0:0:
360,212,107658,1,0,0:0:0:0:
264,280,107919,6,0,B|240:296|196:312|132:308|108:284|104:256|117:244|120:240|120:240|132:248,1,198.333333333333
132,244,109485,1,0,0:0:0:0:
256,192,110006,5,0,0:0:0:0:
192,128,110137,1,0,0:0:0:0:
336,112,110398,5,0,0:0:0:0:
344,200,110528,1,0,0:0:0:0:
352,288,110658,1,0,0:0:0:0:
144,304,110919,5,0,0:0:0:0:
128,64,111180,1,0,0:0:0:0:
400,48,111441,5,0,0:0:0:0:
256,272,111572,1,0,0:0:0:0:
256,112,111832,1,0,0:0:0:0:
256,192,112093,5,0,0:0:0:0:
256,192,112224,1,0,0:0:0:0:
160,64,112485,1,0,0:0:0:0:
192,184,112615,1,0,0:0:0:0:
288,280,112745,1,0,0:0:0:0:
344,24,113006,5,0,0:0:0:0:
192,336,113267,1,0,0:0:0:0:
232,104,113528,5,0,0:0:0:0:
280,256,113658,1,0,0:0:0:0:
264,40,113919,1,0,0:0:0:0:
440,352,114180,5,0,0:0:0:0:
440,352,114311,1,0,0:0:0:0:
440,40,114572,5,0,0:0:0:0:
440,192,114702,1,0,0:0:0:0:
440,352,114832,1,0,0:0:0:0:
328,352,115093,5,0,0:0:0:0:
208,352,115354,1,0,0:0:0:0:
208,352,115615,5,0,0:0:0:0:
208,48,115745,1,0,0:0:0:0:
208,352,116006,1,0,0:0:0:0:
72,352,116267,6,0,B|68:212|68:212|95:252|115:273|168:288,1,245
176,304,117311,6,0,L|352:152,1,233.333333333333
424,160,117832,6,0,L|240:320,1,233.333333333333
216,336,118354,5,0,0:0:0:0:
400,240,118485,1,0,0:0:0:0:
104,288,118745,5,0,0:0:0:0:
256,264,118876,1,0,0:0:0:0:
408,312,119006,1,0,0:0:0:0:
72,192,119267,5,0,0:0:0:0:
456,136,119528,1,0,0:0:0:0:
112,72,119789,5,0,0:0:0:0:
400,80,119919,1,0,0:0:0:0:
120,72,120180,1,0,0:0:0:0:
64,256,120441,5,0,0:0:0:0:
96,352,120572,1,0,0:0:0:0:
176,48,120832,5,0,0:0:0:0:
184,200,120963,1,0,0:0:0:0:
240,360,121093,1,0,0:0:0:0:
288,16,121354,5,0,0:0:0:0:
336,320,121615,1,0,0:0:0:0:
408,40,121876,5,0,0:0:0:0:
448,344,122006,1,0,0:0:0:0:
456,352,122267,1,0,0:0:0:0:
144,56,122528,5,0,0:0:0:0:
144,56,122658,1,0,0:0:0:0:
312,344,122919,5,0,0:0:0:0:
256,192,123050,1,0,0:0:0:0:
208,48,123180,1,0,0:0:0:0:
200,344,123441,5,0,0:0:0:0:
304,48,123702,1,0,0:0:0:0:
256,192,123963,5,0,0:0:0:0:
144,272,124093,1,0,0:0:0:0:
368,120,124354,1,0,0:0:0:0:
80,48,124615,5,0,0:0:0:0:
432,336,125137,5,0,0:0:0:0:
352,152,125398,1,0,0:0:0:0:
344,148,125463,1,0,0:0:0:0:
336,148,125528,1,0,0:0:0:0:
328,152,125593,1,0,0:0:0:0:
320,160,125658,5,0,0:0:0:0:
296,184,125724,1,0,0:0:0:0:
280,208,125789,1,0,0:0:0:0:
256,232,125854,1,0,0:0:0:0:
232,248,125919,1,0,0:0:0:0:
200,256,125985,1,0,0:0:0:0:
168,256,126050,1,0,0:0:0:0:
144,240,126115,1,0,0:0:0:0:
128,216,126180,1,0,0:0:0:0:
128,176,126245,5,0,0:0:0:0:
152,136,126311,1,0,0:0:0:0:
192,120,126376,1,0,0:0:0:0:
232,128,126441,1,0,0:0:0:0:
264,152,126506,1,0,0:0:0:0:
304,160,126572,1,0,0:0:0:0:
336,136,126637,1,0,0:0:0:0:
344,96,126702,5,0,0:0:0:0:
400,272,126963,1,0,0:0:0:0:
416,320,127093,1,0,0:0:0:0:
432,160,127224,5,0,0:0:0:0:
408,272,127354,1,0,0:0:0:0:
296,168,127615,6,0,P|272:152|256:128,1,35
232,72,127876,1,0,0:0:0:0:
216,40,128006,1,0,0:0:0:0:
424,96,128267,1,0,0:0:0:0:
184,280,128528,1,0,0:0:0:0:
152,232,128789,5,0,0:0:0:0:
88,72,129050,1,0,0:0:0:0:
72,24,129180,1,0,0:0:0:0:
56,184,129311,5,0,0:0:0:0:
72,72,129441,1,0,0:0:0:0:
136,280,129702,5,0,0:0:0:0:
184,200,129963,1,0,0:0:0:0:
208,88,130093,1,0,0:0:0:0:
344,72,130354,1,0,0:0:0:0:
320,304,130615,1,0,0:0:0:0:
408,256,130876,5,0,0:0:0:0:
408,248,131137,1,0,0:0:0:0:
408,64,131267,2,0,L|408:112,1,35
408,272,131528,1,0,0:0:0:0:
408,344,131789,5,0,0:0:0:0:
408,144,132050,1,0,0:0:0:0:
408,16,132180,2,0,L|408:88,1,70
408,96,132702,1,0,0:0:0:0:
256,96,132963,5,0,0:0:0:0:
152,176,133485,5,0,0:0:0:0:
160,312,134006,5,0,0:0:0:0:
280,224,134528,5,0,0:0:0:0:
32,288,135050,5,0,0:0:0:0:
32,272,135311,1,0,0:0:0:0:
32,72,135441,1,0,0:0:0:0:
32,184,135572,1,0,0:0:0:0:
32,288,135702,1,0,0:0:0:0:
64,320,135963,5,0,0:0:0:0:
80,192,136224,1,0,0:0:0:0:
96,48,136354,2,0,L|112:104,1,46.6666666666667
120,136,136615,1,0,0:0:0:0:
152,240,136876,1,0,0:0:0:0:
192,344,137137,5,0,0:0:0:0:
240,184,137398,1,0,0:0:0:0:
280,40,137528,1,0,0:0:0:0:
368,192,137658,1,0,0:0:0:0:
464,336,137789,1,0,0:0:0:0:
312,336,138050,5,0,0:0:0:0:
464,192,138311,1,0,0:0:0:0:
344,32,138441,1,0,0:0:0:0:
480,168,138702,5,0,0:0:0:0:
296,288,138963,1,0,0:0:0:0:
128,256,139224,5,0,0:0:0:0:
64,112,139485,1,0,0:0:0:0:
240,32,139615,1,0,0:0:0:0:
96,88,139745,1,0,0:0:0:0:
168,224,139876,1,0,0:0:0:0:
320,320,140137,5,0,0:0:0:0:
408,192,140398,1,0,0:0:0:0:
248,144,140528,2,0,P|272:144|280:176,1,46.6666666666667
304,224,141050,1,0,0:0:0:0:
256,312,141311,6,0,B|232:320|224:304|224:280|288:288|296:320|328:328,1,116.666666666667
320,336,141832,1,0,0:0:0:0:
72,312,142093,5,0,0:0:0:0:
448,224,142354,1,0,0:0:0:0:
80,128,142615,1,0,0:0:0:0:
392,32,142876,5,0,0:0:0:0:
328,56,143006,1,0,0:0:0:0:
264,80,143137,1,0,0:0:0:0:
200,104,143267,1,0,0:0:0:0:
136,128,143398,6,0,B|80:144|-16:184|56:348|56:348|128:228|128:228|208:344|208:344|216:276|304:368|304:268|284:264|284:264|328:272|404:272|404:272|500:100|232:276|272:112,1,1073.33333333333
240,104,145485,6,0,L|212:144,1,35
184,208,145745,1,0,0:0:0:0:
212,56,146006,2,0,P|256:64|280:104,1,70
320,116,146398,5,0,0:0:0:0:
336,152,146528,1,0,0:0:0:0:
364,128,146658,1,0,0:0:0:0:
380,160,146789,1,0,0:0:0:0:
384,168,147050,5,0,0:0:0:0:
348,252,147180,1,0,0:0:0:0:
264,316,147311,1,0,0:0:0:0:
72,84,147572,6,0,P|88:116|68:132,1,35
48,204,147832,1,0,0:0:0:0:
200,120,148093,1,0,0:0:0:0:
208,216,148354,5,0,0:0:0:0:
212,224,148485,2,0,L|224:264,1,35
248,328,148745,5,0,0:0:0:0:
272,328,148876,2,0,L|304:292,1,35
296,172,149137,5,0,0:0:0:0:
460,320,149398,1,0,0:0:0:0:
464,152,149658,6,0,L|444:184,1,35
424,212,149919,1,0,0:0:0:0:
356,32,150180,1,0,0:0:0:0:
296,116,150441,5,0,0:0:0:0:
284,120,150572,2,0,P|260:124|236:116,1,35
224,56,150832,2,0,L|244:8,2,35
192,148,151224,2,0,L|176:188,1,35
136,280,151485,1,0,0:0:0:0:
276,300,151745,5,0,0:0:0:0:
312,288,151876,1,0,0:0:0:0:
352,272,152006,1,0,0:0:0:0:
392,128,152267,2,0,P|380:88|348:68,1,70
280,56,152658,1,0,0:0:0:0:
264,200,152789,5,0,0:0:0:0:
344,144,152919,1,0,0:0:0:0:
200,144,153050,1,0,0:0:0:0:
140,96,153311,5,0,0:0:0:0:
104,172,153441,1,0,0:0:0:0:
92,264,153572,1,0,0:0:0:0:
196,184,153832,5,0,0:0:0:0:
224,272,153963,1,0,0:0:0:0:
212,352,154093,1,0,0:0:0:0:
284,216,154354,6,0,P|304:252|348:232,1,70
368,220,154745,1,0,0:0:0:0:
444,156,154876,5,0,0:0:0:0:
432,60,155006,1,0,0:0:0:0:
336,104,155137,1,0,0:0:0:0:
264,48,155398,6,0,P|232:44|216:56,1,35
160,88,155658,1,0,0:0:0:0:
288,192,155919,6,0,P|264:184|236:200,1,35
192,240,156180,1,0,0:0:0:0:
136,116,156441,1,0,0:0:0:0:
104,308,156702,5,0,0:0:0:0:
160,320,156963,1,0,0:0:0:0:
224,164,157224,1,0,0:0:0:0:
264,320,157485,5,0,0:0:0:0:
316,292,157745,1,0,0:0:0:0:
184,328,158006,6,0,L|188:288,1,35
196,256,158267,1,0,0:0:0:0:
284,124,158528,2,0,P|304:84|364:64,1,105
432,68,159050,5,0,0:0:0:0:
444,136,159311,1,0,0:0:0:0:
232,184,159572,1,0,0:0:0:0:
424,240,159832,1,0,0:0:0:0:
376,304,160093,1,0,0:0:0:0:
256,192,160354,12,0,161572,0:0:0:0:
