osu file format v14

[General]
AudioFilename: audio.mp3
AudioLeadIn: 0
PreviewTime: 30000
Countdown: 0
SampleSet: Normal
StackLeniency: 0.7
Mode: 1
LetterboxInBreaks: 0
WidescreenStoryboard: 1

[Editor]
DistanceSpacing: 0.8
BeatDivisor: 7
GridSize: 32
TimelineZoom: 1.1

[Metadata]
Title:Among Us Trap Remix (Among Drip Theme Song)
TitleUnicode:Among Us Trap Remix (Among Drip Theme Song)
Artist:Leonz
ArtistUnicode:Leonz
Creator:Axer
Version:Muzus
Source:Among Us
Tags:ඞ imposter amogus InnerSloth LLC Meme Electronic Instrumental Videogame Video Game Novelty Futsuu Muzukashii
BeatmapID:3205769
BeatmapSetID:1421463

[Difficulty]
HPDrainRate:8
CircleSize:5
OverallDifficulty:4
ApproachRate:5
SliderMultiplier:1.4
SliderTickRate:1

[Events]
//Background and Video events
0,0,"drip.jpg",0,50
//Break Periods
//Storyboard Layer 0 (Background)
//Storyboard Layer 1 (Fail)
//Storyboard Layer 2 (Pass)
//Storyboard Layer 3 (Foreground)
//Storyboard Layer 4 (Overlay)
//Storyboard Sound Samples

[TimingPoints]
320,638.297872340426,4,1,0,100,1,0
320,-50,4,1,0,100,0,0
479,-100,4,1,0,69,0,0
4947,-50,4,1,0,100,0,0
5585,-100,4,1,0,69,0,0
9256,-100,4,1,0,69,0,0
9468,-92.6773752284497,4,1,0,69,0,0
9681,-86.3539215474623,4,1,0,69,0,0
9894,-80.8383257736026,4,1,0,69,0,0
10107,-75.9850127160919,4,1,0,69,0,0
10320,-71.6814019735324,4,1,0,69,0,0
10532,-66.6666666666667,4,1,0,69,0,0
18192,-59.1715976331361,4,1,0,69,0,0
18830,-60.882800608828,4,1,0,69,0,0
19309,-62.2325943212758,4,1,0,69,0,0
19628,-63.1662060797473,4,1,0,69,0,0
19788,-63.6435958631663,4,1,0,69,0,0
20107,-64.6203554119548,4,1,0,69,0,0
20745,-66.6666666666667,4,1,0,69,0,0
20905,-100,4,1,0,69,0,0
25373,-50,4,1,0,100,0,0
26011,-100,4,1,0,69,0,0
27713,-100,4,1,2,69,0,0
27820,-100,4,1,0,69,0,0
30160,-33.3333333333333,4,1,0,69,0,0
30639,-66.6666666666667,4,1,0,69,0,0
38617,-59.1715976331361,4,1,0,69,0,0
39255,-60.882800608828,4,1,0,69,0,0
39734,-62.2325943212758,4,1,0,69,0,0
40053,-63.1662060797473,4,1,0,69,0,0
40213,-63.6435958631663,4,1,0,69,0,0
40532,-64.6203554119548,4,1,0,69,0,0
41171,-100,4,1,0,69,0,0
45878,-50,4,1,0,100,0,0
46516,-100,4,1,0,69,0,0
48830,-50,4,1,0,69,0,0
49468,-53.3333333333333,4,1,0,69,0,0
50107,-57.1428571428571,4,1,0,69,0,0
50426,-59.2592592592593,4,1,0,69,0,0
50745,-61.5384615384615,4,1,0,69,0,0
50958,-63.1579080332438,4,1,0,69,0,0
51171,-64.8648508400323,4,1,0,69,0,0
51383,-66.6666666666667,4,1,0,69,0,0
59043,-59.1715976331361,4,1,0,69,0,0
59681,-60.882800608828,4,1,0,69,0,0
60160,-62.2325943212758,4,1,0,69,0,0
60479,-63.1662060797473,4,1,0,69,0,0
60639,-63.6435958631663,4,1,0,69,0,0
60958,-64.6203554119548,4,1,0,69,0,0
61596,-66.6666666666667,4,1,0,69,0,0
61756,-100,4,1,0,69,0,0
66224,-50,4,1,0,100,0,0
66862,-100,4,1,0,69,0,0

[HitObjects]
256,192,320,5,4,0:0:0:0:
256,192,958,1,0,0:0:0:0:
256,192,1277,1,0,0:0:0:0:
256,192,1596,1,8,0:0:0:0:
256,192,1915,1,8,0:0:0:0:
256,192,2234,1,0,0:0:0:0:
256,192,2554,1,8,0:0:0:0:
256,192,2873,1,0,0:0:0:0:
256,192,3830,1,0,0:0:0:0:
256,192,3990,1,8,0:0:0:0:
256,192,4149,1,0,0:0:0:0:
256,192,5107,1,4,0:0:0:0:
256,192,5426,1,4,0:0:0:0:
256,192,6064,1,0,0:0:0:0:
256,192,6383,1,0,0:0:0:0:
256,192,6702,1,8,0:0:0:0:
256,192,7022,1,8,0:0:0:0:
256,192,7341,1,0,0:0:0:0:
256,192,7660,1,0,0:0:0:0:
256,192,7979,1,8,0:0:0:0:
256,192,9256,1,8,0:0:0:0:
256,192,9468,1,0,0:0:0:0:
256,192,9681,1,0,0:0:0:0:
256,192,9894,1,12,0:0:0:0:
256,192,10107,1,0,0:0:0:0:
256,192,10320,1,0,0:0:0:0:
256,192,10532,1,4,0:0:0:0:
256,192,10851,1,8,0:0:0:0:
256,192,11171,1,0,0:0:0:0:
256,192,11490,1,0,0:0:0:0:
256,192,11809,1,8,0:0:0:0:
256,192,12128,1,4,0:0:0:0:
256,192,12447,1,8,0:0:0:0:
256,192,12766,1,8,0:0:0:0:
256,192,13085,1,4,0:0:0:0:
256,192,13405,1,8,0:0:0:0:
256,192,14043,1,0,0:0:0:0:
256,192,14202,1,8,0:0:0:0:
256,192,14362,1,0,0:0:0:0:
256,192,14681,1,4,0:0:0:0:
256,192,15160,1,4,0:0:0:0:
256,192,15639,1,4,0:0:0:0:
256,192,15958,1,8,0:0:0:0:
256,192,16277,1,0,0:0:0:0:
256,192,16596,1,0,0:0:0:0:
256,192,16915,1,8,0:0:0:0:
256,192,17234,1,4,0:0:0:0:
256,192,17554,1,0,0:0:0:0:
256,192,17873,1,8,0:0:0:0:
256,192,18192,1,4,0:0:0:0:
256,192,18830,1,4,0:0:0:0:
256,192,19309,1,4,0:0:0:0:
256,192,19628,1,4,0:0:0:0:
256,192,19788,1,4,0:0:0:0:
256,192,20107,1,4,0:0:0:0:
256,192,20745,1,4,0:0:0:0:
256,192,21383,1,8,0:0:0:0:
256,192,21702,1,0,0:0:0:0:
256,192,21862,1,8,0:0:0:0:
256,192,22181,1,8,0:0:0:0:
256,192,22341,1,0,0:0:0:0:
256,192,22660,1,8,0:0:0:0:
256,192,22979,1,0,0:0:0:0:
256,192,23298,1,0,0:0:0:0:
256,192,23937,1,8,0:0:0:0:
256,192,24256,1,0,0:0:0:0:
256,192,24415,1,8,0:0:0:0:
256,192,24734,1,8,0:0:0:0:
256,192,24894,1,0,0:0:0:0:
256,192,25213,1,8,0:0:0:0:
256,192,25532,1,4,0:0:0:0:
256,192,25851,1,4,0:0:0:0:
256,192,26490,1,8,0:0:0:0:
256,192,26809,1,0,0:0:0:0:
256,192,26968,1,8,0:0:0:0:
256,192,27288,1,8,0:0:0:0:
256,192,27447,1,0,0:0:0:0:
256,192,27766,1,12,0:0:0:0:
256,192,28405,1,0,0:0:0:0:
256,192,30000,1,0,0:0:0:0:
256,192,30320,1,12,0:0:0:0:
256,192,30958,1,4,0:0:0:0:
256,192,31277,1,8,0:0:0:0:
256,192,31596,1,0,0:0:0:0:
256,192,31915,1,0,0:0:0:0:
256,192,32234,1,8,0:0:0:0:
256,192,32554,1,4,0:0:0:0:
256,192,32873,1,8,0:0:0:0:
256,192,33192,1,8,0:0:0:0:
256,192,33511,1,4,0:0:0:0:
256,192,33830,1,8,0:0:0:0:
256,192,34468,1,0,0:0:0:0:
256,192,34628,1,8,0:0:0:0:
256,192,34788,1,0,0:0:0:0:
256,192,35107,1,4,0:0:0:0:
256,192,35585,1,4,0:0:0:0:
256,192,36064,1,4,0:0:0:0:
256,192,36702,1,0,0:0:0:0:
256,192,37022,1,0,0:0:0:0:
256,192,37341,1,8,0:0:0:0:
256,192,37660,1,4,0:0:0:0:
256,192,37979,1,0,0:0:0:0:
256,192,38298,1,8,0:0:0:0:
256,192,38617,1,4,0:0:0:0:
256,192,39256,1,4,0:0:0:0:
256,192,39734,1,4,0:0:0:0:
256,192,40054,1,4,0:0:0:0:
256,192,40213,1,4,0:0:0:0:
256,192,40532,1,4,0:0:0:0:
256,192,43085,1,8,0:0:0:0:
256,192,43405,1,0,0:0:0:0:
256,192,43724,1,0,0:0:0:0:
256,192,43883,1,8,0:0:0:0:
256,192,44043,1,0,0:0:0:0:
256,192,44362,1,8,0:0:0:0:
256,192,44681,1,0,0:0:0:0:
256,192,44841,1,8,0:0:0:0:
256,192,45160,1,8,0:0:0:0:
256,192,45320,1,0,0:0:0:0:
256,192,45639,1,0,0:0:0:0:
256,192,45798,1,8,0:0:0:0:
256,192,45958,1,4,0:0:0:0:
256,192,46277,1,4,0:0:0:0:
256,192,46915,1,0,0:0:0:0:
256,192,47234,1,0,0:0:0:0:
256,192,47554,1,8,0:0:0:0:
256,192,47873,1,8,0:0:0:0:
256,192,48192,1,0,0:0:0:0:
256,192,48511,1,8,0:0:0:0:
256,192,48830,1,4,0:0:0:0:
256,192,49468,1,4,0:0:0:0:
256,192,50107,1,4,0:0:0:0:
256,192,50426,1,4,0:0:0:0:
256,192,50745,1,4,0:0:0:0:
256,192,50958,1,4,0:0:0:0:
256,192,51171,1,12,0:0:0:0:
256,192,51383,1,4,0:0:0:0:
256,192,51702,1,8,0:0:0:0:
256,192,52022,1,0,0:0:0:0:
256,192,52341,1,0,0:0:0:0:
256,192,52660,1,8,0:0:0:0:
256,192,52979,1,4,0:0:0:0:
256,192,53298,1,8,0:0:0:0:
256,192,53617,1,8,0:0:0:0:
256,192,53937,1,4,0:0:0:0:
256,192,54256,1,8,0:0:0:0:
256,192,54894,1,0,0:0:0:0:
256,192,55054,1,8,0:0:0:0:
256,192,55213,1,0,0:0:0:0:
256,192,55532,1,4,0:0:0:0:
256,192,56011,1,4,0:0:0:0:
256,192,56490,1,4,0:0:0:0:
256,192,56809,1,8,0:0:0:0:
256,192,57128,1,0,0:0:0:0:
256,192,57447,1,0,0:0:0:0:
256,192,57766,1,8,0:0:0:0:
256,192,58085,1,4,0:0:0:0:
256,192,58405,1,0,0:0:0:0:
256,192,58724,1,8,0:0:0:0:
256,192,59043,1,4,0:0:0:0:
256,192,59681,1,4,0:0:0:0:
256,192,60160,1,4,0:0:0:0:
256,192,60479,1,4,0:0:0:0:
256,192,60639,1,4,0:0:0:0:
256,192,60958,1,4,0:0:0:0:
256,192,61596,1,4,0:0:0:0:
256,192,62234,1,0,0:0:0:0:
256,192,62554,1,0,0:0:0:0:
256,192,62873,1,8,0:0:0:0:
256,192,63192,1,8,0:0:0:0:
256,192,63511,1,0,0:0:0:0:
256,192,63830,1,8,0:0:0:0:
256,192,64149,1,0,0:0:0:0:
256,192,65107,1,0,0:0:0:0:
256,192,65266,1,8,0:0:0:0:
256,192,65426,1,0,0:0:0:0:
256,192,66383,1,4,0:0:0:0:
256,192,66702,1,4,0:0:0:0:
256,192,67341,1,0,0:0:0:0:
256,192,67660,1,0,0:0:0:0:
256,192,67979,1,8,0:0:0:0:
256,192,68298,1,8,0:0:0:0:
256,192,68617,1,0,0:0:0:0:
256,192,68937,1,0,0:0:0:0:
256,192,69256,1,8,0:0:0:0:
256,192,70532,1,8,0:0:0:0:
256,192,70745,1,0,0:0:0:0:
256,192,70958,1,0,0:0:0:0:
256,192,71171,1,8,0:0:0:0:
256,192,71383,1,0,0:0:0:0:
256,192,71596,1,0,0:0:0:0:
256,192,71809,1,0,0:0:0:0:
