osu file format v14

[General]
AudioFilename: short22.mp3
AudioLeadIn: 0
PreviewTime: 66793
Countdown: 1
SampleSet: Soft
StackLeniency: 0.7
Mode: 0
LetterboxInBreaks: 1
WidescreenStoryboard: 1

[Editor]
DistanceSpacing: 2.6
BeatDivisor: 4
GridSize: 8
TimelineZoom: 2.2

[Metadata]
Title:Zhong Ai Qing You (Speed up Version)
TitleUnicode:重爱轻友(加速版)
Artist:Leon Lai
ArtistUnicode:Leon Lai
Creator:napie09
Version:Insane
Source:
Tags:
BeatmapID:1221691
BeatmapSetID:563672

[Difficulty]
HPDrainRate:5
CircleSize:4
OverallDifficulty:6
ApproachRate:8.8
SliderMultiplier:1.6
SliderTickRate:1

[Events]
//Background and Video events
0,0,"china.jpg",0,0
//Break Periods
//Storyboard Layer 0 (Background)
//Storyboard Layer 1 (Fail)
//Storyboard Layer 2 (Pass)
//Storyboard Layer 3 (Foreground)
//Storyboard Sound Samples

[TimingPoints]
-348,357.142857142857,4,2,0,100,1,0
9830,-83.3333333333333,4,2,0,100,0,0
14651,-133.333333333333,4,2,0,100,0,0
15366,-100,4,2,0,100,0,0
26794,-166.666666666667,4,2,0,100,0,0
38937,-100,4,2,0,100,0,0
43223,-66.6666666666667,4,2,0,100,0,0
44116,-83.3333333333333,4,2,0,100,0,0
50901,714.285714285714,4,2,0,100,1,0
50901,-200,4,2,0,100,0,0
51079,357.142857142857,4,2,0,100,1,0
51079,-83.3333333333333,4,2,0,100,0,0
65721,-142.857142857143,4,2,0,100,0,0
66793,-100,4,2,0,100,0,0
76793,-66.6666666666667,4,2,0,100,0,0
77150,-100,4,2,0,100,0,1
88043,-66.6666666666667,4,2,0,100,0,0
88578,-83.3333333333333,4,2,0,100,0,1
101078,-83.3333333333333,4,2,0,100,0,0
113936,-166.666666666667,4,2,0,100,0,0

[HitObjects]
144,304,2330,6,0,P|176:240|216:224,1,80
260,242,2687,1,0,0:0:0:0:
270,162,2866,2,0,P|283:101|266:55,1,80
207,119,3223,1,0,0:0:0:0:
135,84,3401,2,0,L|90:65,2,40
176,208,3759,5,0,0:0:0:0:
176,208,4116,5,0,0:0:0:0:
397,326,6616,6,0,P|429:262|415:236,1,80
350,238,6973,1,0,0:0:0:0:
328,160,7152,2,0,P|341:99|381:72,1,80
411,141,7509,1,0,0:0:0:0:
448,211,7687,2,0,L|433:251,2,40
334,300,8045,5,0,0:0:0:0:
334,300,8402,5,0,0:0:0:0:
158,94,9830,5,0,0:0:0:0:
170,208,10009,2,0,B|223:205|223:205|273:265,1,95.9999970703126
172,320,10366,2,0,L|201:274,3,47.9999985351563
176,320,10723,1,0,0:0:0:0:
94,229,10901,2,0,P|68:165|76:107,1,95.9999970703126
222,42,11259,5,0,0:0:0:0:
165,142,11437,2,0,B|183:191|183:191|261:215,1,95.9999970703126
286,106,11794,2,0,L|239:146,3,47.9999985351563
288,112,12151,1,0,0:0:0:0:
354,184,12330,2,0,P|386:270|369:307,1,95.9999970703126
231,332,12687,5,0,0:0:0:0:
262,220,12866,2,0,B|211:217|211:217|170:163,1,95.9999970703126
268,102,13223,2,0,L|248:154,2,47.9999985351563
360,208,13580,1,0,0:0:0:0:
416,69,13759,5,0,0:0:0:0:
112,192,14651,6,0,L|192:192,1,60.0000022888184
256,192,15009,2,0,L|336:192,1,60.0000022888184
412,193,15366,5,0,0:0:0:0:
381,266,15544,1,0,0:0:0:0:
411,191,15723,1,0,0:0:0:0:
402,111,15901,2,0,L|379:64,2,40
329,146,16259,5,0,0:0:0:0:
298,219,16437,1,0,0:0:0:0:
179,127,16616,5,0,0:0:0:0:
179,127,16705,1,0,0:0:0:0:
179,127,16794,1,0,0:0:0:0:
179,127,16884,2,0,L|142:74,2,40
172,154,17151,1,0,0:0:0:0:
166,182,17241,1,0,0:0:0:0:
161,209,17330,1,0,0:0:0:0:
156,237,17419,1,0,0:0:0:0:
149,265,17509,6,0,L|122:175,1,80
105,111,17866,1,0,0:0:0:0:
82,34,18044,1,0,0:0:0:0:
311,57,18223,5,0,0:0:0:0:
311,57,18312,1,0,0:0:0:0:
311,57,18401,1,0,0:0:0:0:
311,57,18490,1,0,0:0:0:0:
311,57,18580,1,0,0:0:0:0:
291,134,18759,5,0,0:0:0:0:
201,327,18937,5,0,0:0:0:0:
201,327,19026,1,0,0:0:0:0:
201,327,19115,1,0,0:0:0:0:
201,327,19204,1,0,0:0:0:0:
201,327,19294,1,0,0:0:0:0:
221,250,19473,5,0,0:0:0:0:
142,166,19651,6,0,L|107:119,2,40
370,166,20009,2,0,L|405:119,2,40
257,175,20366,2,0,B|232:223|260:251|289:272|256:337,1,160
74,102,20901,1,0,0:0:0:0:
74,102,20991,1,0,0:0:0:0:
74,102,21080,5,0,0:0:0:0:
154,40,21259,1,0,0:0:0:0:
74,102,21437,1,0,0:0:0:0:
82,200,21616,2,0,L|83:249,2,40
151,128,21973,2,0,P|196:156|200:190,1,80
141,307,22330,1,0,0:0:0:0:
141,307,22419,1,0,0:0:0:0:
141,307,22509,6,0,L|195:262,2,40
126,313,22776,1,0,0:0:0:0:
111,323,22866,1,0,0:0:0:0:
92,331,22955,1,0,0:0:0:0:
71,335,23044,1,0,0:0:0:0:
45,335,23134,1,0,0:0:0:0:
27,324,23223,2,0,P|18:274|33:232,1,80
108,130,23580,1,0,0:0:0:0:
94,230,23759,1,0,0:0:0:0:
255,48,23937,5,0,0:0:0:0:
273,56,24026,1,0,0:0:0:0:
289,67,24115,1,0,0:0:0:0:
303,81,24204,1,0,0:0:0:0:
310,93,24294,2,0,P|346:125|381:142,1,80
255,336,24651,5,0,0:0:0:0:
273,328,24740,1,0,0:0:0:0:
289,317,24829,1,0,0:0:0:0:
303,303,24918,1,0,0:0:0:0:
315,287,25009,1,0,0:0:0:0:
376,192,25187,1,0,0:0:0:0:
376,192,25276,1,0,0:0:0:0:
376,192,25366,6,0,L|417:171,2,40
256,200,25723,2,0,L|301:170,2,40
240,208,25991,1,0,0:0:0:0:
223,216,26080,2,0,L|129:266,1,80
79,287,26437,1,0,0:0:0:0:
75,206,26616,1,0,0:0:0:0:
395,55,26794,6,0,L|321:132,1,95.9999970703126
352,217,27330,1,0,0:0:0:0:
258,193,27509,1,0,0:0:0:0:
165,170,27687,1,0,0:0:0:0:
191,262,27866,1,0,0:0:0:0:
95,263,28044,6,0,P|117:312|157:338,1,95.9999970703126
246,345,28580,1,0,0:0:0:0:
191,262,28759,2,0,P|214:229|238:218,1,47.9999985351563
326,195,29116,1,0,0:0:0:0:
416,258,29294,1,0,0:0:0:0:
416,258,29473,1,0,0:0:0:0:
449,153,29651,6,0,L|370:76,1,95.9999970703126
329,34,30187,1,0,0:0:0:0:
260,102,30366,1,0,0:0:0:0:
192,169,30544,1,0,0:0:0:0:
283,197,30723,1,0,0:0:0:0:
224,272,30901,6,0,P|292:290|332:281,1,95.9999970703126
339,278,31348,1,0,0:0:0:0:
359,266,31437,1,0,0:0:0:0:
437,178,31616,1,0,0:0:0:0:
376,47,31794,6,0,P|352:83|334:93,1,47.9999985351563
136,141,32151,6,0,P|160:177|178:187,1,47.9999985351563
349,285,32509,6,0,P|366:268|396:200,1,95.9999970703126
395,98,33044,1,0,0:0:0:0:
298,139,33223,1,0,0:0:0:0:
200,181,33401,1,0,0:0:0:0:
212,75,33580,1,0,0:0:0:0:
116,120,33759,6,0,P|89:169|102:224,1,95.9999970703126
193,310,34294,1,0,0:0:0:0:
255,179,34473,1,0,0:0:0:0:
360,201,34651,1,0,0:0:0:0:
465,179,34830,1,0,0:0:0:0:
390,104,35009,1,0,0:0:0:0:
390,104,35187,1,0,0:0:0:0:
465,179,35366,6,0,L|396:267,1,95.9999970703126
322,326,35901,1,0,0:0:0:0:
243,247,36080,1,0,0:0:0:0:
321,168,36259,1,0,0:0:0:0:
243,90,36437,1,0,0:0:0:0:
243,90,36616,6,0,L|154:156,1,95.9999970703126
145,160,37062,1,0,0:0:0:0:
128,176,37151,1,0,0:0:0:0:
167,279,37330,1,0,0:0:0:0:
263,225,37509,6,0,P|302:204|321:200,1,47.9999985351563
468,188,37866,6,0,P|454:224|436:247,1,47.9999985351563
362,301,38223,1,0,0:0:0:0:
255,328,38401,1,0,0:0:0:0:
150,301,38580,1,0,0:0:0:0:
220,215,38759,1,0,0:0:0:0:
116,93,38937,6,0,P|138:48|176:21,2,80
116,253,39473,2,0,P|138:298|176:325,1,80
278,341,39830,1,0,0:0:0:0:
396,322,40009,1,0,0:0:0:0:
475,232,40187,1,0,0:0:0:0:
470,111,40366,6,0,P|452:63|431:34,2,80
473,238,40901,1,0,0:0:0:0:
398,342,41080,2,0,P|344:357|292:349,1,80
193,340,41437,1,0,0:0:0:0:
87,266,41616,1,0,0:0:0:0:
79,138,41794,5,0,0:0:0:0:
215,53,41973,1,0,0:0:0:0:
433,138,42151,5,0,0:0:0:0:
297,53,42330,1,0,0:0:0:0:
93,209,42509,5,0,0:0:0:0:
200,142,42688,1,0,0:0:0:0:
311,204,42866,1,0,0:0:0:0:
311,204,43044,1,0,0:0:0:0:
152,290,43223,2,0,L|287:316,1,120.000004577637
447,341,43580,2,0,B|424:291|440:257|440:257|390:239,1,120.000004577637
238,185,43937,5,0,0:0:0:0:
354,99,44116,2,0,B|365:149|365:149|352:202,1,95.9999970703126
324,284,44473,1,0,0:0:0:0:
228,284,44651,2,0,L|122:284,2,95.9999970703126
324,284,45187,6,0,P|374:262|411:232,1,95.9999970703126
474,168,45544,1,0,0:0:0:0:
405,99,45723,1,0,0:0:0:0:
337,166,45901,1,0,0:0:0:0:
240,166,46080,2,0,L|165:241,2,95.9999970703126
375,30,46616,5,0,0:0:0:0:
279,30,46794,2,0,P|230:51|202:115,1,95.9999970703126
206,181,47151,1,0,0:0:0:0:
274,112,47330,2,0,P|317:93|364:101,1,95.9999970703126
325,189,47687,5,0,0:0:0:0:
259,259,47866,1,0,0:0:0:0:
193,328,48044,1,0,0:0:0:0:
186,231,48223,2,0,P|208:164|183:111,1,95.9999970703126
150,60,48580,1,0,0:0:0:0:
150,60,48759,2,0,P|203:52|245:69,1,95.9999970703126
272,102,49026,2,0,P|284:129|275:176,6,47.9999985351563
241,66,49651,6,0,P|196:51|150:60,1,95.9999970703126
74,120,50009,1,0,0:0:0:0:
154,171,50187,1,0,0:0:0:0:
85,238,50366,1,0,0:0:0:0:
152,305,50544,2,0,B|192:334|192:334|266:334,1,95.9999970703126
360,291,50901,6,0,L|376:259,1,20
389,179,51257,1,0,0:0:0:0:
354,89,51436,1,0,0:0:0:0:
300,168,51614,6,0,B|239:85|239:85|238:142|224:185,1,191.999994140625
198,264,52150,1,0,0:0:0:0:
96,319,52329,2,0,B|67:253|38:214|38:214|83:214|114:175,1,191.999994140625
166,91,52864,1,0,0:0:0:0:
247,172,53043,1,0,0:0:0:0:
166,91,53221,1,0,0:0:0:0:
50,91,53400,1,0,0:0:0:0:
166,91,53579,1,0,0:0:0:0:
272,48,53757,6,0,P|331:80|354:121,1,95.9999970703126
361,158,54025,1,0,0:0:0:0:
361,191,54114,1,0,0:0:0:0:
354,224,54204,1,0,0:0:0:0:
342,255,54293,2,0,P|323:292|304:310,2,47.9999985351563
254,214,54650,6,0,B|236:157|236:157|195:112,1,95.9999970703126
290,74,55007,2,0,B|307:130|307:130|349:176,1,95.9999970703126
409,215,55364,6,0,P|387:281|354:303,2,95.9999970703126
410,118,55900,1,0,0:0:0:0:
341,49,56079,1,0,0:0:0:0:
341,49,56257,2,0,L|257:124,1,95.9999970703126
184,96,56614,6,0,P|149:169|153:219,2,95.9999970703126
252,27,57150,1,0,0:0:0:0:
328,96,57329,2,0,P|363:169|359:219,2,95.9999970703126
252,27,57864,1,0,0:0:0:0:
155,32,58043,6,0,L|70:108,2,95.9999970703126
213,108,58579,1,0,0:0:0:0:
213,108,58757,1,0,0:0:0:0:
270,185,58936,2,0,L|239:291,2,95.9999970703126
326,108,59471,1,0,0:0:0:0:
396,173,59650,6,0,B|433:130|453:78|453:78|454:164|470:223,1,239.999992675781
479,252,60186,2,0,L|463:304,4,47.9999985351563
425,118,60721,1,0,0:0:0:0:
289,67,60900,1,0,0:0:0:0:
144,66,61079,6,0,P|166:151|161:203,1,95.9999970703126
186,301,61436,2,0,B|205:234|248:195|248:195|222:93|301:43,1,287.999991210938
363,174,62150,6,0,P|389:247|380:299,1,95.9999970703126
343,338,62507,1,0,0:0:0:0:
343,338,62686,1,0,0:0:0:0:
264,303,62864,1,0,0:0:0:0:
264,303,63043,1,0,0:0:0:0:
207,238,63221,1,0,0:0:0:0:
207,238,63400,1,0,0:0:0:0:
210,151,63578,1,0,0:0:0:0:
136,196,63757,1,0,0:0:0:0:
125,281,63936,6,0,P|193:333|311:331,1,191.999994140625
223,212,64471,1,0,0:0:0:0:
223,212,64561,1,0,0:0:0:0:
223,212,64650,1,0,0:0:0:0:
236,207,64739,1,0,0:0:0:0:
249,202,64828,1,0,0:0:0:0:
260,193,64918,1,0,0:0:0:0:
270,183,65007,1,0,0:0:0:0:
278,171,65096,1,0,0:0:0:0:
285,158,65186,1,0,0:0:0:0:
289,144,65275,1,0,0:0:0:0:
292,130,65364,6,0,P|358:166|370:218,1,95.9999970703126
342,232,65721,6,0,P|319:267|283:277,1,55.9999982910157
274,213,66079,2,0,P|246:214|222:228,1,55.9999982910157
251,289,66436,2,0,P|213:307|177:297,1,55.9999982910157
158,219,66793,6,0,P|235:182|249:159,1,80
290,114,67150,2,0,L|340:220,1,80
366,272,67507,1,0,0:0:0:0:
391,154,67686,1,0,0:0:0:0:
348,42,67864,5,0,0:0:0:0:
227,46,68043,2,0,P|189:61|159:117,2,80
326,113,68579,1,0,0:0:0:0:
301,230,68757,1,0,0:0:0:0:
326,113,68936,2,0,P|372:66|407:52,2,80
301,230,69471,2,0,P|257:292|153:314,1,160
212,201,70007,6,0,P|226:133|222:98,1,80
154,25,70364,1,0,0:0:0:0:
122,141,70543,1,0,0:0:0:0:
223,77,70721,6,0,P|277:96|312:127,1,80
374,200,71079,1,0,0:0:0:0:
286,281,71257,2,0,L|237:309,2,40
405,267,71614,1,0,0:0:0:0:
454,157,71793,1,0,0:0:0:0:
366,74,71971,2,0,P|298:67|256:73,1,80
166,81,72329,5,0,0:0:0:0:
166,81,72507,2,0,P|203:125|219:173,1,80
224,264,72864,1,0,0:0:0:0:
283,159,73043,1,0,0:0:0:0:
72,44,73400,5,0,0:0:0:0:
78,163,73578,1,0,0:0:0:0:
141,60,73757,1,0,0:0:0:0:
256,94,73936,2,0,P|323:86|349:72,1,80
445,37,74293,2,0,P|457:94|451:140,1,80
436,234,74650,1,0,0:0:0:0:
436,234,74828,2,0,P|412:287|380:320,1,80
360,188,75186,1,0,0:0:0:0:
291,89,75364,5,0,0:0:0:0:
222,187,75543,2,0,L|251:232,2,40
157,85,75900,2,0,L|135:51,2,40
109,195,76257,2,0,L|64:224,2,40
208,127,76614,1,0,0:0:0:0:
283,282,76793,2,0,P|312:211|367:162,1,120.000004577637
438,109,77150,5,0,0:0:0:0:
282,71,77507,1,0,0:0:0:0:
122,63,77864,1,0,0:0:0:0:
164,299,78221,6,0,P|233:206|289:226,1,160
357,281,78757,1,0,0:0:0:0:
424,181,78936,1,0,0:0:0:0:
304,181,79114,1,0,0:0:0:0:
371,81,79293,1,0,0:0:0:0:
304,181,79471,2,0,L|261:240,2,40
304,60,79828,5,0,0:0:0:0:
218,145,80007,2,0,L|185:178,2,40
218,24,80364,1,0,0:0:0:0:
113,83,80543,1,0,0:0:0:0:
231,100,80721,1,0,0:0:0:0:
126,159,80900,1,0,0:0:0:0:
210,243,81078,6,0,P|270:243|308:208,1,80
364,142,81436,1,0,0:0:0:0:
364,142,81614,2,0,P|388:189|388:232,1,80
358,331,81971,1,0,0:0:0:0:
285,233,82150,1,0,0:0:0:0:
200,317,82328,6,0,L|156:332,2,40
215,311,82596,1,0,0:0:0:0:
228,302,82686,1,0,0:0:0:0:
239,291,82775,1,0,0:0:0:0:
250,279,82864,1,0,0:0:0:0:
268,160,83043,1,0,0:0:0:0:
133,245,83221,1,0,0:0:0:0:
133,84,83400,1,0,0:0:0:0:
228,78,83578,5,0,0:0:0:0:
310,127,83757,1,0,0:0:0:0:
365,205,83936,6,0,L|294:262,1,80
261,196,84293,2,0,L|166:224,1,80
141,160,84650,2,0,L|70:108,1,80
136,72,85007,2,0,P|205:55|219:40,2,80
71,40,85543,1,0,0:0:0:0:
84,158,85721,1,0,0:0:0:0:
196,115,85900,2,0,P|224:166|231:221,1,80
221,306,86257,6,0,P|281:282|304:260,2,80
109,262,86793,6,0,L|200:210,1,80
333,161,87150,1,0,0:0:0:0:
248,77,87328,2,0,L|208:111,2,40
364,43,87686,1,0,0:0:0:0:
403,155,87864,1,0,0:0:0:0:
339,324,88043,2,0,B|321:216|237:221|237:221|246:176|329:139,1,240.000009155274
420,112,88578,5,0,0:0:0:0:
263,65,88936,1,0,0:0:0:0:
99,63,89293,1,0,0:0:0:0:
186,200,89650,6,0,P|307:233|373:290,1,191.999994140625
439,355,90186,2,0,L|494:345,2,47.9999985351563
324,343,90543,1,0,0:0:0:0:
196,276,90721,1,0,0:0:0:0:
327,216,90900,2,0,L|286:176,2,47.9999985351563
459,158,91257,1,0,0:0:0:0:
327,216,91436,2,0,L|286:176,2,47.9999985351563
223,115,91793,5,0,0:0:0:0:
99,188,91971,1,0,0:0:0:0:
242,201,92150,1,0,0:0:0:0:
118,274,92328,1,0,0:0:0:0:
242,201,92507,6,0,P|327:203|373:218,1,95.9999970703126
471,257,92864,1,0,0:0:0:0:
262,58,93043,2,0,L|317:58,2,47.9999985351563
130,116,93400,1,0,0:0:0:0:
267,157,93578,1,0,0:0:0:0:
404,200,93757,2,0,L|366:159,4,47.9999985351563
305,305,94293,1,0,0:0:0:0:
305,305,94471,1,0,0:0:0:0:
194,211,94650,2,0,L|300:211,1,95.9999970703126
434,216,95007,5,0,0:0:0:0:
325,121,95186,1,0,0:0:0:0:
193,63,95364,6,0,P|211:129|215:176,1,95.9999970703126
115,261,95721,2,0,P|179:297|240:312,1,95.9999970703126
320,223,96078,2,0,P|371:199|425:153,1,95.9999970703126
480,52,96436,1,0,0:0:0:0:
479,195,96614,1,0,0:0:0:0:
442,334,96793,2,0,L|328:305,1,95.9999970703126
208,276,97150,5,0,0:0:0:0:
290,158,97328,2,0,P|338:132|371:148,1,95.9999970703126
350,233,97686,2,0,P|398:259|462:160,1,191.999994140625
373,57,98221,5,0,0:0:0:0:
373,57,98400,1,0,0:0:0:0:
229,64,98578,1,0,0:0:0:0:
229,64,98757,1,0,0:0:0:0:
327,169,98936,2,0,P|260:170|216:158,2,95.9999970703126
412,284,99471,2,0,B|439:260|439:260|420:246|420:246|468:211|449:104,1,191.999994140625
316,74,100007,5,0,0:0:0:0:
138,132,100364,1,0,0:0:0:0:
196,310,100721,1,0,0:0:0:0:
256,192,101078,12,0,102150,0:0:0:0:
412,193,102507,5,0,0:0:0:0:
381,266,102685,1,0,0:0:0:0:
411,191,102864,1,0,0:0:0:0:
335,202,103042,2,0,L|304:152,2,47.9999985351563
262,237,103400,5,0,0:0:0:0:
195,274,103578,1,0,0:0:0:0:
179,127,103757,5,0,0:0:0:0:
179,127,103846,1,0,0:0:0:0:
179,127,103935,1,0,0:0:0:0:
179,127,104025,2,0,L|144:72,2,47.9999985351563
202,136,104292,1,0,0:0:0:0:
228,122,104382,1,0,0:0:0:0:
251,108,104471,1,0,0:0:0:0:
275,94,104560,1,0,0:0:0:0:
302,81,104650,6,0,P|303:121|329:171,1,95.9999970703126
411,147,105007,1,0,0:0:0:0:
454,72,105185,1,0,0:0:0:0:
161,59,105364,5,0,0:0:0:0:
166,67,105453,1,0,0:0:0:0:
173,72,105543,1,0,0:0:0:0:
180,77,105631,1,0,0:0:0:0:
187,82,105721,1,0,0:0:0:0:
249,127,105900,5,0,0:0:0:0:
351,325,106078,5,0,0:0:0:0:
346,317,106167,1,0,0:0:0:0:
339,312,106257,1,0,0:0:0:0:
332,307,106345,1,0,0:0:0:0:
325,302,106435,1,0,0:0:0:0:
263,257,106614,5,0,0:0:0:0:
142,166,106792,6,0,L|107:119,2,40
209,106,107150,2,0,L|244:59,2,40
243,188,107507,2,0,P|179:243|74:217,1,191.999994140625
74,102,108042,1,0,0:0:0:0:
74,102,108132,1,0,0:0:0:0:
74,102,108221,5,0,0:0:0:0:
74,198,108400,1,0,0:0:0:0:
74,102,108578,1,0,0:0:0:0:
142,33,108757,2,0,L|208:32,2,47.9999985351563
159,127,109114,2,0,P|173:163|232:184,1,95.9999970703126
321,175,109471,1,0,0:0:0:0:
321,175,109560,1,0,0:0:0:0:
321,175,109650,6,0,L|376:128,2,47.9999985351563
327,212,109917,1,0,0:0:0:0:
342,222,110007,1,0,0:0:0:0:
361,230,110096,1,0,0:0:0:0:
382,234,110185,1,0,0:0:0:0:
408,234,110275,1,0,0:0:0:0:
426,223,110364,2,0,P|435:173|420:131,1,80
316,129,110721,1,0,0:0:0:0:
231,175,110900,1,0,0:0:0:0:
112,193,111078,5,0,0:0:0:0:
120,175,111167,1,0,0:0:0:0:
131,159,111256,1,0,0:0:0:0:
145,145,111345,1,0,0:0:0:0:
157,137,111435,2,0,P|190:100|206:66,1,80
400,193,111792,5,0,0:0:0:0:
392,175,111881,1,0,0:0:0:0:
381,159,111970,1,0,0:0:0:0:
367,145,112059,1,0,0:0:0:0:
351,133,112150,1,0,0:0:0:0:
269,82,112328,1,0,0:0:0:0:
269,82,112417,1,0,0:0:0:0:
269,82,112507,6,0,L|320:56,2,47.9999985351563
156,75,112864,2,0,L|208:40,2,47.9999985351563
104,113,113132,1,0,0:0:0:0:
104,113,113221,2,0,L|136:224,1,95.9999970703126
83,292,113578,1,0,0:0:0:0:
178,279,113757,1,0,0:0:0:0:
395,55,113936,6,0,L|425:159,1,95.9999970703126
448,239,114471,1,0,0:0:0:0:
379,307,114650,1,0,0:0:0:0:
311,239,114828,1,0,0:0:0:0:
214,239,115007,1,0,0:0:0:0:
152,328,115185,6,0,P|122:299|104:248,1,95.9999970703126
90,137,115721,1,0,0:0:0:0:
186,137,115900,6,0,P|217:151|231:179,1,47.9999985351563
268,258,116257,1,0,0:0:0:0:
342,183,116436,1,0,0:0:0:0:
416,256,116614,1,0,0:0:0:0:
416,150,116793,6,0,L|416:48,1,95.9999970703126
310,54,117328,1,0,0:0:0:0:
204,54,117507,1,0,0:0:0:0:
98,54,117686,1,0,0:0:0:0:
86,158,117864,2,0,L|146:158,1,47.9999985351563
186,249,118221,2,0,L|236:199,1,47.9999985351563
240,194,118489,1,0,0:0:0:0:
260,174,118578,1,0,0:0:0:0:
334,99,118757,1,0,0:0:0:0:
387,190,118936,6,0,P|418:216|377:212,2,95.9999970703126
286,159,119828,1,0,0:0:0:0:
202,93,120007,1,0,0:0:0:0:
298,50,120186,1,0,0:0:0:0:
392,97,120364,2,0,P|435:92|450:84,2,47.9999985351563
298,50,120900,1,0,0:0:0:0:
192,50,121078,6,0,P|126:61|103:89,1,95.9999970703126
121,185,121614,6,0,P|154:179|165:165,1,47.9999985351563
237,94,121971,1,0,0:0:0:0:
270,194,122150,1,0,0:0:0:0:
333,278,122328,1,0,0:0:0:0:
415,344,122507,6,0,P|368:317|332:275,1,95.9999970703126
304,176,123043,1,0,0:0:0:0:
325,63,123221,1,0,0:0:0:0:
217,106,123400,1,0,0:0:0:0:
102,102,123578,1,0,0:0:0:0:
217,106,123757,6,0,P|267:134|296:168,1,95.9999970703126
292,162,124203,1,0,0:0:0:0:
292,162,124293,1,0,0:0:0:0:
294,277,124471,1,0,0:0:0:0:
401,235,124650,6,0,L|400:168,1,47.9999985351563
453,84,125007,6,0,L|453:144,1,47.9999985351563
