osu file format v14

[General]
AudioFilename: short22.mp3
AudioLeadIn: 0
PreviewTime: 66793
Countdown: 1
SampleSet: Normal
StackLeniency: 0.7
Mode: 0
LetterboxInBreaks: 1
WidescreenStoryboard: 1

[Editor]
DistanceSpacing: 1
BeatDivisor: 4
GridSize: 8
TimelineZoom: 2.2

[Metadata]
Title:Zhong Ai Qing You (Speed up Version)
TitleUnicode:重爱轻友(加速版)
Artist:Leon Lai
ArtistUnicode:Leon Lai
Creator:napie09
Version:Hard
Source:
Tags:
BeatmapID:1376970
BeatmapSetID:563672

[Difficulty]
HPDrainRate:6
CircleSize:4
OverallDifficulty:6
ApproachRate:8
SliderMultiplier:1.6
SliderTickRate:1

[Events]
//Background and Video events
0,0,"china.jpg",0,0
//Break Periods
//Storyboard Layer 0 (Background)
//Storyboard Layer 1 (Fail)
//Storyboard Layer 2 (Pass)
//Storyboard Layer 3 (Foreground)
//Storyboard Sound Samples

[TimingPoints]
-348,357.142857142857,4,1,0,100,1,0
9830,-83.3333333333333,4,1,0,100,0,0
14651,-133.333333333333,4,1,0,100,0,0
15366,-100,4,1,0,100,0,0
26794,-133.333333333333,4,1,0,100,0,0
31794,-66.6666666666667,4,1,0,100,0,0
32509,-133.333333333333,4,1,0,100,0,0
37509,-66.6666666666667,4,1,0,100,0,0
38580,-100,4,1,0,100,0,0
38937,-100,4,1,0,100,0,0
43223,-66.6666666666667,4,1,0,100,0,0
45723,-83.3333333333333,4,1,0,100,0,0
50901,-166.666666666667,4,1,0,100,0,0
52330,-83.3333333333333,4,1,0,100,0,0
53759,-125,4,1,0,100,0,0
55366,-83.3333333333333,4,1,0,100,0,0
65721,-142.857142857143,4,1,0,100,0,0
66793,-100,4,1,0,100,0,0
76793,-66.6666666666667,4,1,0,100,0,0
77150,-100,4,1,0,100,0,0
88043,-66.6666666666667,4,1,0,100,0,0
88578,-83.3333333333333,4,1,0,100,0,0
101078,-83.3333333333333,4,1,0,100,0,0
113936,-166.666666666667,4,1,0,100,0,0

[HitObjects]
128,128,2330,5,0,0:0:0:0:
184,184,2509,1,0,0:0:0:0:
264,192,2687,1,0,0:0:0:0:
344,192,2866,2,0,P|416:208|464:264,1,120
424,272,3223,2,0,L|384:296,1,40
352,304,3401,2,0,L|272:304,1,80
192,304,3759,5,0,0:0:0:0:
192,144,4116,1,0,0:0:0:0:
256,240,6616,5,0,0:0:0:0:
328,272,6794,1,0,0:0:0:0:
384,216,6973,1,0,0:0:0:0:
352,144,7151,2,0,P|288:120|248:184,1,120
240,184,7509,2,0,L|200:192,1,40
160,192,7687,2,0,L|176:104,1,80
184,32,8044,5,0,0:0:0:0:
336,88,8401,1,0,0:0:0:0:
128,264,9830,6,0,B|176:296|176:296|224:248,2,95.9999970703126
120,168,10366,2,0,L|176:136,3,47.9999985351563
120,168,10723,1,0,0:0:0:0:
216,184,10901,1,0,0:0:0:0:
408,184,11259,6,0,B|429:130|429:130|372:93,2,95.9999970703126
344,256,11794,2,0,L|344:304,3,47.9999985351563
344,256,12151,1,0,0:0:0:0:
248,240,12329,1,0,0:0:0:0:
67,307,12687,6,0,B|104:351|104:351|164:319,2,95.9999970703126
123,228,13223,2,0,L|147:180,4,47.9999985351563
64,151,13759,1,0,0:0:0:0:
353,73,14651,6,0,L|302:131,1,60.0000022888184
359,156,15009,2,0,L|308:214,1,60.0000022888184
251,243,15366,5,0,0:0:0:0:
290,312,15544,1,0,0:0:0:0:
366,336,15723,2,0,L|451:336,1,80
409,267,16080,1,0,0:0:0:0:
370,196,16259,1,0,0:0:0:0:
293,172,16437,2,0,L|208:172,1,80
132,173,16794,2,0,L|99:219,3,40
142,227,17151,2,0,L|146:282,3,40
184,280,17509,6,0,P|256:320|328:280,1,160
256,144,18223,6,0,L|301:175,3,40
256,192,18580,2,0,L|256:272,1,80
256,352,18937,2,0,L|224:328,3,40
192,304,19294,2,0,P|152:272|104:264,1,80
48,264,19651,2,0,L|72:224,3,40
80,192,20009,2,0,L|88:144,3,40
88,112,20366,6,0,P|136:72|240:64,1,160
384,120,21080,5,0,0:0:0:0:
352,192,21259,1,0,0:0:0:0:
416,240,21437,2,0,L|344:296,1,80
352,289,21705,1,0,0:0:0:0:
352,289,21794,5,0,0:0:0:0:
288,336,21973,1,0,0:0:0:0:
272,256,22151,2,0,L|184:208,1,80
160,144,22509,2,0,L|184:96,3,40
216,112,22866,2,0,L|264:96,3,40
232,64,23223,2,0,P|144:40|80:88,1,160
136,224,23937,6,0,L|176:256,3,40
200,272,24294,1,0,0:0:0:0:
264,320,24473,1,0,0:0:0:0:
341,300,24651,6,0,L|292:314,3,40
264,320,25008,1,0,0:0:0:0:
186,339,25187,1,0,0:0:0:0:
112,304,25366,2,0,L|80:240,3,40
112,232,25723,2,0,L|120:176,3,40
160,200,26080,2,0,P|232:248|312:264,1,160
376,168,26794,6,0,L|408:88,1,60.0000022888184
424,48,27151,1,0,0:0:0:0:
352,48,27330,2,0,L|272:48,2,60.0000022888184
424,48,27866,1,0,0:0:0:0:
424,48,28044,2,0,P|416:88|336:120,1,120.000004577637
280,120,28580,1,0,0:0:0:0:
280,120,28759,2,0,P|288:160|320:184,1,60.0000022888184
368,208,29116,1,0,0:0:0:0:
368,208,29294,1,0,0:0:0:0:
368,208,29473,1,0,0:0:0:0:
280,320,29651,6,0,L|216:264,1,60.0000022888184
184,232,30009,1,0,0:0:0:0:
232,176,30187,2,0,L|280:120,2,60.0000022888184
184,232,30723,1,0,0:0:0:0:
137,177,30901,2,0,P|115:242|149:294,1,120.000004577637
156,298,31348,1,0,0:0:0:0:
177,308,31437,1,0,0:0:0:0:
256,320,31616,5,0,0:0:0:0:
256,248,31794,2,0,L|256:122,1,120.000004577637
256,57,32151,2,0,L|256:177,1,120.000004577637
256,249,32509,6,0,P|309:231|325:209,1,60.0000022888184
355,172,32866,1,0,0:0:0:0:
383,106,33044,1,0,0:0:0:0:
428,162,33223,2,0,P|434:217|420:241,2,60.0000022888184
383,106,33759,2,0,P|342:65|277:50,1,120.000004577637
211,48,34294,1,0,0:0:0:0:
143,73,34473,1,0,0:0:0:0:
96,127,34651,6,0,B|77:160|77:160|79:207,2,60.0000022888184
143,73,35187,1,0,0:0:0:0:
208,102,35366,2,0,L|335:168,1,120.000004577637
379,188,35901,1,0,0:0:0:0:
377,260,36080,1,0,0:0:0:0:
326,311,36259,1,0,0:0:0:0:
254,319,36437,2,0,L|187:303,2,60.0000022888184
323,337,36973,5,0,0:0:0:0:
323,337,37062,1,0,0:0:0:0:
323,337,37151,1,0,0:0:0:0:
395,335,37330,1,0,0:0:0:0:
456,204,37509,6,0,L|304:216,1,120.000004577637
192,224,37866,2,0,L|327:134,1,120.000004577637
407,70,38223,2,0,L|255:82,1,120.000004577637
192,92,38580,5,0,0:0:0:0:
105,134,38759,1,0,0:0:0:0:
105,229,38937,1,0,0:0:0:0:
105,134,39116,1,0,0:0:0:0:
192,92,39294,2,0,L|275:92,2,80
260,160,39830,5,0,0:0:0:0:
328,228,40009,1,0,0:0:0:0:
395,295,40187,1,0,0:0:0:0:
463,226,40366,1,0,0:0:0:0:
395,295,40544,1,0,0:0:0:0:
298,295,40723,2,0,B|263:263|263:263|256:216,2,80
201,295,41259,5,0,0:0:0:0:
133,227,41437,1,0,0:0:0:0:
201,158,41616,1,0,0:0:0:0:
133,90,41794,5,0,0:0:0:0:
201,158,41973,1,0,0:0:0:0:
304,158,42151,5,0,0:0:0:0:
201,158,42330,1,0,0:0:0:0:
201,278,42509,5,0,0:0:0:0:
199,158,42687,1,0,0:0:0:0:
284,72,42866,1,0,0:0:0:0:
284,72,43044,1,0,0:0:0:0:
284,252,43223,6,0,P|376:229|424:179,1,120.000004577637
463,82,43580,2,0,P|375:66|295:76,1,120.000004577637
165,84,43937,2,0,P|78:108|11:152,2,120.000004577637
261,86,44473,5,0,0:0:0:0:
360,88,44651,1,0,0:0:0:0:
264,200,44830,1,0,0:0:0:0:
264,320,45187,6,0,P|351:296|418:252,2,120.000004577637
168,320,45723,1,0,0:0:0:0:
72,320,45901,1,0,0:0:0:0:
144,256,46080,1,0,0:0:0:0:
144,112,46259,1,0,0:0:0:0:
417,206,46616,6,0,L|432:112,2,95.9999970703126
403,301,47151,1,0,0:0:0:0:
403,301,47330,2,0,L|280:280,1,95.9999970703126
213,268,47687,2,0,L|90:247,2,95.9999970703126
307,287,48223,1,0,0:0:0:0:
374,219,48401,1,0,0:0:0:0:
374,122,48580,1,0,0:0:0:0:
305,54,48759,6,0,L|244:46,3,47.9999985351563
248,95,49116,6,0,L|218:132,2,47.9999985351563
311,122,49384,6,0,L|329:166,3,47.9999985351563
367,254,49830,1,0,0:0:0:0:
277,217,50009,1,0,0:0:0:0:
285,312,50187,1,0,0:0:0:0:
367,254,50366,2,0,B|418:241|418:241|468:257,2,95.9999970703126
285,312,50901,6,0,P|216:325|183:308,1,95.9999970703126
121,254,51437,1,0,0:0:0:0:
189,185,51616,2,0,P|234:173|279:189,1,95.9999970703126
347,257,52151,1,0,0:0:0:0:
279,189,52330,6,0,B|234:173|234:173|180:188,2,95.9999970703126
347,257,52866,1,0,0:0:0:0:
347,257,53044,1,0,0:0:0:0:
415,188,53223,1,0,0:0:0:0:
354,114,53401,1,0,0:0:0:0:
289,42,53580,1,0,0:0:0:0:
209,95,53759,6,0,B|119:135|166:198|68:241,1,191.999994140625
118,287,54473,1,0,0:0:0:0:
174,322,54651,6,0,P|238:292|263:242,2,128
105,253,55544,1,0,0:0:0:0:
105,156,55723,1,0,0:0:0:0:
105,60,55901,1,0,0:0:0:0:
105,60,56080,2,0,P|172:47|218:60,2,95.9999970703126
105,156,56616,6,0,P|133:222|170:244,2,95.9999970703126
105,60,57151,1,0,0:0:0:0:
189,105,57330,2,0,P|236:133|295:131,1,95.9999970703126
330,55,57687,2,0,P|366:102|368:165,1,95.9999970703126
