osu file format v14

[General]
AudioFilename: audio.mp3
AudioLeadIn: 0
PreviewTime:126261
Countdown: 0
SampleSet: Soft
StackLeniency: 0.6
Mode: 0
LetterboxInBreaks: 0
WidescreenStoryboard: 1

[Editor]
Bookmarks: 4348,39598,78379,102379,126379,150379,156379,168379,180379,207379,209441
DistanceSpacing: 1.3
BeatDivisor: 12
GridSize: 32
TimelineZoom: 1.3

[Metadata]
Title:Tsubasa -resurrection-
TitleUnicode:ツバサ ―resurrection―
Artist:Leon
ArtistUnicode:れおん
Creator:hehe
Version:Hard
Source:Kirby's Dream Land 3
Tags:salvation by faith records SBFR nintendo snes ripple field 1 remix instrumental electronic video game music ost bgm SSEB-0052 Summer Orange Ocean videogame vgm original soundtrack piano 星のカービィ3「海ステージ」
BeatmapID:4031696
BeatmapSetID:1934116

[Difficulty]
HPDrainRate:3
CircleSize:4
OverallDifficulty:6
ApproachRate:7.5
SliderMultiplier:1.2
SliderTickRate:1

[Events]
//Background and Video events
0,0,"bg.jpg",0,0
//Break Periods
//Storyboard Layer 0 (Background)
//Storyboard Layer 1 (Fail)
//Storyboard Layer 2 (Pass)
//Storyboard Layer 3 (Foreground)
//Storyboard Layer 4 (Overlay)
//Storyboard Sound Samples

[TimingPoints]
2166,545.454545454545,4,2,1,40,1,0
37075,582.52427184466,4,2,1,40,1,0
38240,677.966101694915,4,2,1,40,1,0
39598,545.454545454545,4,2,1,40,1,0
39598,-100,4,2,1,40,0,0
76688,458.015267175572,4,2,1,50,1,0
77146,441.176470588235,4,2,1,60,1,0
77587,395.387149917627,4,2,1,60,1,0
77982,-100,4,2,1,60,0,0
78379,375,4,2,1,70,1,0
78379,-100,4,2,1,70,0,0
102379,-100,4,2,1,80,0,0
126379,-83.3333333333333,4,2,1,90,0,1
150379,-100,4,2,1,80,0,0
156379,-100,4,2,1,50,0,0
168379,-100,4,2,1,60,0,0
180379,-100,4,2,1,80,0,0
209441,594.059405940594,4,2,1,40,1,0
209441,-85.4700854700855,4,2,1,40,0,0
210035,526.315789473685,4,2,1,40,1,0
210035,-85.4700854700855,4,2,1,40,0,0
212140,540.540540540542,4,2,1,40,1,0
212140,-85.4700854700855,4,2,1,40,0,0
214302,555.555555555558,4,2,1,40,1,0
214302,-85.4700854700855,4,2,1,40,0,0
216524,540.540540540542,4,2,1,40,1,0
216524,-85.4700854700855,4,2,1,40,0,0
218686,550.458715596332,4,2,1,40,1,0
218686,-85.4700854700855,4,2,1,40,0,0
223089,535.714285714287,4,2,1,40,1,0
223089,-85.4700854700855,4,2,1,40,0,0
225231,550.458715596332,4,2,1,40,1,0
225231,-85.4700854700855,4,2,1,40,0,0
226882,606.060606060608,4,2,1,40,1,0
226882,-85.4700854700855,4,2,1,40,0,0
227488,530.973451327435,4,2,1,40,1,0
227488,-85.4700854700855,4,2,1,40,0,0
229611,545.454545454547,4,2,1,40,1,0
229611,-85.4700854700855,4,2,1,40,0,0
231792,571.428571428573,4,2,1,40,1,0
231792,-85.4700854700855,4,2,1,40,0,0
232363,600.000000000002,4,2,1,40,1,0
232363,-85.4700854700855,4,2,1,40,0,0
233563,659.340659340662,4,2,1,40,1,0
233563,-85.4700854700855,4,2,1,40,0,0
234222,555.555555555556,4,2,1,40,1,0
235888,-100,4,2,2,30,0,0
236444,-100,4,2,1,25,0,0
236999,-100,4,2,2,20,0,0
237555,-100,4,2,1,15,0,0
238110,-100,4,2,2,10,0,0

[Colours]
Combo1 : 18,124,255
Combo2 : 24,185,255

[HitObjects]
169,211,3802,5,2,2:0:0:0:
169,211,4347,2,0,P|210:195|271:182,2,90,2|0|0,2:0|2:0|2:0,2:0:0:0:
36,300,5711,1,0,2:0:0:0:
36,300,5984,2,0,P|32:265|25:227,1,60,0|0,2:0|2:0,0:0:0:0:
108,165,6529,6,0,L|161:174,5,30
219,149,7347,1,2,2:0:0:0:
219,149,7484,1,2,2:0:0:0:
219,149,7620,2,0,P|237:195|228:249,2,90,2|2|2,2:0|2:0|2:0,2:0:0:0:
288,98,8711,6,0,P|270:52|279:-2,2,90,2|0|0,2:0|2:0|2:0,2:0:0:0:
233,165,9802,2,0,L|237:207,2,30,0|0|0,2:0|2:0|2:0,0:0:0:0:
143,99,10347,2,0,L|147:57,2,30,0|0|0,2:0|2:0|2:0,0:0:0:0:
53,156,10893,2,0,P|24:106|46:33,1,120,2|0,2:0|2:0,2:0:0:0:
142,15,11711,1,0,2:0:0:0:
142,15,11847,1,0,2:0:0:0:
142,15,11984,2,0,L|269:29,1,120,0|0,2:0|2:0,2:0:0:0:
363,131,13075,6,0,P|369:93|390:29,2,90,2|0|0,2:0|2:0|2:0,2:0:0:0:
252,209,14438,1,0,2:0:0:0:
252,209,14711,2,0,P|264:252|270:281,1,60,0|0,2:0|2:0,0:0:0:0:
395,228,15256,6,0,L|388:175,5,30
438,134,16075,1,2,2:0:0:0:
438,134,16211,1,2,2:0:0:0:
438,134,16347,2,0,P|492:134|516:185,2,90,2|2|2,2:0|2:0|2:0,2:0:0:0:
367,89,17438,6,0,P|367:35|418:11,2,90,2|0|0,2:0|2:0|2:0,2:0:0:0:
232,219,18802,1,0,2:0:0:0:
232,219,18938,1,0,2:0:0:0:
232,219,19075,1,0,2:0:0:0:
117,187,19347,1,0,2:0:0:0:
117,187,19484,1,0,2:0:0:0:
117,187,19620,6,0,P|123:233|133:384,1,180,2|0,2:0|2:0,2:0:0:0:
30,217,20711,2,0,P|42:154|46:85,1,120,0|0,2:0|2:0,2:0:0:0:
194,27,21802,6,0,P|159:14|81:8,2,90,2|0|0,2:0|2:0|2:0,2:0:0:0:
331,111,23165,1,0,2:0:0:0:
331,111,23438,2,0,P|373:98|405:93,1,60,0|0,2:0|2:0,0:0:0:0:
473,159,23984,6,0,P|433:152|416:151,3,30
210,238,24802,1,2,2:0:0:0:
210,238,24938,1,2,2:0:0:0:
210,238,25075,2,0,P|220:286|223:350,2,90,2|2|2,2:0|2:0|2:0,2:0:0:0:
135,189,26165,6,0,P|125:141|122:77,2,90,2|2|2,2:0|2:0|2:0,2:0:0:0:
264,227,27529,2,0,P|303:217|329:213,1,60,2|0,2:0|2:0,0:0:0:0:
188,138,28075,2,0,P|227:148|253:152,1,60,0|2,2:0|2:0,0:0:0:0:
496,134,29165,1,0,2:0:0:0:
496,134,29302,1,0,2:0:0:0:
496,134,29438,1,0,2:0:0:0:
411,184,29711,2,0,L|406:213,1,30,0|0,2:0|2:0,0:0:0:0:
466,261,29984,2,0,L|471:290,1,30,0|0,2:0|2:0,0:0:0:0:
406,330,30256,2,0,L|401:359,1,30,0|0,2:0|2:0,0:0:0:0:
329,375,30529,6,0,P|322:339|303:277,2,90,2|2|2,2:0|2:0|2:0,2:0:0:0:
229,300,31620,2,0,L|239:233,1,60,2|0,2:0|2:0,0:0:0:0:
160,343,32165,2,0,L|150:276,1,60,0|0,2:0|2:0,0:0:0:0:
76,230,32711,6,0,L|93:200,1,30,0|0,2:0|2:0,0:0:0:0:
77,131,32984,2,0,L|114:124,1,30,0|0,2:0|2:0,0:0:0:0:
126,54,33256,2,0,L|164:63,1,30,0|0,2:0|2:0,0:0:0:0:
239,87,33529,1,2,2:0:0:0:
239,87,33665,1,2,2:0:0:0:
239,87,33802,2,0,B|299:76|349:63,2,90,2|2|2,2:0|2:0|2:0,2:0:0:0:
211,158,34893,6,0,B|151:169|101:182,2,90,2|0|0,2:0|2:0|2:0,2:0:0:0:
396,215,36256,1,0,2:0:0:0:
351,296,36529,1,0,2:0:0:0:
420,353,36802,1,0,2:0:0:0:
268,372,37075,6,0,P|267:321|257:254,2,90,0|0|0,2:0|2:0|2:0,0:0:0:0:
346,262,38240,2,2,P|349:211|365:81,1,180,0|0,2:0|0:0,2:0:0:0:
467,10,39598,6,2,P|479:42|480:88,1,60,0|0,2:0|2:0,2:0:0:0:
393,83,40143,2,0,P|381:115|380:161,1,60,0|0,2:0|2:0,0:0:0:0:
288,21,40688,2,0,P|300:53|301:99,1,60,0|0,2:0|2:0,0:0:0:0:
214,94,41233,2,0,P|202:126|201:172,1,60,0|0,2:0|2:0,0:0:0:0:
125,184,41779,2,2,P|172:188|238:239,1,120,0|0,2:0|0:0,2:0:0:0:
328,216,42598,1,2,2:0:0:0:
328,216,42734,1,2,2:0:0:0:
328,216,42870,2,0,P|317:257|309:325,2,90,2|2|2,2:0|2:0|2:0,2:0:0:0:
397,329,43961,6,0,P|436:318|466:312,1,60,2|0,2:0|2:0,0:0:0:0:
329,382,44507,2,0,P|299:375|270:366,1,60,0|0,2:0|2:0,0:0:0:0:
219,298,45052,2,0,P|258:287|288:281,1,60,0|0,2:0|2:0,0:0:0:0:
151,351,45598,2,0,P|121:344|92:335,1,60,0|0,2:0|2:0,0:0:0:0:
14,377,46143,2,2,P|2:328|30:238,1,120,0|0,2:0|0:0,2:0:0:0:
9,164,46961,2,0,P|55:174|141:185,1,120,0|0,2:0|2:0,2:0:0:0:
200,127,47779,1,0,2:0:0:0:
279,207,48052,1,0,2:0:0:0:
342,115,48325,6,2,P|350:83|368:54,1,60,0|0,2:0|2:0,2:0:0:0:
274,164,48870,2,0,P|242:156|213:138,1,60,0|0,2:0|2:0,0:0:0:0:
324,235,49416,2,0,P|316:267|298:296,1,60,0|0,2:0|2:0,0:0:0:0:
392,186,49961,2,0,P|424:194|453:212,1,60,0|0,2:0|2:0,0:0:0:0:
510,155,50507,2,2,P|511:107|464:45,1,120,0|0,2:0|0:0,2:0:0:0:
373,22,51325,1,2,2:0:0:0:
373,22,51461,1,2,2:0:0:0:
373,22,51597,2,0,L|280:41,2,90,2|2|2,2:0|2:0|2:0,2:0:0:0:
325,113,52688,6,0,P|333:149|335:184,1,60,2|0,2:0|2:0,0:0:0:0:
251,163,53234,2,0,P|243:199|241:234,1,60,0|0,2:0|2:0,0:0:0:0:
155,93,53779,2,0,P|163:129|165:164,1,60,0|0,2:0|2:0,0:0:0:0:
81,143,54325,2,0,P|73:179|71:214,1,60,0|0,2:0|2:0,0:0:0:0:
133,273,54870,2,0,P|196:254|277:259,1,120,2|0,2:0|0:0,0:0:0:0:
325,177,55688,2,0,L|352:309,1,120,0|0,2:0|2:0,0:0:0:0:
426,384,56507,1,0,2:0:0:0:
512,325,56779,1,0,2:0:0:0:
447,237,57052,6,2,P|389:255|378:258,1,60,0|0,2:0|2:0,2:0:0:0:
335,150,57597,2,0,P|393:168|404:171,1,60,0|0,2:0|2:0,0:0:0:0:
277,221,58143,2,0,P|219:239|208:242,1,60,0|0,2:0|2:0,0:0:0:0:
165,134,58688,2,0,P|223:152|234:155,1,60,0|0,2:0|2:0,0:0:0:0:
234,28,59234,2,2,P|190:40|110:53,1,120,0|0,2:0|0:0,2:0:0:0:
48,110,60052,1,2,2:0:0:0:
48,110,60188,1,2,2:0:0:0:
48,110,60325,2,0,P|28:60|41:16,2,90,2|2|2,2:0|2:0|2:0,2:0:0:0:
94,193,61416,6,0,P|49:197|-2:214,2,90,2|2|2,2:0|2:0|2:0,2:0:0:0:
132,273,62507,2,0,P|87:277|36:294,2,90,2|2|2,2:0|2:0|2:0,2:0:0:0:
196,212,63597,1,0,2:0:0:0:
196,212,63870,2,0,P|238:201|267:196,1,60,2|0,2:0|0:0,2:0:0:0:
311,143,64416,2,0,P|349:156|437:172,1,120,0|0,2:0|2:0,0:0:0:0:
512,193,65234,2,0,P|496:220|483:260,1,60,0|0,2:0|2:0,0:0:0:0:
417,294,65779,6,0,P|440:335|462:388,2,90,2|2|2,2:0|2:0|2:0,2:0:0:0:
356,203,66870,2,0,P|343:241|341:275,1,60,2|0,2:0|2:0,0:0:0:0:
267,320,67416,2,0,P|262:290|251:262,1,60,0|0,2:0|2:0,0:0:0:0:
163,289,67961,2,2,P|165:246|211:163,1,120,0|0,2:0|0:0,2:0:0:0:
283,147,68779,1,2,2:0:0:0:
174,98,69052,2,0,P|163:54|146:12,2,90,2|2|2,2:0|2:0|2:0,2:0:0:0:
28,86,70143,6,2,P|61:80|100:80,1,60,0|0,2:0|2:0,2:0:0:0:
80,162,70688,2,0,P|113:168|152:168,1,60,0|0,2:0|2:0,0:0:0:0:
32,255,71234,2,0,P|65:249|104:249,1,60,2|0,2:0|0:0,2:0:0:0:
205,364,72325,6,0,P|238:370|277:370,1,60,0|0,2:0|2:0,0:0:0:0:
257,288,72870,2,0,P|290:282|329:282,1,60,0|0,2:0|2:0,0:0:0:0:
209,195,73416,2,0,P|242:201|281:201,1,60,2|0,2:0|0:0,2:0:0:0:
220,34,76688,6,0,P|228:80|241:158,1,120,0|0,3:0|3:0,2:0:0:0:
378,257,77587,2,0,P|373:293|372:320,1,60,0|8,3:0|3:2,2:0:0:0:
304,369,77982,2,0,L|294:327,3,30,0|0|0|0,3:0|3:0|3:0|3:0,2:0:0:0:
291,326,78379,6,0,P|241:324|165:341,1,120,6|8,3:2|2:0,0:0:0:0:
121,282,78941,1,0,2:0:0:0:
70,384,79129,2,0,P|63:349|56:321,1,60,0|0,3:0|2:0,0:0:0:0:
7,265,79504,1,8,2:0:0:0:
7,265,79691,1,0,2:0:0:0:
53,202,79879,6,0,P|99:196|126:190,1,60,0|0,3:0|2:0,0:0:0:0:
158,129,80254,1,8,2:0:0:0:
231,177,80441,1,2,2:0:0:0:
231,177,80535,1,2,2:0:0:0:
231,177,80629,2,0,P|229:226|234:272,2,90,2|2|2,3:2|2:0|2:0,2:0:0:0:
302,144,81379,6,0,P|289:98|282:17,1,120,2|8,3:2|2:0,0:0:0:0:
358,41,81941,1,0,2:0:0:0:
425,0,82129,2,0,L|503:15,1,60,0|0,3:0|2:0,0:0:0:0:
506,86,82504,1,8,2:0:0:0:
506,86,82691,1,0,2:0:0:0:
450,140,82879,6,0,P|461:179|462:278,1,120,2|8,3:2|2:0,0:0:0:0:
502,326,83441,1,0,2:0:0:0:
436,369,83629,2,0,P|400:347|371:340,1,60,0|0,3:0|2:0,0:0:0:0:
334,281,84004,2,0,P|299:293|268:297,1,60,8|0,2:0|2:0,2:0:0:0:
249,325,84285,1,0,2:0:0:0:
249,325,84379,6,0,P|209:310|129:333,1,120,6|8,3:2|2:0,0:0:0:0:
79,381,84941,1,0,2:0:0:0:
1,309,85129,2,0,P|39:308|73:312,1,60,0|0,3:0|2:0,0:0:0:0:
98,241,85504,1,8,2:0:0:0:
98,241,85691,1,0,2:0:0:0:
34,196,85879,6,0,P|26:150|16:118,1,60,0|0,3:0|2:0,0:0:0:0:
90,98,86254,1,8,2:0:0:0:
43,35,86441,1,2,2:0:0:0:
43,35,86535,1,2,2:0:0:0:
43,35,86629,2,0,P|91:13|143:-2,2,90,2|2|2,3:2|2:0|2:0,2:0:0:0:
3,102,87379,6,0,P|28:132|57:218,1,120,2|8,3:2|2:0,0:0:0:0:
132,193,87941,1,0,2:0:0:0:
199,232,88129,1,0,3:0:0:0:
258,181,88316,1,0,2:0:0:0:
332,205,88504,1,8,2:0:0:0:
361,133,88691,1,0,2:0:0:0:
432,164,88879,6,0,P|478:119|467:47,1,120,2|8,3:2|2:0,0:0:0:0:
419,14,89441,1,0,2:0:0:0:
363,68,89629,2,0,P|319:71|286:76,1,60,0|0,3:0|2:0,0:0:0:0:
252,13,90004,2,0,P|221:9|177:6,1,60,8|0,2:0|3:0,2:0:0:0:
157,25,90285,1,0,3:0:0:0:
157,25,90379,6,0,P|178:85|203:158,1,120,4|8,3:2|2:0,0:0:0:0:
267,170,90941,1,0,2:0:0:0:
266,248,91129,2,0,P|222:263|192:257,1,60,0|0,3:0|2:0,0:0:0:0:
176,332,91504,1,8,2:0:0:0:
120,252,91691,1,0,2:0:0:0:
46,224,91879,6,0,P|28:263|12:289,1,60,0|0,3:0|2:0,0:0:0:0:
19,355,92254,1,8,2:0:0:0:
103,371,92441,1,2,2:0:0:0:
103,371,92535,1,2,2:0:0:0:
103,371,92629,2,0,P|131:346|194:325,2,90,2|2|2,3:2|2:0|2:0,2:0:0:0:
179,223,93379,6,0,P|207:248|270:269,2,90,2|2|2,3:2|2:0|2:0,2:0:0:0:
116,175,94129,1,0,3:0:0:0:
116,175,94316,2,0,P|123:122|132:94,1,60,2|8,2:0|2:0,2:0:0:0:
90,45,94691,1,0,2:0:0:0:
157,5,94879,6,0,P|182:34|199:63,1,60,0|0,3:0|2:0,0:0:0:0:
268,74,95254,2,0,P|259:110|256:141,1,60,8|0,2:0|2:0,2:0:0:0:
223,203,95629,1,2,3:2:0:0:
286,247,95816,1,0,2:0:0:0:
333,185,96004,1,8,2:0:0:0:
406,210,96191,1,0,2:0:0:0:
466,160,96379,6,0,P|489:207|502:266,2,90,2|2|2,3:2|2:0|2:0,2:0:0:0:
475,82,97129,2,0,P|428:77|395:74,1,60,2|0,3:2|2:0,0:0:0:0:
353,28,97504,1,8,2:0:0:0:
303,87,97691,1,0,2:0:0:0:
232,52,97879,6,0,P|221:106|216:132,1,60,0|0,3:0|2:0,0:0:0:0:
157,158,98254,1,8,2:0:0:0:
199,234,98441,1,2,2:0:0:0:
199,234,98535,1,2,2:0:0:0:
199,234,98629,2,0,P|138:251|89:275,2,90,2|2|2,3:2|2:0|2:0,2:0:0:0:
262,279,99379,6,0,P|311:286|360:350,1,120,2|8,3:2|2:0,0:0:0:0:
425,372,99941,1,0,2:0:0:0:
483,319,100129,2,0,P|486:270|500:186,1,120,0|8,3:0|2:0,0:0:0:0:
448,138,100691,1,0,2:0:0:0:
395,195,100879,6,0,P|350:212|320:223,1,60,0|0,3:0|2:0,0:0:0:0:
277,168,101254,2,0,P|232:151|202:140,1,60,8|0,2:0|2:0,0:0:0:0:
166,203,101629,1,0,3:0:0:0:
97,166,101816,1,8,2:0:0:0:
38,217,102004,2,0,L|53:264,3,30,8|0|8|8,2:0|3:0|3:2|3:2,2:0:0:0:
42,259,102379,6,0,P|86:258|168:304,1,120,6|8,3:2|2:0,0:0:0:0:
226,261,102941,1,0,2:0:0:0:
281,315,103129,2,0,P|274:249|264:177,1,120,2|8,3:2|2:0,0:0:0:0:
323,142,103691,1,0,2:0:0:0:
302,66,103879,6,0,P|375:40|417:68,1,120,2|8,3:2|2:0,0:0:0:0:
466,123,104441,1,2,2:0:0:0:
466,123,104535,1,2,2:0:0:0:
466,123,104629,2,0,P|495:86|515:34,2,90,2|2|2,3:2|2:0|2:0,2:0:0:0:
429,192,105379,6,0,P|360:202|302:237,1,120,2|8,3:2|2:0,0:0:0:0:
239,210,105941,1,0,2:0:0:0:
188,269,106129,2,0,P|109:281|69:236,1,120,2|8,3:2|2:0,0:0:0:0:
9,227,106691,1,0,2:0:0:0:
49,160,106879,6,0,P|39:108|10:27,1,120,2|8,3:2|2:0,0:0:0:0:
86,8,107441,1,0,2:0:0:0:
153,48,107629,2,0,P|206:40|260:95,1,120,2|8,3:2|2:0,0:0:0:0:
225,155,108191,1,0,2:0:0:0:
225,155,108285,1,0,2:0:0:0:
225,155,108379,6,0,P|233:230|242:291,1,120,6|8,3:2|2:0,0:0:0:0:
204,343,108941,1,0,2:0:0:0:
273,378,109129,2,0,P|317:359|391:346,1,120,2|8,3:2|2:0,0:0:0:0:
457,380,109691,1,0,2:0:0:0:
504,317,109879,6,0,P|485:280|400:275,1,120,2|8,3:2|2:0,0:0:0:0:
360,209,110441,1,2,2:0:0:0:
360,209,110535,1,2,2:0:0:0:
360,209,110629,2,0,P|306:234|258:242,2,90,2|2|2,3:2|2:0|2:0,2:0:0:0:
402,143,111379,6,0,P|398:108|397:81,1,60,2|0,3:2|2:0,0:0:0:0:
314,28,111754,2,0,P|318:63|319:90,1,60,8|0,2:0|2:0,0:0:0:0:
254,172,112129,2,0,P|250:137|249:110,1,60,2|0,3:2|2:0,0:0:0:0:
166,57,112504,2,0,P|170:92|171:119,1,60,8|0,2:0|2:0,0:0:0:0:
97,144,112879,6,0,P|45:160|26:234,1,120,2|8,3:2|2:0,0:0:0:0:
7,294,113441,1,0,2:0:0:0:
72,336,113629,2,0,P|109:324|151:320,1,60,2|0,3:2|2:0,0:0:0:0:
162,249,114004,2,0,P|214:260|243:263,1,60,8|0,3:2|3:0,2:0:0:0:
246,290,114285,1,0,3:0:0:0:
246,290,114379,6,0,P|282:260|364:276,1,120,6|8,3:2|2:0,0:0:0:0:
389,334,114941,1,0,2:0:0:0:
466,320,115129,2,0,P|470:275|491:199,1,120,2|8,3:2|2:0,0:0:0:0:
508,127,115691,1,0,2:0:0:0:
446,79,115879,6,0,P|402:94|337:64,1,120,2|8,3:2|2:0,0:0:0:0:
272,100,116441,1,2,2:0:0:0:
272,100,116535,1,2,2:0:0:0:
272,100,116629,2,0,P|260:53|247:5,2,90,2|2|2,3:2|2:0|2:0,2:0:0:0:
271,178,117379,6,0,P|322:175|386:185,2,90,2|2|2,3:2|2:0|2:0,2:0:0:0:
234,247,118129,2,0,P|183:244|119:254,2,90,2|2|2,3:2|2:0|2:0,2:0:0:0:
283,307,118879,5,0,3:0:0:0:
283,307,119066,2,0,P|245:321|216:342,1,60,2|8,2:0|2:0,2:0:0:0:
153,310,119441,1,0,2:0:0:0:
81,341,119629,2,0,P|74:309|68:278,1,60,2|0,3:2|2:0,0:0:0:0:
3,239,120004,2,0,P|20:211|38:185,1,60,8|0,2:0|2:0,2:0:0:0:
73,177,120285,1,0,2:0:0:0:
73,177,120379,6,0,P|57:125|51:74,2,90,2|2|2,3:2|2:0|2:0,2:0:0:0:
150,184,121129,2,0,P|171:145|186:129,1,60,2|0,3:2|2:0,0:0:0:0:
259,139,121504,1,8,2:0:0:0:
270,62,121691,1,0,2:0:0:0:
348,65,121879,6,0,P|375:109|390:182,1,120,0|8,3:0|2:0,0:0:0:0:
356,245,122441,1,2,2:0:0:0:
411,299,122629,2,0,P|463:294|514:292,2,90,2|2|2,3:2|2:0|2:0,2:0:0:0:
368,364,123379,6,0,P|324:346|237:341,1,120,6|8,3:2|2:0,0:0:0:0:
175,351,123941,1,0,2:0:0:0:
125,290,124129,2,0,P|138:238|138:160,1,120,2|8,3:2|2:0,0:0:0:0:
72,131,124691,1,0,2:0:0:0:
116,66,124879,6,0,P|167:42|234:85,1,120,6|8,3:2|2:0,0:0:0:0:
300,70,125441,1,0,2:0:0:0:
296,148,125629,1,2,3:2:0:0:
358,194,125816,1,8,2:0:0:0:
302,249,126004,2,0,L|254:270,3,30,8|0|8|8,2:0|3:0|3:2|3:2,2:0:0:0:
267,275,126379,6,0,P|217:250|152:239,2,107.999996704102,6|2|2,3:2|2:0|2:0,0:0:0:0:
296,348,127129,2,0,P|343:336|390:330,1,71.9999978027344,2|0,3:2|2:0,2:0:0:0:
439,363,127504,1,8,2:0:0:0:
495,307,127691,1,0,2:0:0:0:
448,242,127879,6,0,P|456:190|486:94,1,143.999995605469,2|8,3:2|2:0,0:0:0:0:
440,35,128441,1,2,2:0:0:0:
374,80,128629,2,0,P|333:74|296:75,1,71.9999978027344,2|2,3:2|2:0,0:0:0:0:
226,5,129004,2,0,P|267:-1|304:0,1,71.9999978027344,10|2,2:0|2:0,0:0:0:0:
186,75,129379,6,0,P|196:121|204:198,2,107.999996704102,2|2|2,3:2|2:0|2:0,0:0:0:0:
113,106,130129,2,0,P|103:60|95:-17,2,107.999996704102,2|2|2,3:2|2:0|2:0,0:0:0:0:
45,147,130879,6,0,P|89:149|159:222,1,143.999995605469,2|10,3:2|2:0,2:0:0:0:
113,282,131441,1,2,2:0:0:0:
174,332,131629,2,0,P|222:320|263:320,1,71.9999978027344,2|0,3:2|2:0,2:0:0:0:
308,365,132004,1,10,2:0:0:0:
373,320,132191,1,2,2:0:0:0:
437,366,132379,6,0,P|489:366|527:311,2,107.999996704102,2|2|2,3:2|2:0|2:0,0:0:0:0:
373,320,133129,2,0,P|372:272|358:202,1,107.999996704102,2|0,3:2|2:0,2:0:0:0:
361,213,133504,2,0,P|371:163|383:133,1,71.9999978027344,8|0,2:0|2:0,2:0:0:0:
326,83,133879,6,0,P|274:87|185:43,1,143.999995605469,0|8,3:0|2:0,0:0:0:0:
123,10,134441,1,2,2:0:0:0:
63,62,134629,1,2,3:2:0:0:
119,119,134816,1,2,2:0:0:0:
72,183,135004,1,10,2:0:0:0:
140,222,135191,1,2,2:0:0:0:
95,287,135379,6,0,P|48:288|-13:292,2,107.999996704102,2|2|2,3:2|2:0|2:0,0:0:0:0:
112,364,136129,2,0,P|65:365|4:369,2,107.999996704102,2|2|2,3:2|2:0|2:0,0:0:0:0:
188,384,136879,6,0,P|233:357|246:262,1,143.999995605469,2|10,3:2|2:0,2:0:0:0:
199,211,137441,1,2,2:0:0:0:
249,149,137629,2,0,P|248:99|251:55,1,71.9999978027344,2|0,3:2|2:0,2:0:0:0:
316,35,138004,2,0,L|309:-9,3,35.9999989013672,10|0|2|0,2:0|2:0|2:0|2:0,2:0:0:0:
333,40,138379,6,0,P|392:45|428:122,1,143.999995605469,6|8,3:2|2:0,0:0:0:0:
480,174,138941,1,0,2:0:0:0:
420,227,139129,2,0,P|369:216|336:214,1,71.9999978027344,0|0,3:0|2:0,0:0:0:0:
287,164,139504,1,8,2:0:0:0:
240,228,139691,1,0,2:0:0:0:
172,185,139879,6,0,P|109:188|12:205,1,143.999995605469,0|8,3:0|2:0,0:0:0:0:
7,124,140441,1,2,2:0:0:0:
49,56,140629,1,2,3:2:0:0:
119,91,140816,1,2,2:0:0:0:
169,29,141004,1,10,2:0:0:0:
229,80,141191,1,2,2:0:0:0:
294,35,141379,6,0,P|305:77|311:158,2,107.999996704102,2|2|2,3:2|2:0|2:0,0:0:0:0:
370,12,142129,2,0,P|381:54|387:135,2,107.999996704102,2|2|2,3:2|2:0|2:0,0:0:0:0:
473,71,142879,6,0,P|466:121|464:155,1,71.9999978027344,2|0,3:2|2:0,0:0:0:0:
492,216,143254,2,0,P|448:222|370:241,1,107.999996704102,8|0,2:0|2:0,0:0:0:0:
386,236,143629,2,0,P|373:181|380:147,1,71.9999978027344,2|0,3:2|2:0,0:0:0:0:
320,285,144004,2,0,P|306:340|313:374,1,71.9999978027344,10|0,2:0|2:0,2:0:0:0:
268,225,144379,6,0,P|213:230|133:278,1,143.999995605469,6|8,3:2|2:0,0:0:0:0:
62,245,144941,2,0,P|52:195|46:159,2,71.9999978027344,6|0|0,2:0|3:0|2:0,0:0:0:0:
12,307,145504,1,10,2:0:0:0:
52,374,145691,1,2,2:0:0:0:
128,353,145879,6,0,P|159:308|252:287,1,143.999995605469,6|8,3:2|2:0,0:0:0:0:
296,227,146441,2,0,P|343:210|378:202,1,71.9999978027344,6|0,2:0|3:0,0:0:0:0:
235,172,146816,2,0,P|188:155|132:142,2,107.999996704102,2|2|6,2:0|2:0|3:2,0:0:0:0:
293,117,147566,5,0,2:0:0:0:
269,41,147754,2,0,P|321:24|356:22,1,71.9999978027344,8|0,2:0|2:0,0:0:0:0:
416,8,148129,2,0,P|428:46|464:151,1,143.999995605469,6|8,3:2|2:0,0:0:0:0:
503,211,148691,1,0,2:0:0:0:
440,260,148879,6,0,P|369:275|319:202,1,143.999995605469,6|8,3:2|2:0,0:0:0:0:
256,185,149441,2,0,P|265:139|266:103,1,71.9999978027344,6|0,2:0|3:0,0:0:0:0:
190,230,149816,1,0,2:0:0:0:
130,176,150004,2,0,P|83:188|18:237,1,107.999996704102,14|0,2:0|2:0,0:0:0:0:
33,220,150379,6,0,P|28:169|26:137,1,60,2|0,3:2|2:0,0:0:0:0:
84,104,150754,2,0,P|78:52|76:20,1,60,8|2,2:0|2:0,0:0:0:0:
166,186,151129,2,0,P|160:134|158:102,1,60,2|0,3:2|2:0,0:0:0:0:
216,69,151504,2,0,P|210:17|208:-14,1,60,8|2,2:0|2:0,0:0:0:0:
281,118,151879,6,0,P|275:169|273:201,1,60,2|0,3:2|2:0,0:0:0:0:
331,234,152254,2,0,P|325:285|323:317,1,60,8|2,2:0|2:0,0:0:0:0:
413,152,152629,2,0,P|407:203|405:235,1,60,2|0,3:2|2:0,0:0:0:0:
463,269,153004,2,0,P|457:320|455:352,1,60,8|2,2:0|2:0,0:0:0:0:
383,356,153379,6,0,P|318:352|245:364,1,120,2|8,3:2|2:0,0:0:0:0:
200,313,153941,1,2,2:0:0:0:
236,243,154129,2,0,P|229:201|226:166,1,60,2|0,3:2|2:0,0:0:0:0:
161,110,154504,2,0,P|157:139|152:169,1,60,8|2,2:0|2:0,0:0:0:0:
87,213,154879,6,0,P|27:211|1:139,1,120,2|8,3:2|2:0,0:0:0:0:
24,90,155441,1,2,2:0:0:0:
101,97,155629,2,0,P|152:78|186:73,1,60,2|8,3:2|2:0,2:0:0:0:
221,121,156004,2,0,L|267:128,3,30,8|0|10|8,2:0|3:0|3:2|3:2,2:0:0:0:
259,116,156379,6,0,P|284:160|300:233,1,120,6|0,3:1|3:0,2:0:0:0:
163,303,157129,2,0,P|138:259|122:186,1,120,0|0,3:0|3:0,0:0:0:0:
67,136,157691,1,2,2:0:0:0:
67,136,157785,1,2,2:0:0:0:
67,136,157879,2,0,P|47:63|53:3,1,120,2|2,3:2|3:2,0:0:0:0:
134,34,158441,1,2,2:1:0:0:
134,34,158535,1,2,2:1:0:0:
134,34,158629,2,0,P|191:27|244:13,2,90,2|2|2,3:1|2:1|2:1,2:0:0:0:
103,106,159379,6,0,P|146:125|194:187,1,120,2|0,3:1|3:0,2:0:0:0:
318,271,160129,2,0,P|289:299|247:374,1,120,0|0,3:0|3:0,0:0:0:0:
182,350,160691,1,2,2:0:0:0:
182,350,160785,1,2,2:0:0:0:
182,350,160879,2,0,P|124:367|45:361,1,120,2|0,3:1|3:0,0:0:0:0:
4,316,161441,1,0,2:0:0:0:
60,261,161629,2,0,P|61:214|59:137,1,120,0|0,3:0|3:0,0:0:0:0:
125,96,162191,1,2,2:0:0:0:
125,96,162285,1,2,2:0:0:0:
125,96,162379,6,0,P|182:83|237:137,1,120,2|0,3:1|3:0,2:0:0:0:
210,192,162941,1,0,2:0:0:0:
267,244,163129,2,0,P|264:285|263:321,1,60,0|0,3:0|2:0,0:0:0:0:
342,368,163504,2,0,P|339:327|338:291,1,60,2|0,3:2|2:0,0:0:0:0:
405,268,163879,2,0,P|459:264|500:211,1,120,2|0,3:2|3:0,0:0:0:0:
452,152,164441,1,2,2:1:0:0:
452,152,164535,1,2,2:1:0:0:
452,152,164629,2,0,P|456:99|470:54,2,90,2|2|2,3:1|2:1|2:1,2:0:0:0:
392,203,165379,6,0,P|330:189|261:192,1,120,2|0,3:1|3:0,2:0:0:0:
202,51,166129,2,0,P|133:65|81:72,1,120,0|2,3:0|3:2,0:0:0:0:
13,38,166691,1,0,2:0:0:0:
0,114,166879,6,0,P|33:144|70:212,1,120,2|0,3:1|3:0,2:0:0:0:
146,210,167441,1,0,2:0:0:0:
196,270,167629,2,0,P|233:273|263:279,1,60,0|0,3:0|2:0,0:0:0:0:
310,221,168004,2,0,L|358:211,4,30,0|0|2|2|2,3:0|2:0|3:2|3:2|3:1,2:0:0:0:
256,192,168472,12,0,169879,3:0:0:0:
375,229,170441,5,2,2:1:0:0:
375,229,170535,1,2,2:1:0:0:
375,229,170629,2,0,P|380:177|381:128,2,90,2|2|2,3:1|2:1|2:1,2:0:0:0:
306,267,171379,2,0,P|307:311|312:356,2,90,2|2|2,3:1|2:1|2:1,2:0:0:0:
224,133,172316,2,0,P|171:137|128:200,1,120,2|0,2:1|2:0,2:0:0:0:
53,197,172879,6,0,P|68:249|84:333,1,120,2|0,3:2|3:0,2:0:0:0:
36,378,173441,1,2,2:0:0:0:
36,378,173535,1,2,2:0:0:0:
36,378,173629,2,0,P|73:358|156:367,1,120,2|2,3:2|3:2,2:0:0:0:
201,305,174191,1,0,0:0:0:0:
270,340,174379,6,0,P|324:325|376:317,2,90,2|2|2,3:1|2:1|2:1,2:0:0:0:
201,305,175129,2,2,P|201:271|206:232,1,60,2|0,3:1|0:0,2:1:0:0:
127,227,175504,2,0,P|127:193|122:154,1,60,0|0,3:0|0:0,0:0:0:0:
179,112,175879,6,0,P|222:93|297:122,1,120,0|0,3:0|3:0,0:0:0:0:
330,190,176441,1,2,2:1:0:0:
330,190,176535,1,2,2:1:0:0:
330,190,176629,2,0,P|376:173|431:158,2,90,2|2|2,3:1|2:1|2:1,2:0:0:0:
296,260,177379,6,2,P|256:260|217:257,1,60,2|0,3:1|0:0,2:1:0:0:
203,187,177754,2,0,P|157:193|136:201,1,60,0|0,3:0|0:0,0:0:0:0:
110,216,178035,1,0,0:0:0:0:
110,216,178129,2,0,P|100:172|94:141,1,60,0|0,3:0|0:0,0:0:0:0:
37,106,178504,2,0,P|44:62|50:35,1,60,0|0,3:0|0:0,0:0:0:0:
114,6,178879,1,0,3:0:0:0:
464,166,179629,5,0,2:0:0:0:
464,166,179722,1,0,2:0:0:0:
464,166,179816,1,0,2:0:0:0:
464,166,179910,1,0,2:0:0:0:
464,166,180004,2,0,L|455:127,3,30,0|0|0|0,3:0|3:0|3:0|3:0,0:0:0:0:
470,125,180379,6,0,P|426:126|344:80,1,120,6|8,3:2|2:0,0:0:0:0:
286,123,180941,1,0,2:0:0:0:
231,69,181129,2,0,P|238:135|248:207,1,120,2|8,3:2|2:0,0:0:0:0:
189,242,181691,1,0,2:0:0:0:
210,318,181879,6,0,P|137:344|95:316,1,120,2|8,3:2|2:0,0:0:0:0:
46,261,182441,1,2,2:0:0:0:
46,261,182535,1,2,2:0:0:0:
46,261,182629,2,0,P|17:298|-3:350,2,90,2|2|2,3:2|2:0|2:0,2:0:0:0:
83,192,183379,6,0,P|152:182|210:147,1,120,2|8,3:2|2:0,0:0:0:0:
273,174,183941,1,0,2:0:0:0:
324,115,184129,2,0,P|403:103|443:148,1,120,2|8,3:2|2:0,0:0:0:0:
503,157,184691,1,0,2:0:0:0:
463,224,184879,6,0,P|473:276|502:357,1,120,2|8,3:2|2:0,0:0:0:0:
426,376,185441,1,0,2:0:0:0:
359,336,185629,2,0,P|306:344|252:289,1,120,2|8,3:2|2:0,0:0:0:0:
287,229,186191,1,0,2:0:0:0:
287,229,186285,1,0,2:0:0:0:
287,229,186379,6,0,P|279:154|270:93,1,120,6|8,3:2|2:0,0:0:0:0:
308,41,186941,1,0,2:0:0:0:
239,6,187129,2,0,P|195:25|121:38,1,120,2|8,3:2|2:0,0:0:0:0:
55,4,187691,1,0,2:0:0:0:
8,67,187879,6,0,P|27:104|112:109,1,120,2|8,3:2|2:0,0:0:0:0:
160,179,188441,1,2,2:0:0:0:
160,179,188535,1,2,2:0:0:0:
160,179,188629,2,0,P|214:154|262:146,2,90,2|2|2,3:2|2:0|2:0,2:0:0:0:
110,241,189379,6,0,P|114:276|115:303,1,60,2|0,3:2|2:0,0:0:0:0:
198,356,189754,2,0,P|194:321|193:294,1,60,8|0,2:0|2:0,0:0:0:0:
258,212,190129,2,0,P|262:247|263:274,1,60,2|0,3:2|2:0,0:0:0:0:
346,327,190504,2,0,P|342:292|341:265,1,60,8|0,2:0|2:0,0:0:0:0:
415,240,190879,6,0,P|467:224|486:150,1,120,2|8,3:2|2:0,0:0:0:0:
505,90,191441,1,0,2:0:0:0:
440,48,191629,2,0,P|403:60|361:64,1,60,2|0,3:2|2:0,0:0:0:0:
350,135,192004,2,0,P|298:124|269:121,1,60,8|0,3:2|3:0,2:0:0:0:
266,94,192285,1,0,3:0:0:0:
266,94,192379,6,0,P|230:124|148:108,1,120,6|8,3:2|2:0,0:0:0:0:
123,50,192941,1,0,2:0:0:0:
46,64,193129,2,0,P|42:109|21:185,1,120,2|8,3:2|2:0,0:0:0:0:
4,257,193691,1,0,2:0:0:0:
66,305,193879,6,0,P|110:290|175:320,1,120,2|8,3:2|2:0,0:0:0:0:
249,288,194441,1,2,2:0:0:0:
249,288,194535,1,2,2:0:0:0:
249,288,194629,2,0,P|261:335|274:383,2,90,2|2|2,3:2|2:0|2:0,2:0:0:0:
241,206,195379,6,0,P|190:209|126:199,2,90,2|2|2,3:2|2:0|2:0,2:0:0:0:
278,137,196129,2,0,P|329:140|393:130,2,90,2|2|2,3:2|2:0|2:0,2:0:0:0:
229,77,196879,5,0,3:0:0:0:
229,77,197066,2,0,P|267:63|296:42,1,60,2|8,2:0|2:0,2:0:0:0:
359,74,197441,1,0,2:0:0:0:
431,43,197629,2,0,P|438:75|444:106,1,60,2|0,3:2|2:0,0:0:0:0:
509,145,198004,2,0,P|492:173|474:199,1,60,8|0,2:0|2:0,2:0:0:0:
439,207,198285,1,0,2:0:0:0:
439,207,198379,6,0,P|455:259|461:310,2,90,2|2|2,3:2|2:0|2:0,2:0:0:0:
362,200,199129,2,0,P|341:239|326:255,1,60,2|0,3:2|2:0,0:0:0:0:
253,245,199504,1,8,2:0:0:0:
242,322,199691,1,0,2:0:0:0:
164,319,199879,6,0,P|137:275|122:202,1,120,0|8,3:0|2:0,0:0:0:0:
156,139,200441,1,2,2:0:0:0:
101,85,200629,2,0,P|49:90|-2:92,2,90,2|2|2,3:2|2:0|2:0,2:0:0:0:
144,20,201379,6,0,P|188:38|275:43,1,120,6|8,3:2|2:0,0:0:0:0:
337,33,201941,1,0,2:0:0:0:
399,79,202129,2,0,P|390:114|386:142,1,60,0|0,3:0|2:0,0:0:0:0:
455,174,202504,2,0,P|454:208|455:237,1,60,8|0,2:0|2:0,0:0:0:0:
498,298,202879,6,0,P|461:335|375:336,1,120,6|8,3:2|2:0,0:0:0:0:
336,293,203441,1,0,2:0:0:0:
336,293,203535,1,0,2:0:0:0:
336,293,203629,1,0,3:0:0:0:
278,345,203816,1,0,2:0:0:0:
220,291,204004,1,8,2:0:0:0:
154,333,204191,1,0,2:0:0:0:
90,286,204379,6,0,P|63:240|68:162,1,120,6|8,3:2|2:0,0:0:0:0:
136,140,204941,1,0,2:0:0:0:
136,140,205035,1,0,2:0:0:0:
136,140,205129,1,0,3:0:0:0:
195,204,205316,1,0,2:0:0:0:
195,204,205410,1,0,2:0:0:0:
195,204,205504,1,8,2:0:0:0:
255,155,205691,1,0,2:0:0:0:
306,213,205879,6,0,P|358:202|385:195,1,60,6|0,3:2|2:0,0:0:0:0:
408,135,206254,2,0,P|459:143|494:147,1,60,8|0,2:0|2:0,0:0:0:0:
503,74,206629,1,0,3:0:0:0:
442,24,206816,1,8,2:0:0:0:
372,59,207004,1,8,2:0:0:0:
372,59,207097,1,0,3:0:0:0:
372,59,207191,1,8,3:2:0:0:
372,59,207285,1,8,3:2:0:0:
372,59,207379,1,6,3:2:0:0:
227,52,209441,6,0,P|238:86|258:168,1,105.300000401688,2|0,0:0|0:0,0:0:0:0:
255,153,210035,6,0,P|318:158|348:111,2,105.300000401688,2|2|2,0:0|0:0|0:0,0:0:0:0:
23,31,211350,1,0,0:0:0:0:
1,105,211613,1,0,0:0:0:0:
74,131,211877,1,0,0:0:0:0:
218,66,212140,6,0,B|151:52|177:72|92:60,2,105.300000401688
272,13,213221,1,2,0:0:0:0:
321,104,213491,1,2,0:0:0:0:
228,182,213761,1,2,0:0:0:0:
317,284,214031,1,2,0:0:0:0:
198,371,214302,6,0,P|185:318|203:243,2,105.300000401688,2|2|2,0:0|0:0|0:0,0:0:0:0:
396,187,215413,2,0,P|409:240|391:315,2,105.300000401688,2|2|2,0:0|0:0|0:0,0:0:0:0:
498,368,216524,6,0,P|448:346|268:330,1,210.600000803375,2|0,0:0|0:0,0:0:0:0:
167,363,217605,2,0,P|203:368|242:377,1,70.2000002677918,2|0,0:0|0:0,0:0:0:0:
55,311,218145,2,0,P|91:306|130:297,1,70.2000002677918,2|0,0:0|0:0,0:0:0:0:
7,374,218686,6,0,B|22:238|60:313|73:152,1,210.600000803375,2|2,0:0|0:0,0:0:0:0:
486,207,220337,1,2,0:0:0:0:
486,207,220612,1,2,0:0:0:0:
461,281,220887,6,0,B|446:145|408:220|395:59,1,210.600000803375,2|2,0:0|0:0,0:0:0:0:
233,0,222263,2,0,P|247:50|265:118,1,105.300000401688,2|0,0:0|0:0,0:0:0:0:
236,282,223089,6,0,P|250:332|268:400,2,105.300000401688,2|2|2,0:0|0:0|0:0,0:0:0:0:
286,148,224160,1,2,0:0:0:0:
212,162,224428,1,2,0:0:0:0:
226,236,224696,1,2,0:0:0:0:
300,222,224964,1,2,0:0:0:0:
168,120,225231,6,0,P|108:132|24:146,1,140.400000535584,2|0,0:0|0:0,0:0:0:0:
344,264,226056,2,0,P|404:252|488:238,1,140.400000535584,2|0,0:0|0:0,0:0:0:0:
263,147,226882,2,0,P|256:191|249:227,1,70.2000002677918,2|0,0:0|0:0,0:0:0:0:
182,94,227488,6,0,P|159:138|212:285,1,210.600000803375,2|0,0:0|0:0,0:0:0:0:
412,178,228815,2,0,B|454:172|445:182|493:174,2,70.2000002677918,2|2|0,0:0|0:0|0:0,0:0:0:0:
365,245,229611,6,0,P|294:231|144:215,1,210.600000803375,2|2,0:0|0:0,0:0:0:0:
462,121,230974,2,0,L|389:131,2,70.2000002677918,0|2|0,0:0|0:0|0:0,0:0:0:0:
508,51,231792,5,0,0:0:0:0:
441,11,232077,1,0,0:0:0:0:
423,89,232363,1,0,0:0:0:0:
335,62,232663,1,0,0:0:0:0:
337,155,232963,1,0,0:0:0:0:
222,163,233263,1,0,0:0:0:0:
263,279,233563,1,0,0:0:0:0:
111,190,233892,1,0,0:0:0:0:
0,316,234222,1,2,0:0:0:0:
256,192,234360,12,0,238388,0:0:0:0:
