osu file format v14

[General]
AudioFilename: audio.mp3
AudioLeadIn: 0
PreviewTime:126261
Countdown: 0
SampleSet: Soft
StackLeniency: 0.6
Mode: 0
LetterboxInBreaks: 0
WidescreenStoryboard: 0

[Editor]
Bookmarks:4348,39598,78379,102379,126379,150379,156379,168379,180379,207379,209441
DistanceSpacing: 1.3
BeatDivisor: 12
GridSize: 32
TimelineZoom: 2.2

[Metadata]
Title:Tsubasa -resurrection-
TitleUnicode:ツバサ ―resurrection―
Artist:Leon
ArtistUnicode:れおん
Creator:hehe
Version:Extreme
Source:Kirby's Dream Land 3
Tags:salvation by faith records SBFR nintendo snes ripple field 1 remix instrumental electronic video game music ost bgm SSEB-0052 Summer Orange Ocean videogame vgm original soundtrack piano 星のカービィ3「海ステージ」
BeatmapID:3996677
BeatmapSetID:1934116

[Difficulty]
HPDrainRate:5
CircleSize:4
OverallDifficulty:9
ApproachRate:9.4
SliderMultiplier:1.4
SliderTickRate:1

[Events]
//Background and Video events
0,0,"bg.jpg",0,0
//Break Periods
//Storyboard Layer 0 (Background)
//Storyboard Layer 1 (Fail)
//Storyboard Layer 2 (Pass)
//Storyboard Layer 3 (Foreground)
//Storyboard Layer 4 (Overlay)
//Storyboard Sound Samples

[TimingPoints]
2166,545.454545454545,4,2,1,40,1,0
37075,582.52427184466,4,2,1,40,1,0
38240,677.966101694915,4,2,1,40,1,0
39598,545.454545454545,4,2,1,40,1,0
76688,458.015267175572,4,2,1,50,1,0
77146,441.176470588235,4,2,1,60,1,0
77587,395.387149917627,4,2,1,60,1,0
77982,-62.5,4,2,1,60,0,0
78379,375,4,2,1,70,1,0
78754,-71.4285714285714,4,2,1,70,0,0
102004,-55.5555555555556,4,2,1,70,0,0
102379,-55.5555555555556,4,2,1,80,0,0
104254,-62.5,4,2,1,80,0,0
126004,-41.6666666666667,4,2,1,80,0,0
126379,-41.6666666666667,4,2,1,90,0,1
127129,-50,4,2,1,90,0,1
150379,-50,4,2,1,80,0,0
156379,-100,4,2,1,50,0,0
168379,-71.4285714285714,4,2,1,60,0,0
180379,-71.4285714285714,4,2,1,80,0,0
182254,-62.5,4,2,1,80,0,0
206629,-50,4,2,1,80,0,0
209441,594.059405940594,4,2,1,40,1,0
210035,526.315789473685,4,2,1,40,1,0
212140,540.540540540542,4,2,1,40,1,0
214302,555.555555555558,4,2,1,40,1,0
216524,540.540540540542,4,2,1,40,1,0
218686,550.458715596332,4,2,1,40,1,0
223089,535.714285714287,4,2,1,40,1,0
225231,550.458715596332,4,2,1,40,1,0
226882,606.060606060608,4,2,1,40,1,0
227488,530.973451327435,4,2,1,40,1,0
229611,545.454545454547,4,2,1,40,1,0
231792,571.428571428573,4,2,1,40,1,0
232363,600.000000000002,4,2,1,40,1,0
233563,659.340659340662,4,2,1,40,1,0
234222,555.555555555556,4,2,1,40,1,0
235888,-100,4,2,2,30,0,0
236444,-100,4,2,1,25,0,0
236999,-100,4,2,2,20,0,0
237555,-100,4,2,1,15,0,0
238110,-100,4,2,2,10,0,0

[Colours]
Combo1 : 18,124,255
Combo2 : 24,185,255

[HitObjects]
174,125,3802,5,2,2:0:0:0:
174,125,4347,2,0,P|161:67|169:9,2,105,2|0|0,2:0|2:0|2:0,2:0:0:0:
174,125,5711,5,0,2:0:0:0:
244,92,5984,1,0,2:0:0:0:
304,145,6256,2,0,P|295:179|296:234,1,70,0|0,2:0|2:0,2:0:0:0:
293,213,6597,1,0,2:0:0:0:
293,213,6665,5,0,2:0:0:0:
333,248,6802,1,0,2:0:0:0:
395,261,6938,1,0,2:0:0:0:
454,220,7075,1,0,2:0:0:0:
470,143,7211,1,0,2:0:0:0:
406,89,7347,5,2,2:0:0:0:
310,171,7484,1,2,2:0:0:0:
235,71,7620,2,0,B|176:59|191:89|127:77,2,105,2|2|2,2:0|2:0|2:0,2:0:0:0:
279,139,8711,6,0,P|269:193|265:258,2,105,2|0|0,2:0|2:0|2:0,2:0:0:0:
410,189,9802,5,0,2:0:0:0:
453,127,9938,1,0,2:0:0:0:
391,83,10075,1,0,2:0:0:0:
410,189,10347,5,0,2:0:0:0:
324,120,10484,1,0,2:0:0:0:
233,181,10620,1,0,2:0:0:0:
410,189,10893,6,0,P|334:207|290:265,1,140,2|0,2:0|2:0,2:0:0:0:
71,368,11711,1,0,2:0:0:0:
30,384,11847,1,0,2:0:0:0:
6,347,11984,2,0,B|18:266|48:313|61:197,1,140,0|0,2:0|2:0,2:0:0:0:
429,279,13075,6,0,P|473:293|510:351,2,105,2|0|0,2:0|2:0|2:0,2:0:0:0:
429,279,14438,5,0,2:0:0:0:
327,364,14711,1,0,2:0:0:0:
224,279,14984,2,0,P|231:241|249:186,1,70,0|0,2:0|2:0,2:0:0:0:
239,210,15325,1,0,2:0:0:0:
239,210,15393,5,0,2:0:0:0:
278,189,15529,1,0,2:0:0:0:
246,140,15665,1,0,2:0:0:0:
291,83,15802,1,0,2:0:0:0:
236,35,15938,1,0,2:0:0:0:
302,0,16075,5,2,2:0:0:0:
185,95,16211,1,2,2:0:0:0:
316,186,16347,2,0,B|379:172|357:199|436:182,2,105,2|2|2,2:0|2:0|2:0,2:0:0:0:
240,369,17438,6,0,P|231:310|239:247,2,105,2|0|0,2:0|2:0|2:0,2:0:0:0:
432,383,18802,5,0,2:0:0:0:
458,343,18938,1,0,2:0:0:0:
506,342,19075,1,0,2:0:0:0:
360,349,19347,5,0,2:0:0:0:
312,287,19484,1,0,2:0:0:0:
351,219,19620,2,0,P|447:218|475:105,1,210,2|0,2:0|2:0,2:0:0:0:
455,45,20711,6,0,P|450:89|461:192,1,140,0|0,2:0|2:0,2:0:0:0:
159,119,21802,6,0,B|143:98|105:103|105:103|138:108|158:128,2,105,2|0|0,2:0|2:0|2:0,2:0:0:0:
159,119,23165,5,0,2:0:0:0:
134,16,23438,1,0,2:0:0:0:
29,34,23711,2,0,P|12:72|5:118,1,70,0|0,2:0|2:0,2:0:0:0:
6,99,24052,1,0,2:0:0:0:
6,99,24120,5,0,2:0:0:0:
83,145,24256,1,0,2:0:0:0:
148,98,24393,2,0,P|162:129|170:163,1,70,0|0,2:0|2:0,2:0:0:0:
36,210,24802,5,2,2:0:0:0:
200,251,24938,1,2,2:0:0:0:
233,83,25075,2,0,B|299:92|261:116|334:126,2,105,2|2|2,2:0|2:0|2:0,2:0:0:0:
224,370,26165,6,0,P|198:329|208:257,1,105,2|2,2:0|2:0,2:0:0:0:
447,207,26984,2,0,P|473:248|463:320,1,105,2|0,2:0|2:0,2:0:0:0:
471,302,27529,5,2,2:0:0:0:
404,346,27802,1,0,2:0:0:0:
321,286,28075,1,0,2:0:0:0:
197,359,28347,2,0,P|161:331|57:320,1,140,2|0,2:0|2:0,2:0:0:0:
321,286,29165,5,0,2:0:0:0:
279,263,29302,1,0,2:0:0:0:
244,295,29438,1,0,2:0:0:0:
376,349,29711,5,0,2:0:0:0:
445,313,29847,1,0,2:0:0:0:
411,242,29984,1,0,2:0:0:0:
474,193,30120,5,0,2:0:0:0:
379,127,30256,1,0,2:0:0:0:
415,21,30393,1,0,2:0:0:0:
449,94,30529,6,0,P|401:96|341:118,2,105,2|2|2,2:0|2:0|2:0,2:0:0:0:
500,157,31620,1,2,2:0:0:0:
448,211,31893,5,0,2:0:0:0:
274,86,32165,1,0,2:0:0:0:
154,264,32438,2,0,P|168:309|178:360,1,70,0|0,2:0|2:0,2:0:0:0:
173,331,32779,1,0,2:0:0:0:
173,331,32847,5,0,2:0:0:0:
141,363,32984,1,0,2:0:0:0:
87,357,33120,1,0,2:0:0:0:
46,296,33256,1,0,2:0:0:0:
74,226,33393,1,0,2:0:0:0:
154,191,33529,5,2,2:0:0:0:
297,269,33665,1,2,2:0:0:0:
378,127,33802,2,0,B|398:191|420:154|441:228,2,105,2|2|2,2:0|2:0|2:0,2:0:0:0:
492,9,34893,6,0,P|471:49|455:119,2,105,2|0|0,2:0|2:0|2:0,2:0:0:0:
492,9,36256,5,0,2:0:0:0:
441,72,36529,1,0,2:0:0:0:
363,53,36802,1,0,2:0:0:0:
363,53,37075,5,0,2:0:0:0:
254,110,37511,5,0,2:0:0:0:
183,11,37948,5,0,2:0:0:0:
218,181,38240,2,2,L|226:210,2,17.5,0|0|0,2:0|2:0|2:0,2:0:0:0:
135,115,39598,6,2,L|132:94,3,11.6666666666667,0|0|0|0,2:0|2:0|2:0|2:0,2:0:0:0:
194,62,39870,5,0,2:0:0:0:
243,137,40143,5,0,2:0:0:0:
182,214,40416,5,0,2:0:0:0:
83,178,40688,5,0,2:0:0:0:
102,58,40961,5,0,2:0:0:0:
234,15,41234,5,0,2:0:0:0:
348,127,41507,5,0,2:0:0:0:
248,267,41779,6,2,L|229:273,3,11.6666666666667,0|0|0|0,2:0|2:0|2:0|2:0,2:0:0:0:
470,190,42598,1,2,2:0:0:0:
479,152,42734,1,2,2:0:0:0:
511,133,42870,2,0,P|499:90|506:15,2,105,2|2|2,2:0|2:0|2:0,2:0:0:0:
440,218,43961,5,2,2:0:0:0:
413,192,44234,5,0,2:0:0:0:
364,227,44507,5,0,2:0:0:0:
319,172,44779,5,0,2:0:0:0:
271,232,45052,5,0,2:0:0:0:
231,162,45325,5,0,2:0:0:0:
172,245,45598,5,0,2:0:0:0:
96,137,45870,5,0,2:0:0:0:
15,282,46143,6,2,L|22:303,3,11.6666666666667,0|0|0|0,2:0|2:0|2:0|2:0,2:0:0:0:
222,374,46961,2,0,P|253:343|336:332,1,105,0|0,2:0|2:0,2:0:0:0:
386,351,47507,1,0,2:0:0:0:
469,304,47779,1,0,2:0:0:0:
512,384,48052,1,0,2:0:0:0:
386,351,48325,6,2,L|392:371,3,11.6666666666667,0|0|0|0,2:0|2:0|2:0|2:0,2:0:0:0:
362,271,48597,5,0,2:0:0:0:
433,293,48870,5,0,2:0:0:0:
499,250,49143,5,0,2:0:0:0:
510,164,49416,5,0,2:0:0:0:
443,83,49688,5,0,2:0:0:0:
322,97,49961,5,0,2:0:0:0:
264,217,50234,5,0,2:0:0:0:
315,382,50507,6,2,L|336:376,3,11.6666666666667,0|0|0|0,2:0|2:0|2:0|2:0,2:0:0:0:
116,216,51325,1,2,2:0:0:0:
131,173,51461,1,2,2:0:0:0:
175,166,51597,2,0,B|237:175|211:200|276:205,2,105,2|2|2,2:0|2:0|2:0,2:0:0:0:
17,0,52688,5,2,2:0:0:0:
3,46,52961,5,0,2:0:0:0:
32,98,53234,5,0,2:0:0:0:
104,117,53507,5,0,2:0:0:0:
178,95,53779,5,0,2:0:0:0:
262,117,54052,5,0,2:0:0:0:
279,214,54325,5,0,2:0:0:0:
375,287,54597,5,0,2:0:0:0:
512,277,54870,5,2,2:0:0:0:
512,277,54916,5,2,2:0:0:0:
512,277,54961,5,2,2:0:0:0:
512,277,55007,6,0,P|437:281|388:195,1,175,2|0,2:0|2:0,2:0:0:0:
192,358,56234,1,0,2:0:0:0:
175,283,56507,1,0,2:0:0:0:
100,274,56779,1,0,2:0:0:0:
192,358,57052,6,2,L|187:377,3,11.6666666666667,0|0|0|0,2:0|2:0|2:0|2:0,2:0:0:0:
271,301,57325,5,0,2:0:0:0:
236,293,57597,5,0,2:0:0:0:
206,254,57870,5,0,2:0:0:0:
204,199,58143,5,0,2:0:0:0:
229,130,58416,5,0,2:0:0:0:
287,70,58688,5,0,2:0:0:0:
367,30,58961,5,0,2:0:0:0:
495,11,59234,6,2,L|515:17,3,11.6666666666667,0|0|0|0,2:0|2:0|2:0|2:0,2:0:0:0:
319,199,60052,1,2,2:0:0:0:
275,217,60188,1,2,2:0:0:0:
243,182,60325,2,0,P|196:194|133:197,2,105,2|2|2,2:0|2:0|2:0,2:0:0:0:
280,79,61416,6,0,B|290:140|309:113|322:182,2,105,2|2|2,2:0|2:0|2:0,2:0:0:0:
385,225,62507,2,0,B|375:286|356:259|343:328,2,105,2|2|2,2:0|2:0|2:0,2:0:0:0:
455,190,63597,5,0,2:0:0:0:
273,358,63870,2,0,P|233:303|239:233,1,140,2|0,2:0|2:0,2:0:0:0:
32,377,64961,1,0,2:0:0:0:
82,318,65234,1,0,2:0:0:0:
155,347,65507,1,0,2:0:0:0:
85,215,65779,6,0,P|73:263|83:320,2,105,2|2|2,2:0|2:0|2:0,2:0:0:0:
63,140,66870,1,2,2:0:0:0:
152,174,67143,1,0,2:0:0:0:
236,81,67416,1,0,2:0:0:0:
417,129,67688,1,0,2:0:0:0:
230,171,67961,6,2,L|235:152,3,11.6666666666667,0|0|0|0,2:0|2:0|2:0|2:0,2:0:0:0:
416,329,68779,1,2,2:0:0:0:
347,367,69052,2,0,B|328:326|347:288|347:288|327:262,2,105,2|2|2,2:0|2:0|2:0,2:0:0:0:
490,381,70143,6,2,L|469:387,3,11.6666666666667,0|0|0|0,2:0|2:0|2:0|2:0,2:0:0:0:
510,304,70416,5,0,2:0:0:0:
459,236,70688,5,0,2:0:0:0:
354,230,70961,5,0,2:0:0:0:
279,324,71234,6,0,P|260:268|273:187,1,140,2|0,2:0|2:0,2:0:0:0:
271,189,72325,5,0,2:0:0:0:
232,263,72597,5,0,2:0:0:0:
127,255,72870,5,0,2:0:0:0:
52,166,73143,5,0,2:0:0:0:
94,36,73416,6,0,B|201:0|260:76|253:83|246:91|317:165|411:115,1,350,2|0,2:0|2:0,2:0:0:0:
229,3,76688,6,0,L|242:75,1,70,0|0,3:0|2:0,2:0:0:0:
182,128,77146,2,0,L|195:200,1,70,0|0,3:0|2:0,2:0:0:0:
242,72,77587,6,0,L|277:80,1,35,0|0,3:0|2:0,2:0:0:0:
352,97,77784,1,8,3:2:0:0:
396,28,77982,6,0,L|383:104,1,56,0|0,3:0|3:0,2:0:0:0:
296,154,78180,2,0,L|283:230,1,56,0|0,3:0|3:0,2:0:0:0:
311,311,78379,5,6,3:2:0:0:
348,279,78472,1,0,2:0:0:0:
394,263,78566,1,0,2:0:0:0:
443,263,78660,1,0,2:0:0:0:
489,279,78754,2,0,P|459:241|452:206,1,49,8|0,2:0|2:0,2:0:0:0:
494,169,78941,5,0,2:0:0:0:
458,134,79035,1,0,2:0:0:0:
462,85,79129,1,0,3:0:0:0:
414,74,79222,1,0,2:0:0:0:
370,94,79316,1,0,2:0:0:0:
346,136,79410,1,0,2:0:0:0:
351,183,79504,2,0,P|377:192|420:228,1,49,8|0,2:0|2:0,2:0:0:0:
288,237,79691,5,0,2:0:0:0:
239,224,79785,1,0,2:0:0:0:
217,180,79879,1,0,3:0:0:0:
170,193,79972,1,0,2:0:0:0:
142,233,80066,1,0,2:0:0:0:
142,282,80160,1,0,2:0:0:0:
170,320,80254,2,0,P|196:314|251:323,1,49,8|0,2:0|2:0,2:0:0:0:
307,330,80441,5,2,2:0:0:0:
381,337,80535,2,0,P|381:349|376:361,1,24.5,2|0,2:0|2:0,2:0:0:0:
307,330,80629,6,0,P|287:275|291:221,1,98,2|0,3:2|2:0,2:0:0:0:
329,155,80910,2,0,P|336:168|339:190,1,24.5,2|0,2:0|2:0,2:0:0:0:
411,199,81004,6,0,P|414:174|409:150,1,49,8|0,2:0|2:0,2:0:0:0:
391,55,81191,2,0,P|394:30|389:6,1,49,2|0,2:0|2:0,2:0:0:0:
314,77,81379,5,2,3:2:0:0:
272,51,81472,1,0,2:0:0:0:
224,46,81566,1,0,2:0:0:0:
178,64,81660,1,0,2:0:0:0:
145,99,81754,2,0,P|163:121|175:157,1,49,8|0,2:0|2:0,2:0:0:0:
132,210,81941,5,0,2:0:0:0:
87,230,82035,1,0,2:0:0:0:
41,212,82129,1,0,3:0:0:0:
53,164,82222,1,0,2:0:0:0:
51,115,82316,1,0,2:0:0:0:
34,70,82410,1,0,2:0:0:0:
5,31,82504,2,0,P|36:19|68:20,1,49,8|0,2:0|2:0,2:0:0:0:
129,117,82691,2,0,P|160:105|192:106,1,49,0|0,2:0|2:0,2:0:0:0:
131,30,82879,5,2,3:2:0:0:
176,13,82972,1,0,2:0:0:0:
222,27,83066,1,0,2:0:0:0:
251,65,83160,1,0,2:0:0:0:
251,114,83254,2,0,P|257:147|271:170,1,49,8|0,2:0|2:0,2:0:0:0:
216,223,83441,5,0,2:0:0:0:
196,268,83535,1,0,2:0:0:0:
214,314,83629,1,0,3:0:0:0:
262,301,83722,1,0,2:0:0:0:
311,303,83816,1,0,2:0:0:0:
356,320,83910,1,0,2:0:0:0:
395,349,84004,2,0,P|407:318|406:286,1,49,8|0,2:0|2:0,2:0:0:0:
457,222,84191,6,0,P|461:238|463:264,1,24.5,0|0,2:0|2:0,2:0:0:0:
382,208,84285,2,0,P|384:195|387:184,1,24.5,0|0,2:0|2:0,2:0:0:0:
457,222,84379,5,6,3:2:0:0:
490,186,84472,1,0,2:0:0:0:
500,139,84566,1,0,2:0:0:0:
485,93,84660,1,0,2:0:0:0:
448,62,84754,2,0,P|421:73|392:77,1,49,8|0,2:0|2:0,2:0:0:0:
346,17,84941,5,0,2:0:0:0:
314,54,85035,1,0,2:0:0:0:
264,53,85129,1,0,3:0:0:0:
259,101,85222,1,0,2:0:0:0:
282,143,85316,1,0,2:0:0:0:
325,164,85410,1,0,2:0:0:0:
373,156,85504,2,0,P|383:176|388:222,1,49,8|0,2:0|2:0,2:0:0:0:
360,327,85691,5,0,2:0:0:0:
323,295,85785,1,0,2:0:0:0:
324,245,85879,1,0,3:0:0:0:
275,240,85972,1,0,2:0:0:0:
233,263,86066,1,0,2:0:0:0:
212,306,86160,1,0,2:0:0:0:
220,354,86254,2,0,P|200:363|154:368,1,49,8|0,2:0|2:0,2:0:0:0:
39,308,86441,5,2,2:0:0:0:
106,345,86535,6,0,P|108:333|116:323,1,24.5,2|0,2:0|2:0,2:0:0:0:
39,308,86629,6,0,P|68:265|120:241,1,98,2|0,3:2|2:0,2:0:0:0:
145,160,86910,2,0,L|157:192,1,24.5,2|0,2:0|2:0,2:0:0:0:
213,227,87004,6,0,P|224:205|227:181,1,49,8|0,2:0|2:0,2:0:0:0:
299,164,87191,2,0,P|292:140|277:121,1,49,2|0,2:0|2:0,2:0:0:0:
244,52,87379,5,2,3:2:0:0:
274,14,87472,1,0,2:0:0:0:
320,0,87566,1,0,2:0:0:0:
366,15,87660,1,0,2:0:0:0:
396,52,87754,2,0,P|386:75|381:99,1,49,8|0,2:0|2:0,2:0:0:0:
439,151,87941,5,0,2:0:0:0:
420,196,88035,1,0,2:0:0:0:
449,235,88129,1,0,3:0:0:0:
401,240,88222,1,0,2:0:0:0:
366,274,88316,1,0,2:0:0:0:
358,321,88410,1,0,2:0:0:0:
379,364,88504,2,0,P|407:355|444:350,1,49,8|0,2:0|2:0,2:0:0:0:
244,282,88691,2,0,P|272:273|309:268,1,49,0|0,2:0|2:0,2:0:0:0:
334,201,88879,5,2,3:2:0:0:
335,152,88972,1,0,2:0:0:0:
309,111,89066,1,0,2:0:0:0:
266,90,89160,1,0,2:0:0:0:
218,97,89254,2,0,P|210:125|188:161,1,49,8|0,2:0|2:0,2:0:0:0:
247,240,89441,5,0,2:0:0:0:
199,249,89535,1,0,2:0:0:0:
166,212,89629,1,0,3:0:0:0:
152,258,89722,1,0,2:0:0:0:
111,285,89816,1,0,2:0:0:0:
63,283,89910,1,0,2:0:0:0:
26,254,90004,2,0,P|40:228|53:193,1,49,8|0,2:0|2:0,2:0:0:0:
108,159,90191,6,0,P|104:147|97:136,1,24.5,0|0,3:0|2:0,2:0:0:0:
131,72,90285,2,0,P|120:66|108:63,1,24.5,0|0,3:0|2:0,2:0:0:0:
108,159,90379,5,4,3:2:0:0:
153,143,90472,1,0,2:0:0:0:
199,159,90566,1,0,2:0:0:0:
225,199,90660,1,0,2:0:0:0:
221,247,90754,2,0,P|193:247|161:267,1,49,8|0,2:0|2:0,2:0:0:0:
138,324,90941,5,0,2:0:0:0:
97,294,91035,1,0,2:0:0:0:
97,244,91129,1,0,3:0:0:0:
49,254,91222,1,0,2:0:0:0:
16,288,91316,1,0,2:0:0:0:
7,336,91410,1,0,2:0:0:0:
28,379,91504,2,0,P|63:382|95:369,1,49,8|0,2:0|2:0,2:0:0:0:
200,275,91691,2,0,P|235:278|267:265,1,49,0|0,2:0|2:0,2:0:0:0:
138,324,91879,5,0,3:0:0:0:
179,349,91972,1,0,2:0:0:0:
227,358,92066,1,0,2:0:0:0:
275,348,92160,1,0,2:0:0:0:
316,322,92254,2,0,P|335:337|355:364,1,49,8|0,2:0|2:0,2:0:0:0:
499,332,92441,5,2,2:0:0:0:
437,374,92535,6,0,P|429:364|426:352,1,24.5,2|0,2:0|2:0,2:0:0:0:
499,332,92629,6,0,P|513:282|491:229,1,98,2|0,3:2|2:0,2:0:0:0:
470,169,92910,2,0,L|440:183,1,24.5,2|0,2:0|2:0,2:0:0:0:
397,125,93004,6,0,P|382:143|375:167,1,49,8|0,2:0|2:0,2:0:0:0:
458,47,93191,2,0,P|433:43|410:48,1,49,2|0,2:0|2:0,2:0:0:0:
259,44,93379,6,0,B|269:102|292:79|304:141,1,98,2|0,3:2|2:0,2:0:0:0:
249,207,93660,2,0,L|243:173,1,24.5,2|0,2:0|2:0,2:0:0:0:
313,249,93754,6,0,P|324:218|316:182,1,49,8|0,2:0|2:0,2:0:0:0:
172,203,93941,2,0,P|123:211|66:246,1,98,2|0,2:0|3:0,2:0:0:0:
5,380,94222,2,0,P|11:365|10:348,1,24.5,0|0,2:0|2:0,2:0:0:0:
85,357,94316,6,0,P|81:324|60:292,1,49,2|0,2:0|2:0,2:0:0:0:
14,196,94504,2,0,P|5:218|3:243,1,49,8|0,2:0|2:0,2:0:0:0:
125,248,94691,5,0,2:0:0:0:
96,207,94785,1,0,2:0:0:0:
120,164,94879,1,0,3:0:0:0:
168,173,94972,1,0,2:0:0:0:
202,207,95066,1,0,2:0:0:0:
210,255,95160,1,0,2:0:0:0:
190,299,95254,2,0,P|224:318|242:342,1,49,8|0,2:0|2:0,2:0:0:0:
311,303,95441,5,0,2:0:0:0:
325,349,95535,1,0,2:0:0:0:
370,366,95629,2,0,P|394:343|405:312,1,49,2|0,3:2|2:0,2:0:0:0:
479,310,95816,2,0,P|479:276|465:247,1,49,0|0,2:0|2:0,2:0:0:0:
512,191,96004,2,0,P|489:166|457:156,1,49,8|0,2:0|2:0,2:0:0:0:
388,230,96191,6,0,P|398:223|410:221,1,24.5,0|0,2:0|2:0,2:0:0:0:
316,207,96285,2,0,P|318:195|326:185,1,24.5,0|0,2:0|2:0,2:0:0:0:
388,230,96379,6,0,P|403:183|382:133,1,98,2|0,3:2|2:0,2:0:0:0:
388,38,96660,2,0,P|393:54|392:77,1,24.5,2|0,2:0|2:0,2:0:0:0:
471,61,96754,6,0,P|459:104|444:121,1,49,8|0,2:0|2:0,2:0:0:0:
252,128,96941,2,0,P|240:171|225:188,1,49,2|0,2:0|2:0,2:0:0:0:
322,92,97129,5,2,3:2:0:0:
289,56,97222,1,0,2:0:0:0:
242,46,97316,1,0,2:0:0:0:
197,65,97410,1,0,2:0:0:0:
172,106,97504,2,0,P|136:115|110:126,1,49,8|0,2:0|2:0,2:0:0:0:
325,227,97691,2,0,P|288:235|262:246,1,49,0|0,2:0|2:0,2:0:0:0:
253,317,97879,5,0,3:0:0:0:
211,341,97972,1,0,2:0:0:0:
163,337,98066,1,0,2:0:0:0:
127,305,98160,1,0,2:0:0:0:
117,258,98254,2,0,P|128:222|130:196,1,49,8|0,2:0|2:0,2:0:0:0:
82,152,98441,5,2,2:0:0:0:
6,161,98535,6,0,P|5:172|13:183,1,24.5,2|0,2:0|2:0,2:0:0:0:
82,152,98629,6,0,P|91:113|129:67,1,98,2|0,3:2|2:0,2:0:0:0:
261,35,98910,2,0,P|267:45|277:52,1,24.5,2|0,2:0|2:0,2:0:0:0:
203,81,99004,6,0,P|217:100|244:119,1,49,8|0,2:0|2:0,2:0:0:0:
255,191,99191,2,0,P|279:194|310:188,1,49,2|0,2:0|2:0,2:0:0:0:
371,230,99379,5,2,3:2:0:0:
380,182,99472,1,0,2:0:0:0:
410,144,99566,1,0,2:0:0:0:
454,122,99660,1,0,2:0:0:0:
502,123,99754,2,0,P|502:91|495:59,1,49,8|0,2:0|2:0,2:0:0:0:
439,25,99941,5,0,2:0:0:0:
398,52,100035,1,0,2:0:0:0:
353,31,100129,1,0,3:0:0:0:
308,49,100222,1,0,2:0:0:0:
282,89,100316,1,0,2:0:0:0:
286,137,100410,1,0,2:0:0:0:
317,174,100504,2,0,P|356:176|382:189,1,49,8|0,2:0|2:0,2:0:0:0:
161,287,100691,2,0,P|200:289|226:302,1,49,0|0,2:0|2:0,2:0:0:0:
284,257,100879,5,0,3:0:0:0:
248,223,100972,1,0,2:0:0:0:
203,205,101066,1,0,2:0:0:0:
154,205,101160,1,0,2:0:0:0:
108,222,101254,1,8,2:0:0:0:
117,174,101347,1,0,2:0:0:0:
145,134,101441,1,0,2:0:0:0:
187,110,101535,1,0,2:0:0:0:
236,106,101629,6,0,L|222:48,1,49,0|0,3:0|2:0,2:0:0:0:
158,22,101816,1,8,2:0:0:0:
315,94,102004,6,0,L|304:183,1,63,8|0,2:0|3:0,2:0:0:0:
291,276,102191,2,0,L|280:365,1,63,8|8,3:2|3:2,2:0:0:0:
351,384,102379,5,6,3:2:0:0:
406,380,102472,1,0,2:0:0:0:
449,346,102566,1,0,2:0:0:0:
466,294,102660,1,0,2:0:0:0:
450,240,102754,1,8,2:0:0:0:
422,234,102847,1,0,2:0:0:0:
396,243,102941,1,0,2:0:0:0:
378,264,103035,1,0,2:0:0:0:
373,291,103129,5,2,3:2:0:0:
321,310,103222,1,0,2:0:0:0:
268,296,103316,1,0,2:0:0:0:
232,254,103410,1,0,2:0:0:0:
228,199,103504,1,8,2:0:0:0:
203,186,103597,1,0,2:0:0:0:
176,187,103691,1,0,2:0:0:0:
152,202,103785,1,0,2:0:0:0:
139,226,103879,5,2,3:2:0:0:
84,219,103972,1,0,2:0:0:0:
36,246,104066,1,0,2:0:0:0:
14,297,104160,1,0,2:0:0:0:
27,350,104254,2,0,P|57:353|97:373,1,56,8|0,2:0|2:0,2:0:0:0:
233,351,104441,5,2,2:0:0:0:
166,303,104535,6,0,P|158:314|154:327,1,28,2|0,2:0|2:0,2:0:0:0:
233,351,104629,6,0,B|278:343|302:306|302:306|328:323,1,112,2|0,3:2|2:0,2:0:0:0:
378,374,104910,2,0,P|388:364|394:351,1,28,2|0,2:0|2:0,2:0:0:0:
463,322,105004,6,0,P|464:289|451:252,1,56,8|0,2:0|2:0,2:0:0:0:
271,237,105191,2,0,P|272:204|259:167,1,56,2|0,2:0|2:0,2:0:0:0:
425,41,105379,5,2,3:2:0:0:
453,87,105472,1,0,2:0:0:0:
438,139,105566,1,0,2:0:0:0:
390,164,105660,1,0,2:0:0:0:
339,146,105754,1,8,2:0:0:0:
348,120,105847,1,0,2:0:0:0:
347,92,105941,1,0,2:0:0:0:
335,67,106035,1,0,2:0:0:0:
314,49,106129,5,2,3:2:0:0:
276,90,106222,1,0,2:0:0:0:
223,105,106316,1,0,2:0:0:0:
170,89,106410,1,0,2:0:0:0:
134,47,106504,1,8,2:0:0:0:
162,49,106597,1,0,2:0:0:0:
188,41,106691,1,0,2:0:0:0:
211,25,106785,1,0,2:0:0:0:
228,2,106879,5,2,3:2:0:0:
246,55,106972,1,0,2:0:0:0:
246,111,107066,1,0,2:0:0:0:
226,163,107160,1,0,2:0:0:0:
190,205,107254,1,8,2:0:0:0:
168,188,107347,1,0,2:0:0:0:
142,177,107441,1,0,2:0:0:0:
114,174,107535,1,0,2:0:0:0:
87,178,107629,5,2,3:2:0:0:
106,126,107722,1,0,2:0:0:0:
97,71,107816,1,0,2:0:0:0:
61,29,107910,1,0,2:0:0:0:
9,11,108004,2,0,P|21:41|22:79,1,56,8|0,2:0|2:0,2:0:0:0:
11,145,108191,6,0,P|26:146|43:138,1,28,0|0,2:0|2:0,2:0:0:0:
86,191,108285,2,0,P|98:181|104:163,1,28,0|0,2:0|2:0,2:0:0:0:
11,145,108379,5,6,3:2:0:0:
65,149,108472,1,0,2:0:0:0:
108,185,108566,1,0,2:0:0:0:
122,238,108660,1,0,2:0:0:0:
104,290,108754,1,8,2:0:0:0:
76,291,108847,1,0,2:0:0:0:
51,303,108941,1,0,2:0:0:0:
33,324,109035,1,0,2:0:0:0:
24,351,109129,5,2,3:2:0:0:
76,331,109222,1,0,2:0:0:0:
132,330,109316,1,0,2:0:0:0:
185,347,109410,1,0,2:0:0:0:
230,380,109504,1,8,2:0:0:0:
252,364,109597,1,0,2:0:0:0:
264,339,109691,1,0,2:0:0:0:
264,311,109785,1,0,2:0:0:0:
251,287,109879,5,2,3:2:0:0:
282,239,109972,1,0,2:0:0:0:
292,186,110066,1,0,2:0:0:0:
281,131,110160,1,0,2:0:0:0:
250,85,110254,2,0,P|279:91|306:87,1,56,8|0,2:0|2:0,2:0:0:0:
383,108,110441,5,2,2:0:0:0:
457,55,110535,6,0,P|458:70|449:92,1,28,2|0,2:0|2:0,2:0:0:0:
383,108,110629,6,0,B|405:161|432:130|457:200,1,112,2|0,3:2|2:0,2:0:0:0:
495,275,110910,2,0,P|504:259|504:237,1,28,2|0,2:0|2:0,2:0:0:0:
419,261,111004,6,0,P|424:304|437:324,1,56,8|0,2:0|2:0,2:0:0:0:
305,331,111191,2,0,P|310:374|323:394,1,56,2|0,2:0|2:0,2:0:0:0:
468,384,111379,5,2,3:2:0:0:
500,338,111472,1,0,2:0:0:0:
508,284,111566,1,0,2:0:0:0:
492,230,111660,1,0,2:0:0:0:
453,191,111754,1,8,2:0:0:0:
431,208,111847,1,0,2:0:0:0:
403,212,111941,1,0,2:0:0:0:
378,202,112035,1,0,2:0:0:0:
360,181,112129,5,2,3:2:0:0:
415,180,112222,1,0,2:0:0:0:
463,153,112316,1,0,2:0:0:0:
493,106,112410,1,0,2:0:0:0:
496,51,112504,1,8,2:0:0:0:
471,41,112597,1,0,2:0:0:0:
443,45,112691,1,0,2:0:0:0:
422,63,112785,1,0,2:0:0:0:
413,89,112879,5,2,3:2:0:0:
359,104,112972,1,0,2:0:0:0:
305,94,113066,1,0,2:0:0:0:
262,59,113160,1,0,2:0:0:0:
240,8,113254,1,8,2:0:0:0:
239,63,113347,1,0,2:0:0:0:
265,112,113441,1,0,2:0:0:0:
313,140,113535,1,0,2:0:0:0:
368,141,113629,1,2,3:2:0:0:
343,191,113722,1,0,2:0:0:0:
300,226,113816,1,0,2:0:0:0:
246,240,113910,1,0,2:0:0:0:
192,231,114004,6,0,P|195:197|186:154,1,56,8|0,3:2|3:0,2:0:0:0:
162,305,114191,6,0,P|159:319|161:333,1,28,0|0,3:0|2:0,2:0:0:0:
232,359,114285,2,0,P|234:345|232:331,1,28,0|0,3:0|2:0,2:0:0:0:
162,306,114379,5,6,3:2:0:0:
117,272,114472,1,0,2:0:0:0:
62,270,114566,1,0,2:0:0:0:
17,301,114660,1,0,2:0:0:0:
0,352,114754,1,8,2:0:0:0:
22,368,114847,1,0,2:0:0:0:
49,371,114941,1,0,2:0:0:0:
75,362,115035,1,0,2:0:0:0:
95,342,115129,5,2,3:2:0:0:
61,297,115222,1,0,2:0:0:0:
45,244,115316,1,0,2:0:0:0:
49,188,115410,1,0,2:0:0:0:
73,138,115504,1,8,2:0:0:0:
86,162,115597,1,0,2:0:0:0:
107,180,115691,1,0,2:0:0:0:
133,189,115785,1,0,2:0:0:0:
161,188,115879,5,2,3:2:0:0:
178,135,115972,1,0,2:0:0:0:
219,98,116066,1,0,2:0:0:0:
273,86,116160,1,0,2:0:0:0:
325,103,116254,2,0,P|324:133|330:166,1,56,8|0,2:0|2:0,2:0:0:0:
352,263,116441,5,2,2:0:0:0:
284,222,116535,6,0,P|257:215|235:226,1,28,2|0,2:0|2:0,2:0:0:0:
352,263,116629,6,0,P|314:293|249:290,1,112,2|0,3:2|2:0,2:0:0:0:
181,225,116910,2,0,L|188:258,1,28,2|0,2:0|2:0,2:0:0:0:
109,247,117004,6,0,P|104:219|111:192,1,56,8|0,2:0|2:0,2:0:0:0:
253,131,117191,2,0,P|248:103|255:76,1,56,2|0,2:0|2:0,2:0:0:0:
202,10,117379,6,0,B|183:36|183:36|135:26|94:66,1,112,2|0,3:2|2:0,2:0:0:0:
34,34,117660,2,0,L|25:1,1,28,2|0,2:0|2:0,2:0:0:0:
6,105,117754,6,0,P|34:117|53:142,1,56,8|0,2:0|2:0,2:0:0:0:
165,112,117941,2,0,P|193:124|212:149,1,56,2|0,2:0|2:0,2:0:0:0:
182,216,118129,6,0,B|245:230|235:195|304:211,1,112,2|0,3:2|2:0,2:0:0:0:
435,201,118410,2,0,P|432:182|439:165,1,28,2|0,2:0|2:0,2:0:0:0:
359,166,118504,6,0,P|366:138|399:104,1,56,8|0,2:0|2:0,2:0:0:0:
450,50,118691,2,0,B|453:101|498:126|498:126|503:148,1,112,2|0,2:0|3:0,2:0:0:0:
257,338,119066,6,0,P|262:310|278:287,1,56,2|0,2:0|2:0,2:0:0:0:
35,384,119254,1,8,2:0:0:0:
15,363,119347,1,0,2:0:0:0:
6,337,119441,1,0,2:0:0:0:
7,310,119535,1,0,2:0:0:0:
20,285,119629,5,2,3:2:0:0:
75,280,119722,1,0,2:0:0:0:
124,254,119816,1,0,2:0:0:0:
159,211,119910,1,0,2:0:0:0:
174,157,120004,2,0,P|165:110|165:88,1,56,8|0,2:0|2:0,2:0:0:0:
241,204,120191,6,0,B|243:206|256:197|268:200,1,28,0|0,2:0|2:0,2:0:0:0:
295,280,120285,2,0,B|282:283|269:274|267:276,1,28,0|0,2:0|2:0,2:0:0:0:
241,204,120379,6,0,P|262:165|333:133,1,112,2|0,3:2|2:0,2:0:0:0:
437,191,120660,2,0,L|465:199,1,28,2|0,2:0|2:0,2:0:0:0:
396,128,120754,6,0,P|390:101|361:69,1,56,8|0,2:0|2:0,2:0:0:0:
246,79,120941,2,0,P|240:52|211:20,1,56,2|0,2:0|2:0,2:0:0:0:
305,8,121129,5,2,3:2:0:0:
359,0,121222,1,0,2:0:0:0:
412,14,121316,1,0,2:0:0:0:
451,53,121410,1,0,2:0:0:0:
468,106,121504,1,8,2:0:0:0:
492,91,121597,1,0,2:0:0:0:
508,68,121691,1,0,2:0:0:0:
512,41,121785,1,0,2:0:0:0:
505,14,121879,5,0,3:0:0:0:
451,29,121972,1,0,2:0:0:0:
407,63,122066,1,0,2:0:0:0:
377,110,122160,1,0,2:0:0:0:
365,164,122254,2,0,P|334:157|299:159,1,56,8|0,2:0|2:0,2:0:0:0:
452,286,122441,2,0,P|421:279|386:281,1,56,2|0,2:0|2:0,2:0:0:0:
333,234,122629,6,0,P|317:277|329:346,1,112,2|0,3:2|2:0,2:0:0:0:
232,285,122910,2,0,L|243:320,1,28,2|0,2:0|2:0,2:0:0:0:
214,381,123004,6,0,P|184:365|168:329,1,56,8|0,2:0|2:0,2:0:0:0:
22,334,123191,2,0,P|12:301|26:264,1,56,2|0,2:0|2:0,2:0:0:0:
93,250,123379,5,6,3:2:0:0:
142,225,123472,1,0,2:0:0:0:
167,176,123566,1,0,2:0:0:0:
158,121,123660,1,0,2:0:0:0:
119,82,123754,1,8,2:0:0:0:
65,74,123847,1,0,2:0:0:0:
16,99,123941,2,0,P|33:134|39:166,1,56,0|0,2:0|2:0,2:0:0:0:
11,223,124129,5,2,3:2:0:0:
64,234,124222,1,0,2:0:0:0:
114,209,124316,1,0,2:0:0:0:
137,160,124410,1,0,2:0:0:0:
126,106,124504,2,0,P|159:114|194:112,1,56,8|0,2:0|2:0,2:0:0:0:
269,159,124691,6,0,P|251:165|235:174,1,28,0|0,2:0|2:0,2:0:0:0:
288,83,124785,2,0,P|300:88|314:93,1,28,0|0,2:0|2:0,2:0:0:0:
269,159,124879,5,6,3:2:0:0:
305,200,124972,1,0,2:0:0:0:
358,215,125066,1,0,2:0:0:0:
411,199,125160,1,0,2:0:0:0:
448,157,125254,1,8,2:0:0:0:
467,208,125347,1,0,2:0:0:0:
457,262,125441,1,0,2:0:0:0:
418,302,125535,1,0,2:0:0:0:
364,315,125629,6,0,L|306:304,1,56,2|0,3:2|2:0,2:0:0:0:
174,277,125816,1,8,2:0:0:0:
235,176,126004,6,0,L|251:272,1,83.9999999999999,8|0,2:0|3:0,2:0:0:0:
116,384,126191,2,0,L|100:288,1,83.9999999999999,8|8,3:2|3:2,2:0:0:0:
36,257,126379,5,6,3:2:0:0:
73,199,126472,1,0,2:0:0:0:
62,132,126566,1,0,2:0:0:0:
7,90,126660,1,2,2:0:0:0:
53,98,126754,1,8,2:0:0:0:
88,127,126847,1,0,2:0:0:0:
104,170,126941,1,2,2:0:0:0:
126,143,127035,1,0,2:0:0:0:
125,109,127129,6,0,P|153:121|208:119,1,70,2|0,3:2|2:0,2:0:0:0:
238,57,127316,2,0,P|265:68|320:66,1,70,0|0,2:0|2:0,2:0:0:0:
258,167,127504,6,0,B|283:246|321:200|340:280,1,140,8|0,2:0|2:0,2:0:0:0:
409,312,127785,2,0,P|416:299|417:275,1,35,0|0,2:0|2:0,2:0:0:0:
338,275,127879,5,2,3:2:0:0:
293,286,127972,1,0,2:0:0:0:
257,314,128066,1,0,2:0:0:0:
235,355,128160,1,0,2:0:0:0:
245,309,128254,1,8,2:0:0:0:
273,273,128347,1,0,2:0:0:0:
314,250,128441,6,0,P|317:213|330:182,1,70,2|0,2:0|2:0,2:0:0:0:
400,216,128629,5,2,3:2:0:0:
408,194,128722,1,0,2:0:0:0:
311,83,128816,5,2,2:0:0:0:
317,105,128910,1,0,2:0:0:0:
460,137,129004,5,10,2:0:0:0:
442,123,129097,1,0,2:0:0:0:
306,180,129191,5,2,2:0:0:0:
329,182,129285,1,0,2:0:0:0:
388,62,129379,5,2,3:2:0:0:
318,69,129472,1,0,2:0:0:0:
253,46,129566,1,0,2:0:0:0:
202,0,129660,1,2,2:0:0:0:
178,39,129754,1,8,2:0:0:0:
179,85,129847,1,0,2:0:0:0:
202,125,129941,1,2,2:0:0:0:
173,142,130035,1,0,2:0:0:0:
139,138,130129,5,2,3:2:0:0:
201,167,130222,1,0,2:0:0:0:
270,161,130316,1,0,2:0:0:0:
327,122,130410,1,2,2:0:0:0:
323,168,130504,1,8,2:0:0:0:
297,205,130597,1,0,2:0:0:0:
255,225,130691,1,2,2:0:0:0:
290,230,130785,1,0,2:0:0:0:
321,216,130879,6,0,P|325:230|326:253,1,35,2|0,3:2|2:0,2:0:0:0:
397,279,130972,2,0,P|400:239|390:191,1,70,2|0,2:0|2:0,2:0:0:0:
433,111,131160,6,0,P|437:125|438:148,1,35,2|0,2:0|2:0,2:0:0:0:
509,174,131254,2,0,P|512:134|502:86,1,70,10|0,2:0|2:0,2:0:0:0:
388,43,131441,5,2,2:0:0:0:
360,64,131535,1,0,2:0:0:0:
326,66,131629,6,0,P|302:62|280:67,1,35,2|0,3:2|2:0,2:0:0:0:
305,137,131722,2,0,P|267:144|236:165,1,70,2|0,2:0|2:0,2:0:0:0:
216,26,131910,6,0,P|191:21|169:26,1,35,2|0,2:0|2:0,2:0:0:0:
194,96,132004,2,0,P|156:103|125:124,1,70,10|0,2:0|2:0,2:0:0:0:
19,253,132191,6,0,P|36:248|54:248,1,35,2|0,2:0|2:0,2:0:0:0:
80,178,132285,2,0,P|95:186|107:198,1,35,0|0,2:0|2:0,2:0:0:0:
20,253,132379,5,2,3:2:0:0:
43,318,132472,1,0,2:0:0:0:
98,360,132566,1,0,2:0:0:0:
167,365,132660,1,2,2:0:0:0:
173,319,132754,1,8,2:0:0:0:
196,279,132847,1,0,2:0:0:0:
233,251,132941,1,2,2:0:0:0:
248,282,133035,1,0,2:0:0:0:
279,299,133129,6,0,P|312:288|351:288,1,70,2|0,3:2|2:0,2:0:0:0:
444,376,133316,2,0,P|478:364|516:364,1,70,0|0,2:0|2:0,2:0:0:0:
418,304,133504,6,0,B|435:273|435:273|400:229|420:159,1,140,8|0,2:0|2:0,2:0:0:0:
486,140,133785,2,0,P|491:155|491:180,1,35,0|0,2:0|2:0,2:0:0:0:
417,173,133879,5,0,3:0:0:0:
359,177,133972,1,0,2:0:0:0:
310,148,134066,1,0,2:0:0:0:
284,96,134160,1,0,2:0:0:0:
266,150,134254,1,8,2:0:0:0:
281,206,134347,1,0,2:0:0:0:
324,244,134441,6,0,P|333:286|327:324,1,70,2|0,2:0|2:0,2:0:0:0:
379,374,134629,5,2,3:2:0:0:
396,357,134722,1,0,2:0:0:0:
453,234,134816,5,2,2:0:0:0:
431,236,134910,1,0,2:0:0:0:
311,300,135004,5,10,2:0:0:0:
331,312,135097,1,0,2:0:0:0:
468,329,135191,5,2,2:0:0:0:
458,308,135285,1,0,2:0:0:0:
350,229,135379,5,2,3:2:0:0:
304,177,135472,1,0,2:0:0:0:
237,159,135566,1,0,2:0:0:0:
172,180,135660,1,2,2:0:0:0:
213,199,135754,1,8,2:0:0:0:
237,238,135847,1,0,2:0:0:0:
236,284,135941,1,2,2:0:0:0:
211,260,136035,1,0,2:0:0:0:
178,252,136129,5,2,3:2:0:0:
162,319,136222,1,0,2:0:0:0:
109,362,136316,1,0,2:0:0:0:
41,364,136410,1,2,2:0:0:0:
47,318,136504,1,8,2:0:0:0:
35,274,136597,1,0,2:0:0:0:
7,237,136691,1,2,2:0:0:0:
41,239,136785,1,0,2:0:0:0:
64,264,136879,6,0,P|85:266|115:281,1,35,2|0,3:2|2:0,2:0:0:0:
105,195,136972,2,0,P|146:212|176:248,1,70,2|0,2:0|2:0,2:0:0:0:
200,299,137160,6,0,P|221:301|251:316,1,35,2|0,2:0|2:0,2:0:0:0:
241,230,137254,2,0,P|282:247|312:283,1,70,10|0,2:0|2:0,2:0:0:0:
344,373,137441,5,2,2:0:0:0:
347,338,137535,1,0,2:0:0:0:
366,309,137629,6,0,P|377:308|402:296,1,35,2|0,3:2|2:0,2:0:0:0:
460,342,137722,2,0,P|474:303|465:262,1,70,2|0,2:0|2:0,2:0:0:0:
346,148,137910,6,0,P|335:149|310:161,1,35,2|0,2:0|2:0,2:0:0:0:
252,115,138004,2,0,P|238:154|247:195,1,70,10|0,2:0|2:0,2:0:0:0:
295,270,138191,6,0,P|308:233|319:219,1,35,2|0,2:0|2:0,2:0:0:0:
238,323,138285,2,0,P|221:287|218:269,1,35,0|0,2:0|2:0,2:0:0:0:
295,270,138379,5,6,3:2:0:0:
346,269,138472,1,0,2:0:0:0:
385,303,138566,1,0,2:0:0:0:
356,261,138660,1,0,2:0:0:0:
307,248,138754,1,8,2:0:0:0:
356,233,138847,1,0,2:0:0:0:
402,256,138941,1,0,2:0:0:0:
385,207,139035,1,0,2:0:0:0:
340,183,139129,1,0,3:0:0:0:
383,156,139222,1,0,2:0:0:0:
434,165,139316,1,0,2:0:0:0:
443,114,139410,1,0,2:0:0:0:
416,71,139504,1,8,2:0:0:0:
461,96,139597,1,0,2:0:0:0:
493,137,139691,1,0,2:0:0:0:
507,187,139785,1,0,2:0:0:0:
500,239,139879,5,0,3:0:0:0:
431,244,139972,1,0,2:0:0:0:
374,283,140066,1,0,2:0:0:0:
343,345,140160,1,0,2:0:0:0:
281,314,140254,1,8,2:0:0:0:
242,256,140347,1,0,2:0:0:0:
236,187,140441,6,0,P|245:153|245:118,1,70,2|0,2:0|2:0,2:0:0:0:
96,104,140629,5,2,3:2:0:0:
84,124,140722,1,0,2:0:0:0:
211,47,140816,5,2,2:0:0:0:
209,24,140910,1,0,2:0:0:0:
152,160,141004,5,10,2:0:0:0:
166,178,141097,1,0,2:0:0:0:
134,35,141191,5,2,2:0:0:0:
112,29,141285,1,0,2:0:0:0:
223,126,141379,5,2,3:2:0:0:
292,127,141472,1,0,2:0:0:0:
350,164,141566,1,0,2:0:0:0:
380,226,141660,1,2,2:0:0:0:
424,212,141754,1,8,2:0:0:0:
451,175,141847,1,0,2:0:0:0:
451,129,141941,1,2,2:0:0:0:
474,154,142035,1,0,2:0:0:0:
482,188,142129,5,2,3:2:0:0:
508,124,142222,1,0,2:0:0:0:
495,56,142316,1,0,2:0:0:0:
448,6,142410,1,2,2:0:0:0:
425,47,142504,1,8,2:0:0:0:
386,70,142597,1,0,2:0:0:0:
339,72,142691,1,2,2:0:0:0:
325,40,142785,1,0,2:0:0:0:
296,22,142879,5,2,3:2:0:0:
302,73,142972,1,0,2:0:0:0:
284,122,143066,1,0,2:0:0:0:
244,155,143160,1,0,2:0:0:0:
226,107,143254,1,8,2:0:0:0:
184,77,143347,1,0,2:0:0:0:
133,75,143441,1,0,2:0:0:0:
139,125,143535,1,0,2:0:0:0:
107,164,143629,5,2,3:2:0:0:
112,112,143722,1,0,2:0:0:0:
94,63,143816,1,0,2:0:0:0:
58,26,143910,1,0,2:0:0:0:
9,7,144004,2,0,P|23:56|23:86,1,70,10|0,2:0|2:0,2:0:0:0:
30,214,144191,6,0,P|46:220|63:219,1,35,0|0,2:0|2:0,2:0:0:0:
57,143,144285,2,0,P|73:136|84:123,1,35,0|0,2:0|2:0,2:0:0:0:
30,214,144379,5,6,3:2:0:0:
24,282,144472,1,0,2:0:0:0:
56,343,144566,1,0,2:0:0:0:
117,376,144660,1,0,2:0:0:0:
186,370,144754,1,8,2:0:0:0:
240,328,144847,1,0,2:0:0:0:
263,262,144941,5,6,2:0:0:0:
206,300,145035,1,0,2:0:0:0:
139,287,145129,1,0,3:0:0:0:
100,231,145222,1,0,2:0:0:0:
112,164,145316,1,0,2:0:0:0:
167,124,145410,1,0,2:0:0:0:
235,134,145504,6,0,P|273:149|318:143,1,70,10|0,2:0|2:0,2:0:0:0:
372,17,145691,2,0,P|409:31|454:25,1,70,2|0,2:0|2:0,2:0:0:0:
485,96,145879,5,6,3:2:0:0:
421,123,145972,1,0,2:0:0:0:
377,176,146066,1,0,2:0:0:0:
363,244,146160,1,0,2:0:0:0:
382,311,146254,1,8,2:0:0:0:
429,361,146347,1,0,2:0:0:0:
495,384,146441,5,6,2:0:0:0:
443,338,146535,1,0,2:0:0:0:
421,272,146629,1,0,3:0:0:0:
436,204,146722,1,0,2:0:0:0:
482,153,146816,5,2,2:0:0:0:
415,169,146910,1,0,2:0:0:0:
364,216,147004,1,8,2:0:0:0:
344,282,147097,1,2,2:0:0:0:
328,215,147191,1,0,2:0:0:0:
348,149,147285,1,0,2:0:0:0:
399,102,147379,5,6,3:2:0:0:
347,101,147472,1,0,2:0:0:0:
298,118,147566,1,0,2:0:0:0:
257,151,147660,1,0,2:0:0:0:
230,196,147754,1,8,2:0:0:0:
195,194,147847,1,0,2:0:0:0:
166,175,147941,1,0,2:0:0:0:
151,144,148035,1,0,2:0:0:0:
154,110,148129,5,6,3:2:0:0:
112,141,148222,1,0,2:0:0:0:
89,187,148316,1,0,2:0:0:0:
91,239,148410,1,0,2:0:0:0:
116,285,148504,1,8,2:0:0:0:
82,287,148597,1,0,2:0:0:0:
49,274,148691,1,0,2:0:0:0:
26,248,148785,1,0,2:0:0:0:
17,215,148879,5,6,3:2:0:0:
76,252,148972,1,0,2:0:0:0:
144,261,149066,1,0,2:0:0:0:
211,241,149160,1,0,2:0:0:0:
262,194,149254,1,8,2:0:0:0:
290,131,149347,1,0,2:0:0:0:
288,61,149441,5,6,2:0:0:0:
252,121,149535,1,0,2:0:0:0:
194,158,149629,1,0,3:0:0:0:
125,164,149722,1,0,2:0:0:0:
60,137,149816,1,0,2:0:0:0:
15,85,149910,1,0,2:0:0:0:
0,17,150004,5,14,2:0:0:0:
31,79,150097,1,0,2:0:0:0:
91,111,150191,1,0,2:0:0:0:
160,103,150285,1,0,2:0:0:0:
211,57,150379,5,2,3:2:0:0:
235,96,150472,1,0,2:0:0:0:
239,142,150566,1,0,2:0:0:0:
221,184,150660,1,2,2:0:0:0:
258,156,150754,1,8,2:0:0:0:
277,114,150847,1,0,2:0:0:0:
276,68,150941,1,2,2:0:0:0:
311,95,151035,1,0,2:0:0:0:
326,138,151129,5,2,3:2:0:0:
367,118,151222,1,0,2:0:0:0:
394,80,151316,1,0,2:0:0:0:
397,35,151410,1,2,2:0:0:0:
420,75,151504,1,8,2:0:0:0:
416,121,151597,1,0,2:0:0:0:
387,157,151691,1,2,2:0:0:0:
421,186,151785,1,0,2:0:0:0:
466,183,151879,5,2,3:2:0:0:
426,207,151972,1,0,2:0:0:0:
380,211,152066,1,0,2:0:0:0:
338,193,152160,1,2,2:0:0:0:
367,230,152254,1,8,2:0:0:0:
409,249,152347,1,0,2:0:0:0:
455,248,152441,1,2,2:0:0:0:
427,283,152535,1,0,2:0:0:0:
385,298,152629,5,2,3:2:0:0:
404,256,152722,1,0,2:0:0:0:
405,209,152816,1,0,2:0:0:0:
387,166,152910,1,2,2:0:0:0:
384,212,153004,1,8,2:0:0:0:
357,250,153097,1,0,2:0:0:0:
315,267,153191,1,2,2:0:0:0:
309,222,153285,1,0,2:0:0:0:
282,187,153379,5,2,3:2:0:0:
290,233,153472,1,0,2:0:0:0:
279,279,153566,1,0,2:0:0:0:
250,315,153660,1,2,2:0:0:0:
259,270,153754,1,8,2:0:0:0:
243,226,153847,1,0,2:0:0:0:
207,199,153941,1,2,2:0:0:0:
189,241,154035,1,0,2:0:0:0:
154,268,154129,5,2,3:2:0:0:
134,227,154222,1,0,2:0:0:0:
96,200,154316,1,0,2:0:0:0:
51,197,154410,1,2,2:0:0:0:
91,174,154504,1,8,2:0:0:0:
137,178,154597,1,0,2:0:0:0:
173,207,154691,1,2,2:0:0:0:
202,173,154785,1,0,2:0:0:0:
199,128,154879,5,2,3:2:0:0:
247,154,154972,1,0,2:0:0:0:
274,203,155066,1,0,2:0:0:0:
271,258,155160,1,2,2:0:0:0:
324,244,155254,1,8,2:0:0:0:
363,205,155347,1,0,2:0:0:0:
377,151,155441,1,2,2:0:0:0:
410,195,155535,1,0,2:0:0:0:
411,251,155629,6,0,L|319:264,1,70,2|0,3:2|2:0,2:0:0:0:
147,278,155816,1,8,2:0:0:0:
289,317,156004,6,0,L|198:293,1,70,8|0,2:0|3:0,2:0:0:0:
73,254,156191,2,0,L|-18:230,1,70,10|8,3:2|3:2,2:0:0:0:
132,199,156379,6,0,B|144:179|144:179|123:137|149:91,1,105,6|0,3:1|2:0,2:0:0:0:
118,29,156754,5,0,3:0:0:0:
149,14,156847,1,0,2:0:0:0:
184,11,156941,1,0,2:0:0:0:
218,19,157035,1,0,2:0:0:0:
247,38,157129,1,0,3:0:0:0:
269,65,157222,1,0,2:0:0:0:
280,98,157316,1,0,2:0:0:0:
280,133,157410,1,0,2:0:0:0:
269,166,157504,2,0,P|249:170|226:187,1,35,0|0,3:0|2:0,2:0:0:0:
207,247,157691,5,2,2:0:0:0:
158,185,157785,5,2,2:0:0:0:
207,247,157879,5,2,3:2:0:0:
176,262,157972,1,0,2:0:0:0:
141,263,158066,1,0,2:0:0:0:
110,247,158160,1,0,2:0:0:0:
89,220,158254,2,0,P|68:212|33:209,1,35,2|0,3:2|2:0,2:0:0:0:
25,138,158441,5,2,2:1:0:0:
27,59,158535,6,0,L|56:55,1,17.5,2|0,2:1|2:0,2:0:0:0:
25,138,158629,6,0,P|77:129|120:144,1,70,2|0,3:1|2:0,2:0:0:0:
148,79,158910,2,0,P|200:70|243:85,1,70,2|0,2:1|2:0,2:0:0:0:
277,147,159191,2,0,L|285:109,1,35,2|0,2:1|2:0,2:0:0:0:
309,10,159379,6,0,B|327:70|345:39|365:110,1,105,2|0,3:1|2:0,2:0:0:0:
441,120,159754,5,0,3:0:0:0:
419,147,159847,1,0,2:0:0:0:
405,179,159941,1,0,2:0:0:0:
399,214,160035,1,0,2:0:0:0:
401,248,160129,1,0,3:0:0:0:
411,282,160222,1,0,2:0:0:0:
429,312,160316,1,0,2:0:0:0:
454,337,160410,1,0,2:0:0:0:
483,355,160504,2,0,P|489:339|498:323,1,35,0|0,3:0|2:0,2:0:0:0:
477,249,160691,5,2,2:0:0:0:
401,270,160785,5,2,2:0:0:0:
477,249,160879,5,2,3:1:0:0:
460,218,160972,1,0,2:0:0:0:
432,198,161066,1,0,2:0:0:0:
398,191,161160,1,0,2:0:0:0:
364,200,161254,1,0,3:0:0:0:
338,222,161347,1,0,2:0:0:0:
323,254,161441,1,0,2:0:0:0:
324,289,161535,1,0,2:0:0:0:
339,320,161629,5,0,3:0:0:0:
312,342,161722,1,0,2:0:0:0:
279,353,161816,1,0,2:0:0:0:
245,351,161910,1,0,2:0:0:0:
213,337,162004,2,0,P|215:305|224:274,1,35,0|0,3:0|2:0,2:0:0:0:
169,238,162191,5,2,2:0:0:0:
221,179,162285,5,2,2:0:0:0:
169,238,162379,6,0,B|101:241|131:266|60:277,1,105,2|0,3:1|2:0,2:0:0:0:
18,227,162754,5,0,3:0:0:0:
2,258,162847,1,0,2:0:0:0:
0,293,162941,1,0,2:0:0:0:
11,326,163035,1,0,2:0:0:0:
33,352,163129,1,0,3:0:0:0:
63,369,163222,1,0,2:0:0:0:
98,373,163316,1,0,2:0:0:0:
132,364,163410,1,0,2:0:0:0:
159,343,163504,5,2,3:2:0:0:
133,297,163597,1,0,2:0:0:0:
135,245,163691,1,0,2:0:0:0:
164,202,163785,1,0,2:0:0:0:
210,180,163879,1,2,3:2:0:0:
227,229,163972,1,0,2:0:0:0:
266,263,164066,1,0,2:0:0:0:
317,273,164160,1,0,2:0:0:0:
366,255,164254,2,0,P|368:230|382:201,1,35,0|0,3:0|2:0,2:0:0:0:
486,189,164441,5,2,2:1:0:0:
441,252,164535,6,0,L|452:282,1,17.5,2|0,2:1|2:0,2:0:0:0:
486,189,164629,6,0,P|492:139|474:101,1,70,2|0,3:1|2:0,2:0:0:0:
402,125,164910,2,0,P|408:75|390:37,1,70,2|0,2:1|2:0,2:0:0:0:
497,7,165191,2,0,L|454:15,1,35,2|0,2:1|2:0,2:0:0:0:
331,93,165379,6,0,B|307:84|307:84|267:111|211:96,1,105,2|0,3:1|2:0,2:0:0:0:
179,44,165754,5,0,3:0:0:0:
145,33,165847,1,0,2:0:0:0:
110,33,165941,1,0,2:0:0:0:
77,44,166035,1,0,2:0:0:0:
50,65,166129,1,0,3:0:0:0:
30,93,166222,1,0,2:0:0:0:
20,127,166316,1,0,2:0:0:0:
20,162,166410,1,0,2:0:0:0:
32,194,166504,5,2,3:2:0:0:
66,187,166597,1,0,2:0:0:0:
100,194,166691,1,0,2:0:0:0:
129,213,166785,1,0,2:0:0:0:
148,242,166879,6,0,P|208:232|237:179,1,105,2|0,3:1|2:0,2:0:0:0:
224,120,167254,5,0,3:0:0:0:
256,106,167347,1,0,2:0:0:0:
290,100,167441,1,0,2:0:0:0:
325,102,167535,1,0,2:0:0:0:
359,111,167629,1,0,3:0:0:0:
390,128,167722,1,0,2:0:0:0:
416,150,167816,1,0,2:0:0:0:
437,178,167910,1,0,2:0:0:0:
452,210,168004,2,0,P|446:230|446:251,1,35,0|0,3:0|2:0,2:0:0:0:
338,324,168191,2,0,P|332:344|332:365,1,35,2|2,3:2|3:2,2:0:0:0:
512,384,168379,6,2,B|439:279|215:235|96:275|7:358|0:419|119:423|219:359|327:264|397:146|574:222|477:333|295:236,1,980,2|0,3:1|3:0,2:1:0:0:
184,292,170441,5,2,2:1:0:0:
244,254,170535,6,0,P|238:241|236:228,1,24.5,2|0,2:1|2:0,2:0:0:0:
184,292,170629,6,0,P|167:254|168:194,1,98,2|0,3:1|2:0,2:0:0:0:
50,194,170910,2,0,P|33:156|34:96,1,98,2|0,2:1|2:0,2:0:0:0:
105,75,171191,2,0,P|109:108|100:132,1,49,2|0,2:1|2:0,2:0:0:0:
0,251,171379,6,0,B|39:285|52:254|89:289,1,98,2|0,3:1|2:0,2:0:0:0:
146,337,171660,2,0,B|180:298|149:285|184:248,1,98,2|0,2:1|2:0,2:0:0:0:
112,145,171941,6,0,B|171:198|192:144|243:200,1,147,2|0,2:1|2:0,2:0:0:0:
315,226,172316,2,0,B|331:148|274:156|297:84,1,147,2|0,2:1|2:0,2:0:0:0:
224,69,172691,2,0,P|235:40|263:18,1,49,0|0,2:0|2:0,2:0:0:0:
494,55,172879,6,0,P|433:61|362:131,1,147,2|0,3:2|2:0,2:0:0:0:
428,162,173254,2,0,P|420:189|429:227,1,49,0|0,3:0|2:0,2:0:0:0:
491,328,173441,5,2,2:0:0:0:
420,286,173535,5,2,2:0:0:0:
491,328,173629,6,0,P|517:278|488:187,1,147,2|0,3:2|2:0,2:0:0:0:
354,196,174004,2,0,P|328:246|357:337,1,147,2|0,3:2|2:0,2:0:0:0:
294,379,174379,6,0,B|267:364|267:364|231:386|177:380,1,98,2|0,3:1|2:0,2:0:0:0:
176,309,174660,2,0,B|167:279|167:279|126:269|92:226,1,98,2|0,2:1|2:0,2:0:0:0:
146,179,174941,2,0,P|139:148|151:115,1,49,2|0,2:1|2:0,2:0:0:0:
71,92,175129,6,2,B|42:148|83:262|142:158|255:252|257:333|149:412|8:264|0:131|45:39|125:23,1,588,2|0,3:1|3:0,2:1:0:0:
244,94,176441,5,2,2:1:0:0:
167,75,176535,6,0,P|165:98|170:113,1,24.5,2|0,2:1|2:0,2:0:0:0:
244,94,176629,6,0,P|259:132|309:163,1,98,2|0,3:1|2:0,2:0:0:0:
372,112,176910,2,0,P|387:150|437:181,1,98,2|0,2:1|2:0,2:0:0:0:
501,142,177191,2,0,L|507:73,1,49,2|0,2:1|2:0,2:0:0:0:
461,30,177379,6,2,B|449:9|379:-6|261:15|310:218|414:71|361:78|443:-31|614:333|376:529|54:299|144:218|235:-91|371:9|545:42|613:184|382:98|291:149|384:284|446:288|481:268,1,784,2|0,3:1|3:0,2:1:0:0:
472,273,179629,5,0,2:0:0:0:
436,279,179722,1,0,2:0:0:0:
404,298,179816,1,0,2:0:0:0:
380,325,179910,1,0,2:0:0:0:
367,359,180004,5,0,3:0:0:0:
300,331,180097,1,0,3:0:0:0:
253,275,180191,1,0,3:0:0:0:
236,204,180285,1,0,3:0:0:0:
253,132,180379,5,6,3:2:0:0:
308,132,180472,1,0,2:0:0:0:
357,107,180566,1,0,2:0:0:0:
390,62,180660,1,0,2:0:0:0:
398,7,180754,1,8,2:0:0:0:
410,32,180847,1,0,2:0:0:0:
413,60,180941,1,0,2:0:0:0:
407,87,181035,1,0,2:0:0:0:
392,111,181129,5,2,3:2:0:0:
373,58,181222,1,0,2:0:0:0:
331,22,181316,1,0,2:0:0:0:
277,10,181410,1,0,2:0:0:0:
224,26,181504,1,8,2:0:0:0:
239,50,181597,1,0,2:0:0:0:
242,77,181691,1,0,2:0:0:0:
235,104,181785,1,0,2:0:0:0:
217,125,181879,5,2,3:2:0:0:
197,72,181972,1,0,2:0:0:0:
158,33,182066,1,0,2:0:0:0:
105,15,182160,1,0,2:0:0:0:
50,21,182254,2,0,P|71:52|77:92,1,56,8|0,2:0|2:0,2:0:0:0:
122,139,182441,5,2,2:0:0:0:
51,168,182535,6,0,P|45:154|45:141,1,28,2|0,2:0|2:0,2:0:0:0:
122,139,182629,6,0,P|124:200|71:241,1,112,2|0,3:2|2:0,2:0:0:0:
60,301,182910,6,0,P|45:296|34:282,1,28,2|0,2:0|2:0,2:0:0:0:
103,362,183004,6,0,P|78:374|50:376,1,56,8|0,2:0|2:0,2:0:0:0:
247,218,183191,2,0,P|222:230|194:232,1,56,2|0,2:0|2:0,2:0:0:0:
159,302,183379,5,2,3:2:0:0:
189,348,183472,1,0,2:0:0:0:
239,371,183566,1,0,2:0:0:0:
294,364,183660,1,0,2:0:0:0:
336,329,183754,1,8,2:0:0:0:
311,340,183847,1,0,2:0:0:0:
283,338,183941,1,0,2:0:0:0:
259,324,184035,1,0,2:0:0:0:
244,301,184129,5,2,3:2:0:0:
299,299,184222,1,0,2:0:0:0:
347,270,184316,1,0,2:0:0:0:
375,222,184410,1,0,2:0:0:0:
376,167,184504,1,8,2:0:0:0:
394,188,184597,1,0,2:0:0:0:
404,214,184691,1,0,2:0:0:0:
405,242,184785,1,0,2:0:0:0:
397,269,184879,5,2,3:2:0:0:
447,245,184972,1,0,2:0:0:0:
480,200,185066,1,0,2:0:0:0:
490,146,185160,1,0,2:0:0:0:
474,93,185254,1,8,2:0:0:0:
447,100,185347,1,0,2:0:0:0:
420,95,185441,1,0,2:0:0:0:
397,79,185535,1,0,2:0:0:0:
383,55,185629,5,2,3:2:0:0:
332,78,185722,1,0,2:0:0:0:
299,122,185816,1,0,2:0:0:0:
289,177,185910,1,0,2:0:0:0:
305,230,186004,2,0,P|304:268|289:299,1,56,8|0,2:0|2:0,2:0:0:0:
190,310,186191,6,0,P|178:302|170:291,1,28,0|0,2:0|2:0,2:0:0:0:
212,229,186285,2,0,P|223:236|231:247,1,28,0|0,2:0|2:0,2:0:0:0:
190,310,186379,5,6,3:2:0:0:
141,336,186472,1,0,2:0:0:0:
86,331,186566,1,0,2:0:0:0:
43,296,186660,1,0,2:0:0:0:
26,244,186754,1,8,2:0:0:0:
10,267,186847,1,0,2:0:0:0:
2,293,186941,1,0,2:0:0:0:
3,321,187035,1,0,2:0:0:0:
14,347,187129,5,2,3:2:0:0:
40,298,187222,1,0,2:0:0:0:
83,263,187316,1,0,2:0:0:0:
137,247,187410,1,0,2:0:0:0:
192,253,187504,1,8,2:0:0:0:
187,281,187597,1,0,2:0:0:0:
191,308,187691,1,0,2:0:0:0:
206,332,187785,1,0,2:0:0:0:
228,349,187879,5,2,3:2:0:0:
278,324,187972,1,0,2:0:0:0:
333,322,188066,1,0,2:0:0:0:
385,341,188160,1,0,2:0:0:0:
426,378,188254,2,0,P|462:360|474:330,1,56,8|0,2:0|2:0,2:0:0:0:
439,255,188441,5,2,2:0:0:0:
508,282,188535,6,0,P|513:262|508:236,1,28,2|0,2:0|2:0,2:0:0:0:
439,255,188629,6,0,B|420:191|463:209|447:140,1,112,2|0,3:2|2:0,2:0:0:0:
462,70,188910,6,0,L|489:78,1,28,2|0,2:0|2:0,2:0:0:0:
392,96,189004,6,0,P|385:61|399:29,1,56,8|0,2:0|2:0,2:0:0:0:
194,62,189191,2,0,P|187:27|201:-5,1,56,2|0,2:0|2:0,2:0:0:0:
269,2,189379,5,2,3:2:0:0:
308,40,189472,1,0,2:0:0:0:
315,94,189566,1,0,2:0:0:0:
286,141,189660,1,0,2:0:0:0:
234,159,189754,1,8,2:0:0:0:
251,181,189847,1,0,2:0:0:0:
274,196,189941,1,0,2:0:0:0:
301,203,190035,1,0,2:0:0:0:
329,201,190129,5,2,3:2:0:0:
298,247,190222,1,0,2:0:0:0:
249,273,190316,1,0,2:0:0:0:
194,275,190410,1,0,2:0:0:0:
144,250,190504,1,8,2:0:0:0:
159,227,190597,1,0,2:0:0:0:
164,199,190691,1,0,2:0:0:0:
158,172,190785,1,0,2:0:0:0:
143,149,190879,5,2,3:2:0:0:
88,152,190972,1,0,2:0:0:0:
38,128,191066,1,0,2:0:0:0:
7,82,191160,1,0,2:0:0:0:
2,27,191254,1,8,2:0:0:0:
48,59,191347,1,0,2:0:0:0:
102,69,191441,1,0,2:0:0:0:
156,56,191535,1,0,2:0:0:0:
200,22,191629,1,2,3:2:0:0:
221,74,191722,1,0,2:0:0:0:
223,129,191816,1,0,2:0:0:0:
206,182,191910,1,0,2:0:0:0:
173,227,192004,6,0,P|142:227|104:235,1,56,8|0,3:2|3:0,2:0:0:0:
280,253,192191,6,0,P|285:267|288:280,1,28,0|0,3:0|2:0,2:0:0:0:
329,192,192285,2,0,P|324:178|321:165,1,28,0|0,3:0|2:0,2:0:0:0:
280,253,192379,5,6,3:2:0:0:
333,270,192472,1,0,2:0:0:0:
387,257,192566,1,0,2:0:0:0:
427,219,192660,1,0,2:0:0:0:
442,166,192754,1,8,2:0:0:0:
452,192,192847,1,0,2:0:0:0:
454,219,192941,1,0,2:0:0:0:
446,246,193035,1,0,2:0:0:0:
429,269,193129,5,2,3:2:0:0:
406,218,193222,1,0,2:0:0:0:
366,179,193316,1,0,2:0:0:0:
314,159,193410,1,0,2:0:0:0:
258,160,193504,1,8,2:0:0:0:
279,141,193597,1,0,2:0:0:0:
305,131,193691,1,0,2:0:0:0:
333,133,193785,1,0,2:0:0:0:
358,145,193879,5,2,3:2:0:0:
359,89,193972,1,0,2:0:0:0:
328,44,194066,1,0,2:0:0:0:
276,26,194160,1,0,2:0:0:0:
223,41,194254,2,0,P|192:51|162:50,1,56,8|0,2:0|2:0,2:0:0:0:
158,138,194441,5,2,2:0:0:0:
101,81,194535,6,0,P|91:70|86:57,1,28,2|0,2:0|2:0,2:0:0:0:
158,138,194629,6,0,B|137:201|182:179|159:259,1,112,2|0,3:2|2:0,2:0:0:0:
89,248,194910,6,0,P|92:270|102:288,1,28,2|0,2:0|2:0,2:0:0:0:
28,312,195004,6,0,P|17:286|13:258,1,56,8|0,2:0|2:0,2:0:0:0:
171,374,195191,2,0,P|160:348|156:320,1,56,2|0,2:0|2:0,2:0:0:0:
233,299,195379,6,0,P|273:296|316:221,1,112,2|0,3:2|2:0,2:0:0:0:
386,210,195660,6,0,L|394:242,1,28,2|0,2:0|2:0,2:0:0:0:
438,296,195754,6,0,P|464:264|466:237,1,56,8|0,2:0|2:0,2:0:0:0:
353,131,195941,2,0,P|379:99|381:72,1,56,2|0,2:0|2:0,2:0:0:0:
418,21,196129,6,0,B|358:-10|363:37|296:3,1,112,2|0,3:2|2:0,2:0:0:0:
245,52,196410,6,0,L|252:84,1,28,2|0,2:0|2:0,2:0:0:0:
176,14,196504,6,0,P|167:55|173:81,1,56,8|0,2:0|2:0,2:0:0:0:
270,147,196691,2,0,P|231:174|211:239,1,112,2|0,2:0|3:0,2:0:0:0:
494,378,197066,6,0,P|483:356|478:323,1,56,2|0,2:0|2:0,2:0:0:0:
506,257,197254,1,8,2:0:0:0:
482,242,197347,1,0,2:0:0:0:
455,236,197441,1,0,2:0:0:0:
427,241,197535,1,0,2:0:0:0:
403,254,197629,5,2,3:2:0:0:
400,309,197722,1,0,2:0:0:0:
367,352,197816,1,0,2:0:0:0:
314,368,197910,1,0,2:0:0:0:
262,351,198004,2,0,P|256:318|256:292,1,56,8|0,2:0|2:0,2:0:0:0:
298,210,198191,6,0,P|300:223|297:247,1,28,0|0,2:0|2:0,2:0:0:0:
230,176,198285,2,0,P|228:163|231:139,1,28,0|0,2:0|2:0,2:0:0:0:
302,214,198379,6,0,P|313:177|288:98,1,112,2|0,3:2|2:0,2:0:0:0:
252,13,198660,6,0,L|247:40,1,28,2|0,2:0|2:0,2:0:0:0:
187,89,198754,6,0,P|161:74|128:68,1,56,8|0,2:0|2:0,2:0:0:0:
378,54,198941,2,0,P|352:39|319:33,1,56,2|0,2:0|2:0,2:0:0:0:
385,132,199129,5,2,3:2:0:0:
438,118,199222,1,0,2:0:0:0:
487,141,199316,1,0,2:0:0:0:
510,191,199410,1,0,2:0:0:0:
496,244,199504,2,0,P|504:287|499:316,1,56,8|0,2:0|2:0,2:0:0:0:
303,328,199691,2,0,P|310:370|305:399,1,56,0|0,2:0|2:0,2:0:0:0:
360,271,199879,5,0,3:0:0:0:
313,240,199972,1,0,2:0:0:0:
259,228,200066,1,0,2:0:0:0:
204,237,200160,1,0,2:0:0:0:
156,266,200254,2,0,P|148:223|151:200,1,56,8|0,2:0|2:0,2:0:0:0:
100,364,200441,2,0,P|91:320|94:297,1,56,2|0,2:0|2:0,2:0:0:0:
26,269,200629,6,0,P|30:224|15:151,1,112,2|0,3:2|2:0,2:0:0:0:
63,94,200910,6,0,L|103:86,1,28,2|0,2:0|2:0,2:0:0:0:
0,3,201004,6,0,P|25:14|52:18,1,56,8|0,2:0|2:0,2:0:0:0:
98,164,201191,2,0,P|123:175|150:179,1,56,2|0,2:0|2:0,2:0:0:0:
201,117,201379,5,6,3:2:0:0:
255,127,201472,1,0,2:0:0:0:
306,106,201566,1,0,2:0:0:0:
336,60,201660,1,0,2:0:0:0:
337,5,201754,1,8,2:0:0:0:
388,26,201847,1,0,2:0:0:0:
423,68,201941,1,0,2:0:0:0:
434,123,202035,1,0,2:0:0:0:
417,176,202129,5,0,3:0:0:0:
362,182,202222,1,0,2:0:0:0:
317,215,202316,1,0,2:0:0:0:
294,265,202410,1,0,2:0:0:0:
297,320,202504,1,8,2:0:0:0:
249,293,202597,1,0,2:0:0:0:
220,245,202691,1,0,2:0:0:0:
219,190,202785,1,0,2:0:0:0:
245,141,202879,5,6,3:2:0:0:
267,199,202972,1,0,2:0:0:0:
313,241,203066,1,0,2:0:0:0:
373,258,203160,1,0,2:0:0:0:
434,247,203254,1,8,2:0:0:0:
406,191,203347,1,0,2:0:0:0:
397,129,203441,1,0,2:0:0:0:
410,68,203535,1,0,2:0:0:0:
442,14,203629,5,0,3:0:0:0:
380,7,203722,1,0,2:0:0:0:
320,25,203816,1,0,2:0:0:0:
271,64,203910,1,0,2:0:0:0:
241,119,204004,1,8,2:0:0:0:
285,164,204097,1,0,2:0:0:0:
309,222,204191,1,0,2:0:0:0:
308,284,204285,1,0,2:0:0:0:
284,342,204379,5,6,3:2:0:0:
218,320,204472,1,0,2:0:0:0:
148,318,204566,1,0,2:0:0:0:
81,336,204660,1,0,2:0:0:0:
21,372,204754,1,8,2:0:0:0:
64,317,204847,1,0,2:0:0:0:
121,277,204941,1,0,2:0:0:0:
187,255,205035,1,0,2:0:0:0:
257,254,205129,5,0,3:0:0:0:
288,316,205222,1,0,2:0:0:0:
342,360,205316,1,0,2:0:0:0:
409,376,205410,1,0,2:0:0:0:
477,361,205504,1,8,2:0:0:0:
447,299,205597,1,0,2:0:0:0:
442,229,205691,1,0,2:0:0:0:
463,163,205785,1,0,2:0:0:0:
507,109,205879,5,6,3:2:0:0:
432,126,205972,1,0,2:0:0:0:
368,168,206066,1,0,2:0:0:0:
324,230,206160,1,0,2:0:0:0:
304,304,206254,1,8,2:0:0:0:
254,245,206347,1,0,2:0:0:0:
227,173,206441,1,0,2:0:0:0:
225,97,206535,1,0,2:0:0:0:
249,24,206629,6,0,L|331:14,1,70,0|0,3:0|2:0,2:0:0:0:
412,0,206816,1,8,2:0:0:0:
366,135,207004,6,0,L|384:37,1,70,8|0,2:0|3:0,2:0:0:0:
129,24,207191,2,0,L|111:122,1,70,8|8,3:2|3:2,2:0:0:0:
64,355,207379,5,6,3:2:0:0:
227,52,209441,6,0,P|238:86|258:168,1,105,2|0,0:0|0:0,0:0:0:0:
255,153,210035,6,0,P|318:158|348:111,2,105,2|2|2,0:0|0:0|0:0,0:0:0:0:
23,31,211350,1,0,0:0:0:0:
1,105,211613,1,0,0:0:0:0:
74,131,211877,1,0,0:0:0:0:
218,66,212140,6,0,B|151:52|177:72|92:60,2,105,2|2|2,0:0|0:0|0:0,0:0:0:0:
272,13,213221,1,2,0:0:0:0:
321,104,213491,1,2,0:0:0:0:
228,182,213761,1,2,0:0:0:0:
317,284,214031,1,2,0:0:0:0:
198,371,214302,6,0,P|185:318|203:243,2,105,2|2|2,0:0|0:0|0:0,0:0:0:0:
396,187,215413,2,0,P|409:240|391:315,2,105,2|2|2,0:0|0:0|0:0,0:0:0:0:
498,368,216524,6,0,P|448:346|268:330,1,210,2|0,0:0|0:0,0:0:0:0:
167,363,217605,2,0,P|203:368|242:377,1,70,2|0,0:0|0:0,0:0:0:0:
55,311,218145,2,0,P|91:306|130:297,1,70,2|0,0:0|0:0,0:0:0:0:
7,374,218686,6,0,B|22:238|60:313|73:152,1,210,2|2,0:0|0:0,0:0:0:0:
486,207,220337,1,2,0:0:0:0:
486,207,220612,1,2,0:0:0:0:
461,281,220887,6,0,B|446:145|408:220|395:59,1,210,2|2,0:0|0:0,0:0:0:0:
233,0,222263,2,0,P|247:50|265:118,1,105,2|2,0:0|0:0,0:0:0:0:
236,282,223089,6,0,P|250:332|268:400,2,105,2|2|2,0:0|0:0|0:0,0:0:0:0:
286,148,224160,1,2,0:0:0:0:
212,162,224428,1,2,0:0:0:0:
226,236,224696,1,2,0:0:0:0:
300,222,224964,1,2,0:0:0:0:
168,120,225231,6,0,P|108:132|24:146,1,140,2|0,0:0|0:0,0:0:0:0:
344,264,226056,2,0,P|404:252|488:238,1,140,2|0,0:0|0:0,0:0:0:0:
263,147,226882,2,0,P|256:191|249:227,1,70,2|0,0:0|0:0,0:0:0:0:
182,94,227488,6,0,P|159:138|212:285,1,210,2|0,0:0|0:0,0:0:0:0:
412,178,228815,2,0,B|454:172|445:182|493:174,2,70,2|2|0,0:0|0:0|0:0,0:0:0:0:
365,245,229611,6,0,P|294:231|144:215,1,210,2|2,0:0|0:0,0:0:0:0:
462,121,230974,2,0,L|389:131,2,70,0|2|0,0:0|0:0|0:0,0:0:0:0:
508,51,231792,5,0,0:0:0:0:
441,11,232077,1,0,0:0:0:0:
423,89,232363,1,0,0:0:0:0:
335,62,232663,1,0,0:0:0:0:
337,155,232963,1,0,0:0:0:0:
222,163,233263,1,0,0:0:0:0:
263,279,233563,1,0,0:0:0:0:
111,190,233892,1,0,0:0:0:0:
0,316,234222,2,2,L|3:332,3,11.6666666666667,0|0|0|0,0:0|0:0|0:0|0:0,0:0:0:0:
256,192,234499,12,0,238388,0:0:0:0:
