osu file format v14

[General]
AudioFilename: audio.mp3
AudioLeadIn: 0
PreviewTime: 126261
Countdown: 0
SampleSet: Soft
StackLeniency: 0.6
Mode: 0
LetterboxInBreaks: 0
WidescreenStoryboard: 1

[Editor]
Bookmarks: 4348,39598,78379,102379,126379,150379,156379,168379,180379,207379,209441
DistanceSpacing: 1.3
BeatDivisor: 12
GridSize: 32
TimelineZoom: 2.2

[Metadata]
Title:Tsubasa -resurrection-
TitleUnicode:ツバサ ―resurrection―
Artist:Leon
ArtistUnicode:れおん
Creator:hehe
Version:Extra
Source:Kirby's Dream Land 3
Tags:salvation by faith records SBFR nintendo snes ripple field 1 remix instrumental electronic video game music ost bgm SSEB-0052 Summer Orange Ocean videogame vgm original soundtrack piano 星のカービィ3「海ステージ」
BeatmapID:4025113
BeatmapSetID:1934116

[Difficulty]
HPDrainRate:5
CircleSize:4
OverallDifficulty:8.5
ApproachRate:9.2
SliderMultiplier:1.4
SliderTickRate:1

[Events]
//Background and Video events
0,0,"bg.jpg",0,0
//Break Periods
//Storyboard Layer 0 (Background)
//Storyboard Layer 1 (Fail)
//Storyboard Layer 2 (Pass)
//Storyboard Layer 3 (Foreground)
//Storyboard Layer 4 (Overlay)
//Storyboard Sound Samples

[TimingPoints]
2166,545.454545454545,4,2,1,40,1,0
37075,582.52427184466,4,2,1,40,1,0
38240,677.966101694915,4,2,1,40,1,0
39598,545.454545454545,4,2,1,40,1,0
39598,-83.3333333333333,4,2,1,40,0,0
76688,458.015267175572,4,2,1,50,1,0
77146,441.176470588235,4,2,1,60,1,0
77587,395.387149917627,4,2,1,60,1,0
77982,-62.5,4,2,1,60,0,0
78379,375,4,2,1,70,1,0
78754,-71.4285714285714,4,2,1,70,0,0
102379,-62.5,4,2,1,80,0,0
126379,-50,4,2,1,90,0,1
150379,-50,4,2,1,80,0,0
156379,-71.4285714285714,4,2,1,50,0,0
168379,-71.4285714285714,4,2,1,60,0,0
180379,-62.5,4,2,1,80,0,0
209441,594.059405940594,4,2,1,40,1,0
210035,526.315789473685,4,2,1,40,1,0
212140,540.540540540542,4,2,1,40,1,0
214302,555.555555555558,4,2,1,40,1,0
216524,540.540540540542,4,2,1,40,1,0
218686,550.458715596332,4,2,1,40,1,0
223089,535.714285714287,4,2,1,40,1,0
225231,550.458715596332,4,2,1,40,1,0
226882,606.060606060608,4,2,1,40,1,0
227488,530.973451327435,4,2,1,40,1,0
229611,545.454545454547,4,2,1,40,1,0
231792,571.428571428573,4,2,1,40,1,0
232363,600.000000000002,4,2,1,40,1,0
233563,659.340659340662,4,2,1,40,1,0
234222,555.555555555556,4,2,1,40,1,0
235888,-100,4,2,2,30,0,0
236444,-100,4,2,1,25,0,0
236999,-100,4,2,2,20,0,0
237555,-100,4,2,1,15,0,0
238110,-100,4,2,2,10,0,0

[Colours]
Combo1 : 18,124,255
Combo2 : 24,185,255

[HitObjects]
232,232,3802,5,2,2:0:0:0:
232,232,4347,2,0,P|223:172|238:118,2,105,2|0|0,2:0|2:0|2:0,2:0:0:0:
401,238,5711,5,0,2:0:0:0:
377,310,5984,1,0,2:0:0:0:
305,293,6256,1,0,2:0:0:0:
181,336,6529,6,0,L|186:359,2,17.5,0|0|0,2:0|2:0|2:0,0:0:0:0:
114,289,6802,1,0,2:0:0:0:
105,208,6938,1,0,2:0:0:0:
162,149,7075,1,0,2:0:0:0:
243,154,7211,1,0,2:0:0:0:
292,219,7347,6,0,L|332:211,1,35,2|2,2:0|2:0,0:0:0:0:
461,248,7620,2,0,P|430:268|352:276,2,105,2|2|2,2:0|2:0|2:0,2:0:0:0:
485,86,8711,6,0,L|513:188,2,105,2|0|0,2:0|2:0|2:0,2:0:0:0:
469,14,9802,5,0,2:0:0:0:
427,34,9938,1,0,2:0:0:0:
393,1,10075,1,0,2:0:0:0:
292,113,10347,5,0,2:0:0:0:
219,93,10484,1,0,2:0:0:0:
201,166,10620,1,0,2:0:0:0:
214,315,10893,6,0,B|329:319|272:364|413:369,1,210,2|0,2:0|2:0,2:0:0:0:
440,299,11847,1,0,2:0:0:0:
511,323,11984,2,0,P|518:274|494:181,1,140,0|0,2:0|2:0,2:0:0:0:
309,154,13075,6,0,P|308:93|328:42,2,105,2|0|0,2:0|2:0|2:0,2:0:0:0:
180,259,14438,5,0,2:0:0:0:
66,233,14711,1,0,2:0:0:0:
97,119,14984,1,0,2:0:0:0:
236,195,15256,6,0,L|240:222,2,17.5,0|0|0,2:0|2:0|2:0,0:0:0:0:
250,123,15529,1,0,2:0:0:0:
290,62,15665,1,0,2:0:0:0:
351,21,15802,1,0,2:0:0:0:
422,6,15938,1,0,2:0:0:0:
494,20,16075,6,0,P|498:44|502:61,1,35,2|2,2:0|2:0,0:0:0:0:
395,183,16347,2,0,P|402:146|433:78,2,105,2|2|2,2:0|2:0|2:0,2:0:0:0:
235,250,17438,6,0,L|352:226,2,105,2|0|0,2:0|2:0|2:0,2:0:0:0:
104,332,18802,5,0,2:0:0:0:
150,331,18938,1,0,2:0:0:0:
179,365,19075,1,0,2:0:0:0:
41,384,19347,5,0,2:0:0:0:
6,316,19484,1,0,2:0:0:0:
60,261,19620,2,0,P|78:214|88:55,1,210,2|0,2:0|2:0,2:0:0:0:
167,184,20711,6,0,L|314:159,1,140,0|0,2:0|2:0,2:0:0:0:
236,378,21802,6,0,P|194:346|135:349,2,105,2|0|0,2:0|2:0|2:0,2:0:0:0:
346,240,23165,5,0,2:0:0:0:
266,323,23438,1,0,2:0:0:0:
156,281,23711,1,0,2:0:0:0:
267,172,23984,6,0,L|275:200,2,17.5,0|0|0,2:0|2:0|2:0,0:0:0:0:
202,218,24257,1,0,2:0:0:0:
202,218,24393,2,0,P|142:211|101:211,1,70
60,179,24802,6,0,P|58:154|55:140,1,35,2|2,2:0|2:0,0:0:0:0:
135,136,25075,2,0,P|135:102|117:25,2,105,2|2|2,2:0|2:0|2:0,2:0:0:0:
0,247,26165,6,0,L|12:361,2,105,2|2|2,2:0|2:0|2:0,2:0:0:0:
116,342,27529,5,2,2:0:0:0:
205,285,27802,1,0,2:0:0:0:
260,379,28075,1,0,2:0:0:0:
260,379,28347,6,0,P|326:346|403:334,1,140,2|0,2:0|2:0,2:0:0:0:
464,196,29165,1,0,2:0:0:0:
506,220,29302,1,0,2:0:0:0:
500,267,29438,1,0,2:0:0:0:
399,135,29711,5,0,2:0:0:0:
347,196,29847,1,0,2:0:0:0:
278,152,29984,2,0,L|238:159,1,35,0|0,2:0|2:0,0:0:0:0:
147,197,30256,2,0,L|187:204,1,35,0|0,2:0|2:0,0:0:0:0:
102,133,30529,6,0,P|42:148|-6:156,2,105,2|2|2,2:0|2:0|2:0,2:0:0:0:
168,35,31620,1,2,2:0:0:0:
306,140,31893,1,0,2:0:0:0:
210,230,32165,1,0,2:0:0:0:
273,299,32438,1,0,2:0:0:0:
221,358,32711,6,0,L|191:366,2,17.5,0|0|0,2:0|2:0|2:0,0:0:0:0:
301,373,32983,1,0,2:0:0:0:
367,326,33119,1,0,2:0:0:0:
379,245,33256,1,0,2:0:0:0:
328,181,33392,1,0,2:0:0:0:
247,173,33529,6,0,L|248:210,1,35,2|2,2:0|2:0,0:0:0:0:
299,107,33802,2,0,P|296:60|296:-1,2,105,2|2|2,2:0|2:0|2:0,2:0:0:0:
491,152,34893,6,0,P|509:108|475:59,2,105,2|0|0,2:0|2:0|2:0,2:0:0:0:
331,257,36256,1,0,2:0:0:0:
201,219,36529,1,0,2:0:0:0:
143,341,36802,1,0,2:0:0:0:
23,323,37075,5,0,2:0:0:0:
23,323,37511,1,0,2:0:0:0:
23,323,37948,1,0,2:0:0:0:
69,256,38240,5,0,2:0:0:0:
69,256,38324,1,0,2:0:0:0:
69,256,38409,2,0,P|115:258|241:303,1,175,0|0,2:0|0:0,0:0:0:0:
391,363,39598,6,2,L|393:342,3,13.9999995727539,0|0|0|0,2:0|2:0|2:0|2:0,2:0:0:0:
459,304,39870,1,0,2:0:0:0:
375,218,40143,1,0,2:0:0:0:
250,356,40416,1,0,2:0:0:0:
114,170,40688,2,0,P|162:180|205:196,1,83.9999974365235,0|0,2:0|2:0,0:0:0:0:
135,94,41234,2,0,P|183:104|226:120,1,83.9999974365235,0|0,2:0|2:0,0:0:0:0:
400,216,41779,2,2,P|399:208|395:192,3,13.9999995727539,0|0|0|0,2:0|2:0|2:0|2:0,2:0:0:0:
496,56,42598,5,2,2:0:0:0:
440,118,42734,1,2,2:0:0:0:
376,69,42870,2,0,P|325:76|243:105,2,125.999996154785,2|2|2,2:0|2:0|2:0,2:0:0:0:
194,43,43961,5,2,2:0:0:0:
115,6,44234,1,0,2:0:0:0:
62,123,44507,1,0,2:0:0:0:
226,110,44779,1,0,2:0:0:0:
39,44,45052,1,0,2:0:0:0:
202,240,45325,1,0,2:0:0:0:
287,53,45597,1,0,2:0:0:0:
75,249,45870,1,0,2:0:0:0:
385,370,46143,2,2,L|405:375,3,13.9999995727539,0|0|0|0,2:0|2:0|2:0|2:0,2:0:0:0:
364,140,46961,5,0,2:0:0:0:
364,140,47507,2,0,L|358:227,2,83.9999974365235,0|0|0,2:0|2:0|2:0,0:0:0:0:
490,150,48325,6,2,L|487:127,3,13.9999995727539,0|0|0|0,2:0|2:0|2:0|2:0,2:0:0:0:
506,64,48597,1,0,2:0:0:0:
404,115,48870,1,0,2:0:0:0:
271,58,49143,1,0,2:0:0:0:
138,209,49416,2,0,P|180:201|230:193,1,83.9999974365235,0|0,2:0|2:0,0:0:0:0:
122,133,49961,2,0,P|164:125|214:117,1,83.9999974365235,0|0,2:0|2:0,0:0:0:0:
4,61,50507,2,2,P|0:49|-5:39,3,13.9999995727539,0|0|0|0,2:0|2:0|2:0|2:0,2:0:0:0:
241,14,51325,5,2,2:0:0:0:
289,77,51461,1,2,2:0:0:0:
234,133,51597,2,0,P|232:170|232:265,2,125.999996154785,2|2|2,2:0|2:0|2:0,2:0:0:0:
295,366,52688,5,2,2:0:0:0:
316,290,52961,1,0,2:0:0:0:
171,259,53234,1,0,2:0:0:0:
373,343,53507,1,0,2:0:0:0:
119,331,53779,1,0,2:0:0:0:
334,189,54052,1,0,2:0:0:0:
184,114,54325,1,0,2:0:0:0:
306,41,54597,1,0,2:0:0:0:
232,3,54870,2,0,P|236:20|237:27,3,13.9999995727539,2|2|2|2,2:0|2:0|2:0|2:0,0:0:0:0:
73,210,55688,5,0,2:0:0:0:
73,210,56234,2,0,P|76:160|80:117,2,83.9999974365235,0|0|0,2:0|2:0|2:0,0:0:0:0:
19,378,57052,6,2,P|15:363|12:354,3,13.9999995727539,0|0|0|0,2:0|2:0|2:0|2:0,2:0:0:0:
66,309,57325,1,0,2:0:0:0:
151,350,57597,1,0,2:0:0:0:
248,249,57870,1,0,2:0:0:0:
412,367,58143,2,0,P|423:333|443:282,1,83.9999974365235,0|0,2:0|2:0,0:0:0:0:
337,337,58688,2,0,P|348:303|368:252,1,83.9999974365235,0|0,2:0|2:0,0:0:0:0:
217,67,59234,2,2,L|221:86,3,13.9999995727539,0|0|0|0,2:0|2:0|2:0|2:0,2:0:0:0:
205,256,60052,5,2,2:0:0:0:
280,281,60188,1,2,2:0:0:0:
324,213,60325,2,0,B|308:133|301:167|283:85,2,125.999996154785,2|2|2,2:0|2:0|2:0,2:0:0:0:
450,103,61416,6,0,P|489:94|496:16,2,125.999996154785,2|2|2,2:0|2:0|2:0,2:0:0:0:
138,172,62507,2,0,P|94:171|70:95,2,125.999996154785,2|2|2,2:0|2:0|2:0,2:0:0:0:
229,118,63597,5,0,2:0:0:0:
257,376,63870,2,0,P|250:299|240:204,1,167.999994873047,2|0,2:0|2:0,2:0:0:0:
218,2,64961,5,0,2:0:0:0:
147,137,65234,1,0,2:0:0:0:
0,90,65507,1,0,2:0:0:0:
235,214,65779,6,0,P|233:173|217:85,2,125.999996154785,2|2|2,2:0|2:0|2:0,2:0:0:0:
172,258,66870,1,2,2:0:0:0:
207,329,67143,1,0,2:0:0:0:
288,279,67416,1,0,2:0:0:0:
355,361,67688,1,0,2:0:0:0:
466,245,67961,2,2,L|489:239,3,13.9999995727539,0|0|0|0,2:0|2:0|2:0|2:0,2:0:0:0:
118,175,68779,5,2,2:0:0:0:
49,133,69052,2,0,B|61:58|75:103|89:12,2,125.999996154785,2|2|2,2:0|2:0|2:0,2:0:0:0:
8,240,70143,6,2,L|12:264,3,13.9999995727539,0|0|0|0,2:0|2:0|2:0|2:0,2:0:0:0:
62,185,70416,1,0,2:0:0:0:
156,232,70688,1,0,2:0:0:0:
48,333,70961,1,0,2:0:0:0:
146,152,71234,1,2,2:0:0:0:
325,254,71507,1,0,0:0:0:0:
484,57,72325,5,0,2:0:0:0:
419,103,72597,1,0,2:0:0:0:
325,33,72870,1,0,2:0:0:0:
231,169,73143,1,0,2:0:0:0:
71,0,73416,1,2,2:0:0:0:
0,214,73688,1,0,0:0:0:0:
246,54,76688,6,0,P|255:93|260:131,1,70,0|0,3:0|2:0,2:0:0:0:
351,184,77146,2,0,P|342:145|337:107,1,70,0|0,3:0|2:0,2:0:0:0:
205,181,77587,5,0,3:0:0:0:
205,181,77784,1,8,3:2:0:0:
131,144,77982,5,0,3:0:0:0:
80,137,78080,1,0,3:0:0:0:
36,161,78179,1,0,3:0:0:0:
14,207,78278,1,0,3:0:0:0:
22,256,78379,6,0,P|83:260|149:268,1,105,6|0,3:2|2:0,0:0:0:0:
126,264,78754,2,0,L|135:318,3,48.9999985046387,8|0|0|0,2:0|2:0|2:0|2:0,2:0:0:0:
200,359,79129,5,0,3:0:0:0:
244,377,79222,1,0,2:0:0:0:
292,367,79316,1,0,2:0:0:0:
325,332,79410,1,0,2:0:0:0:
334,285,79504,2,0,L|341:221,3,48.9999985046387,8|0|0|0,2:0|2:0|2:0|2:0,2:0:0:0:
355,156,79879,5,0,3:0:0:0:
400,137,79972,1,0,2:0:0:0:
448,147,80066,1,0,2:0:0:0:
481,182,80160,1,0,2:0:0:0:
490,229,80254,2,0,L|496:293,1,48.9999985046387,8|0,2:0|2:0,2:0:0:0:
504,377,80441,5,2,2:0:0:0:
504,377,80535,1,2,2:0:0:0:
504,377,80629,2,0,P|439:375|378:400,1,97.9999970092774,2|0,3:2|2:0,2:0:0:0:
325,313,80910,2,0,P|260:311|199:336,1,97.9999970092774,2|0,2:0|2:0,2:0:0:0:
391,384,81191,2,0,L|399:330,1,48.9999985046387,2|0,2:0|2:0,2:0:0:0:
465,260,81379,5,2,3:2:0:0:
453,212,81472,1,0,2:0:0:0:
442,164,81566,1,0,2:0:0:0:
431,116,81660,1,0,2:0:0:0:
420,69,81754,2,0,L|490:84,3,48.9999985046387,8|0|0|0,2:0|2:0|2:0|2:0,2:0:0:0:
366,6,82129,5,0,3:0:0:0:
317,2,82222,1,0,2:0:0:0:
277,29,82316,1,0,2:0:0:0:
261,74,82410,1,0,2:0:0:0:
275,120,82504,2,0,L|343:142,3,48.9999985046387,8|0|0|0,2:0|2:0|2:0|2:0,2:0:0:0:
245,215,82879,5,2,3:2:0:0:
293,211,82972,1,0,2:0:0:0:
333,238,83066,1,0,2:0:0:0:
349,283,83160,1,0,2:0:0:0:
336,329,83254,2,0,L|268:351,3,48.9999985046387,8|0|0|0,2:0|2:0|2:0|2:0,2:0:0:0:
218,374,83629,6,0,P|213:338|226:304,1,48.9999985046387,0|0,3:0|2:0,0:0:0:0:
155,220,83816,2,0,P|160:256|147:290,1,48.9999985046387,0|0,2:0|2:0,0:0:0:0:
86,340,84004,2,0,P|75:283|100:217,1,97.9999970092774,8|0,2:0|2:0,2:0:0:0:
6,220,84285,1,0,2:0:0:0:
6,220,84379,6,0,P|77:202|98:106,1,146.999995513916,6|0,3:2|2:0,0:0:0:0:
105,139,84754,2,0,L|38:153,3,48.9999985046387,8|0|0|0,2:0|2:0|2:0|2:0,2:0:0:0:
0,94,85129,5,0,3:0:0:0:
9,46,85222,1,0,2:0:0:0:
44,12,85316,1,0,2:0:0:0:
91,4,85410,1,0,2:0:0:0:
136,23,85504,2,0,L|151:87,3,48.9999985046387,8|0|0|0,2:0|2:0|2:0|2:0,2:0:0:0:
228,62,85879,5,0,3:0:0:0:
237,110,85972,1,0,2:0:0:0:
272,144,86066,1,0,2:0:0:0:
319,152,86160,1,0,2:0:0:0:
364,133,86254,2,0,L|379:69,1,48.9999985046387,8|0,2:0|2:0,2:0:0:0:
393,12,86441,5,2,2:0:0:0:
393,12,86535,1,2,2:0:0:0:
393,12,86629,2,0,P|442:45|448:96,1,97.9999970092774,2|0,3:2|2:0,2:0:0:0:
447,175,86910,2,0,P|496:208|502:259,1,97.9999970092774,2|0,2:0|2:0,2:0:0:0:
459,95,87191,2,0,L|398:108,1,48.9999985046387,2|0,2:0|2:0,2:0:0:0:
361,169,87379,5,2,3:2:0:0:
312,161,87472,1,0,2:0:0:0:
264,154,87566,1,0,2:0:0:0:
215,146,87660,1,0,2:0:0:0:
167,139,87754,2,0,L|154:75,3,48.9999985046387,8|0|0|0,2:0|2:0|2:0|2:0,2:0:0:0:
141,11,88129,5,0,3:0:0:0:
93,2,88222,1,0,2:0:0:0:
48,20,88316,1,0,2:0:0:0:
20,59,88410,1,0,2:0:0:0:
17,108,88504,2,0,L|26:185,3,48.9999985046387,8|0|0|0,2:0|2:0|2:0|2:0,2:0:0:0:
106,172,88879,5,2,3:2:0:0:
153,163,88972,1,0,2:0:0:0:
198,181,89066,1,0,2:0:0:0:
226,220,89160,1,0,2:0:0:0:
229,269,89254,2,0,L|220:345,3,48.9999985046387,8|0|0|0,2:0|2:0|2:0|2:0,2:0:0:0:
155,353,89629,6,0,L|92:370,1,48.9999985046387,0|0,3:0|2:0,0:0:0:0:
304,307,89816,2,0,L|367:324,1,48.9999985046387,0|0,2:0|2:0,0:0:0:0:
401,381,90004,2,0,P|469:369|493:317,1,97.9999970092774,8|0,2:0|3:0,2:0:0:0:
440,278,90285,1,0,3:0:0:0:
440,278,90379,6,0,B|429:192|466:227|443:122,1,146.999995513916,4|0,3:2|2:0,0:0:0:0:
445,133,90754,2,0,L|503:142,3,48.9999985046387,8|0|0|0,2:0|2:0|2:0|2:0,2:0:0:0:
510,59,91129,5,0,3:0:0:0:
481,20,91222,1,0,2:0:0:0:
435,5,91316,1,0,2:0:0:0:
389,19,91410,1,0,2:0:0:0:
361,58,91504,2,0,L|283:70,3,48.9999985046387,8|0|0|0,2:0|2:0|2:0|2:0,2:0:0:0:
231,76,91879,5,0,3:0:0:0:
202,114,91972,1,0,2:0:0:0:
156,129,92066,1,0,2:0:0:0:
110,115,92160,1,0,2:0:0:0:
82,76,92254,2,0,L|3:64,1,48.9999985046387,8|0,2:0|2:0,2:0:0:0:
146,19,92441,5,2,2:0:0:0:
146,19,92535,1,2,2:0:0:0:
146,19,92629,2,0,P|168:71|165:122,1,97.9999970092774,2|0,3:2|2:0,2:0:0:0:
246,157,92910,2,0,P|268:209|265:260,1,97.9999970092774,2|0,2:0|2:0,2:0:0:0:
178,123,93191,2,0,L|114:134,1,48.9999985046387,2|0,2:0|2:0,2:0:0:0:
10,193,93379,6,0,P|71:201|125:211,1,97.9999970092774,2|0,3:2|2:0,2:0:0:0:
106,207,93660,1,2,2:0:0:0:
106,207,93754,2,0,L|112:270,1,48.9999985046387,8|0,2:0|2:0,2:0:0:0:
87,347,93941,6,0,P|148:339|202:329,1,97.9999970092774,2|0,2:0|3:0,2:0:0:0:
183,333,94222,1,0,2:0:0:0:
183,333,94316,2,0,L|189:270,1,48.9999985046387,2|0,2:0|2:0,2:0:0:0:
248,226,94504,5,8,2:0:0:0:
295,218,94597,1,0,2:0:0:0:
339,239,94691,1,0,2:0:0:0:
364,280,94785,1,0,2:0:0:0:
362,329,94879,6,0,L|438:318,3,48.9999985046387,0|0|0|0,3:0|2:0|2:0|2:0,0:0:0:0:
512,384,95254,2,0,L|436:373,3,48.9999985046387,8|0|0|0,2:0|2:0|2:0|2:0,2:0:0:0:
461,264,95629,6,0,P|467:231|481:189,1,48.9999985046387,2|0,3:2|2:0,2:0:0:0:
387,245,95816,2,0,P|393:212|407:170,1,48.9999985046387,0|0,2:0|2:0,2:0:0:0:
341,91,96004,2,0,P|347:124|361:166,1,48.9999985046387,8|0,2:0|2:0,2:0:0:0:
267,110,96191,2,0,P|273:143|287:185,1,48.9999985046387,0|0,2:0|2:0,2:0:0:0:
230,222,96379,6,0,L|120:207,1,97.9999970092774,2|0,3:2|2:0,2:0:0:0:
50,242,96660,2,0,P|21:195|41:140,1,97.9999970092774,2|0,2:0|2:0,2:0:0:0:
122,207,96941,6,0,L|133:267,1,48.9999985046387,2|0,2:0|2:0,2:0:0:0:
281,290,97129,2,0,L|272:338,3,48.9999985046387,2|0|0|0,3:2|2:0|2:0|2:0,0:0:0:0:
203,374,97504,6,0,P|195:344|208:298,1,48.9999985046387,8|0,2:0|2:0,2:0:0:0:
346,235,97691,2,0,P|338:205|351:159,1,48.9999985046387,0|0,2:0|2:0,2:0:0:0:
277,140,97879,5,0,3:0:0:0:
267,92,97972,1,0,2:0:0:0:
286,48,98066,1,0,2:0:0:0:
328,23,98160,1,0,2:0:0:0:
376,27,98254,2,0,L|389:92,1,48.9999985046387,8|0,2:0|2:0,2:0:0:0:
465,109,98441,5,2,2:0:0:0:
465,109,98535,1,2,2:0:0:0:
465,109,98629,2,0,P|392:123|363:173,1,97.9999970092774,2|0,3:2|2:0,2:0:0:0:
293,109,98910,2,0,P|220:123|191:173,1,97.9999970092774,2|0,2:0|2:0,2:0:0:0:
365,139,99191,2,0,L|355:219,1,48.9999985046387,2|0,2:0|2:0,2:0:0:0:
401,260,99379,5,2,3:2:0:0:
361,288,99472,1,0,2:0:0:0:
313,287,99566,1,0,2:0:0:0:
274,259,99660,1,0,2:0:0:0:
260,213,99754,2,0,L|271:149,3,48.9999985046387,8|0|0|0,2:0|2:0|2:0|2:0,2:0:0:0:
272,83,100129,5,0,3:0:0:0:
232,54,100222,1,0,2:0:0:0:
184,55,100316,1,0,2:0:0:0:
145,83,100410,1,0,2:0:0:0:
131,129,100504,2,0,L|141:193,3,48.9999985046387,8|0|0|0,2:0|2:0|2:0|2:0,2:0:0:0:
48,255,100879,5,0,3:0:0:0:
96,251,100972,1,0,2:0:0:0:
145,256,101066,1,0,2:0:0:0:
192,269,101160,1,0,2:0:0:0:
237,289,101254,2,0,L|245:350,3,48.9999985046387,8|0|0|0,2:0|2:0|2:0|2:0,0:0:0:0:
318,377,101629,5,0,3:0:0:0:
464,266,101816,2,0,L|455:202,1,48.9999985046387,8|0,2:0|0:0,0:0:0:0:
386,185,102004,1,8,2:0:0:0:
339,197,102097,1,0,3:0:0:0:
294,179,102191,1,8,3:2:0:0:
269,139,102285,1,8,3:2:0:0:
273,90,102379,6,0,L|282:25,1,56,6|0,3:2|2:0,0:0:0:0:
186,0,102566,1,0,2:0:0:0:
186,0,102660,1,0,2:0:0:0:
186,0,102754,1,8,2:0:0:0:
186,0,102847,1,0,2:0:0:0:
186,0,102941,1,0,2:0:0:0:
186,0,103035,1,0,2:0:0:0:
186,0,103129,6,0,L|196:75,1,56,2|0,3:2|2:0,0:0:0:0:
105,118,103316,1,0,2:0:0:0:
105,118,103410,1,0,2:0:0:0:
105,118,103504,1,8,2:0:0:0:
105,118,103597,1,0,2:0:0:0:
105,118,103691,1,0,2:0:0:0:
105,118,103785,1,0,2:0:0:0:
105,118,103879,6,0,L|115:43,1,56,2|0,3:2|2:0,0:0:0:0:
17,8,104066,1,0,2:0:0:0:
17,8,104160,1,0,2:0:0:0:
17,8,104254,2,0,L|27:77,1,56,8|0,2:0|2:0,2:0:0:0:
0,192,104441,5,2,2:0:0:0:
54,188,104534,1,2,2:0:0:0:
93,225,104629,2,0,P|164:207|216:209,1,112,2|0,3:2|2:0,2:0:0:0:
258,133,104910,2,0,P|329:115|381:117,1,112,2|0,2:0|2:0,2:0:0:0:
213,199,105191,2,0,L|230:271,1,56,2|0,2:0|2:0,2:0:0:0:
263,381,105379,6,0,L|272:295,1,56,2|0,3:2|2:0,0:0:0:0:
339,270,105566,1,0,2:0:0:0:
339,270,105660,1,0,2:0:0:0:
339,270,105754,1,8,2:0:0:0:
339,270,105847,1,0,2:0:0:0:
339,270,105941,1,0,2:0:0:0:
339,270,106035,1,0,2:0:0:0:
339,270,106129,6,0,L|348:356,1,56,2|0,3:2|2:0,0:0:0:0:
442,383,106316,1,0,2:0:0:0:
442,383,106410,1,0,2:0:0:0:
442,383,106504,1,8,2:0:0:0:
442,383,106597,1,0,2:0:0:0:
442,383,106691,1,0,2:0:0:0:
442,383,106785,1,0,2:0:0:0:
442,383,106879,6,0,L|451:297,1,56,2|0,3:2|2:0,0:0:0:0:
506,227,107066,1,0,2:0:0:0:
506,227,107160,1,0,2:0:0:0:
506,227,107254,1,8,2:0:0:0:
506,227,107347,1,0,2:0:0:0:
506,227,107441,1,0,2:0:0:0:
506,227,107535,1,0,2:0:0:0:
506,227,107629,6,0,L|515:313,1,56,2|0,3:2|2:0,0:0:0:0:
441,157,107816,2,0,L|450:71,1,56,0|0,2:0|2:0,0:0:0:0:
386,217,108004,1,8,2:0:0:0:
345,226,108097,1,0,2:0:0:0:
304,235,108191,1,0,2:0:0:0:
263,245,108285,1,0,2:0:0:0:
222,254,108379,6,0,L|152:239,1,56,6|0,3:2|2:0,0:0:0:0:
83,178,108566,1,0,2:0:0:0:
83,178,108660,1,0,2:0:0:0:
83,178,108754,1,8,2:0:0:0:
83,178,108847,1,0,2:0:0:0:
83,178,108941,1,0,2:0:0:0:
83,178,109035,1,0,2:0:0:0:
83,178,109129,6,0,L|153:165,1,56,2|0,3:2|2:0,0:0:0:0:
237,110,109316,1,0,2:0:0:0:
237,110,109410,1,0,2:0:0:0:
237,110,109504,1,8,2:0:0:0:
237,110,109597,1,0,2:0:0:0:
237,110,109691,1,0,2:0:0:0:
237,110,109785,1,0,2:0:0:0:
237,110,109879,6,0,L|167:97,1,56,2|0,3:2|2:0,0:0:0:0:
128,31,110066,1,0,2:0:0:0:
128,31,110160,1,0,2:0:0:0:
128,31,110254,2,0,L|221:16,1,56,8|0,2:0|2:0,2:0:0:0:
348,5,110441,5,2,2:0:0:0:
383,46,110534,1,2,2:0:0:0:
374,99,110629,2,0,P|390:162|365:217,1,112,2|0,3:2|2:0,2:0:0:0:
277,189,110910,2,0,P|292:251|267:306,1,112,2|0,2:0|2:0,2:0:0:0:
367,216,111191,2,0,L|434:236,1,56,2|0,2:0|2:0,2:0:0:0:
497,255,111379,5,2,3:2:0:0:
504,298,111472,1,0,2:0:0:0:
484,337,111566,1,0,2:0:0:0:
444,356,111660,1,0,2:0:0:0:
401,347,111754,1,8,2:0:0:0:
372,314,111847,1,0,2:0:0:0:
371,270,111940,1,0,2:0:0:0:
345,234,112034,1,0,2:0:0:0:
304,218,112128,1,2,3:2:0:0:
261,226,112222,1,0,2:0:0:0:
229,257,112315,1,0,2:0:0:0:
220,301,112409,1,0,2:0:0:0:
236,342,112504,2,0,L|306:351,3,56,8|0|0|0,2:0|2:0|2:0|2:0,0:0:0:0:
150,343,112879,5,2,3:2:0:0:
101,369,112972,1,0,2:0:0:0:
48,357,113066,1,0,2:0:0:0:
16,312,113160,1,0,2:0:0:0:
22,257,113254,2,0,L|36:190,3,56,8|0|0|0,2:0|2:0|2:0|2:0,0:0:0:0:
119,181,113629,5,2,3:2:0:0:
167,207,113722,1,0,2:0:0:0:
220,195,113816,1,0,2:0:0:0:
252,150,113910,1,0,2:0:0:0:
246,95,114004,2,0,L|232:27,3,56,8|0|0|0,3:2|3:0|3:0|3:0,2:0:0:0:
302,0,114379,6,0,L|386:18,1,56,6|0,3:2|2:0,0:0:0:0:
507,66,114566,1,0,2:0:0:0:
507,66,114660,1,0,2:0:0:0:
507,66,114754,1,8,2:0:0:0:
507,66,114847,1,0,2:0:0:0:
507,66,114941,1,0,2:0:0:0:
507,66,115035,1,0,2:0:0:0:
507,66,115129,6,0,L|423:84,1,56,2|0,3:2|2:0,0:0:0:0:
341,124,115316,1,0,2:0:0:0:
341,124,115410,1,0,2:0:0:0:
341,124,115504,1,8,2:0:0:0:
341,124,115597,1,0,2:0:0:0:
341,124,115691,1,0,2:0:0:0:
341,124,115785,1,0,2:0:0:0:
341,124,115879,6,0,L|425:142,1,56,2|0,3:2|2:0,0:0:0:0:
481,212,116066,1,0,2:0:0:0:
481,212,116160,1,0,2:0:0:0:
481,212,116254,2,0,L|397:230,1,56,8|0,2:0|2:0,2:0:0:0:
275,302,116441,5,2,2:0:0:0:
234,267,116534,1,2,2:0:0:0:
247,216,116629,2,0,P|267:155|244:95,1,112,2|0,3:2|2:0,2:0:0:0:
147,162,116910,2,0,P|166:100|143:40,1,112,2|0,2:0|2:0,2:0:0:0:
260,98,117191,2,0,L|192:113,1,56,2|0,2:0|2:0,2:0:0:0:
353,38,117379,6,0,P|354:103|318:168,1,112,2|0,3:2|2:0,2:0:0:0:
336,145,117660,1,2,2:0:0:0:
336,145,117754,2,0,L|397:163,1,56,8|0,2:0|2:0,2:0:0:0:
480,75,117941,2,0,L|418:93,1,56,2|0,2:0|2:0,2:0:0:0:
474,193,118129,6,0,P|473:258|509:323,1,112,2|0,3:2|2:0,2:0:0:0:
491,300,118410,1,2,2:0:0:0:
491,300,118504,2,0,L|429:318,1,56,8|0,2:0|2:0,2:0:0:0:
347,230,118691,2,0,L|408:248,1,56,2|0,2:0|0:0,2:0:0:0:
481,384,118879,5,0,3:0:0:0:
258,330,119066,2,0,P|238:271|254:209,1,112,2|8,2:0|2:0,2:0:0:0:
252,26,119441,1,0,2:0:0:0:
252,26,119535,1,0,2:0:0:0:
252,26,119629,6,0,P|261:65|266:98,1,56,2|0,3:2|2:0,0:0:0:0:
327,13,119816,2,0,P|336:52|341:85,1,56,0|0,2:0|2:0,0:0:0:0:
205,129,120004,2,0,P|196:168|191:201,1,56,8|0,2:0|2:0,2:0:0:0:
130,116,120191,2,0,P|121:155|116:188,1,56,0|0,2:0|2:0,2:0:0:0:
285,265,120379,6,0,B|215:280|254:294|164:312,1,112,2|0,3:2|2:0,2:0:0:0:
102,279,120660,2,0,B|32:294|71:308|-19:326,1,112,2|0,2:0|2:0,2:0:0:0:
171,321,120941,6,0,L|184:259,1,56,2|0,2:0|2:0,2:0:0:0:
22,224,121129,2,0,L|35:162,3,56,2|0|0|0,3:2|2:0|2:0|2:0,0:0:0:0:
110,158,121504,6,0,P|104:124|111:87,1,56,8|0,2:0|2:0,0:0:0:0:
3,84,121691,2,0,P|-3:50|4:13,1,56,0|0,2:0|2:0,0:0:0:0:
82,26,121879,5,0,3:0:0:0:
131,1,121972,1,0,2:0:0:0:
185,10,122066,1,0,2:0:0:0:
225,49,122160,1,0,2:0:0:0:
234,103,122254,2,0,L|319:84,1,56,8|0,2:0|2:0,2:0:0:0:
367,72,122441,5,2,2:0:0:0:
367,72,122535,1,0,2:0:0:0:
367,72,122629,2,0,P|431:93|485:85,1,112,2|0,3:2|2:0,2:0:0:0:
288,173,122910,2,0,P|352:194|406:186,1,112,2|0,2:0|2:0,2:0:0:0:
484,80,123191,2,0,L|496:153,1,56,2|0,2:0|2:0,2:0:0:0:
428,11,123379,5,6,3:2:0:0:
385,1,123472,1,0,2:0:0:0:
344,18,123566,1,0,2:0:0:0:
322,56,123660,1,0,2:0:0:0:
327,100,123754,1,8,2:0:0:0:
357,132,123847,1,0,2:0:0:0:
400,140,123941,1,0,2:0:0:0:
441,157,124034,1,0,2:0:0:0:
467,193,124128,1,2,3:2:0:0:
471,237,124222,1,0,2:0:0:0:
451,276,124316,1,0,2:0:0:0:
413,300,124409,1,0,2:0:0:0:
369,300,124504,2,0,L|361:237,3,56,8|0|0|0,2:0|2:0|2:0|2:0,2:0:0:0:
294,341,124879,5,6,3:2:0:0:
264,294,124972,1,0,2:0:0:0:
214,272,125066,1,0,2:0:0:0:
160,282,125160,1,0,2:0:0:0:
121,322,125254,1,8,2:0:0:0:
68,336,125347,1,0,2:0:0:0:
20,311,125441,1,0,2:0:0:0:
0,260,125535,1,0,2:0:0:0:
20,209,125629,1,2,3:2:0:0:
69,185,125722,1,0,2:0:0:0:
121,199,125816,6,0,L|187:182,1,56,8|0,2:0|0:0,0:0:0:0:
250,224,126004,1,8,2:0:0:0:
280,177,126097,1,0,3:0:0:0:
289,122,126191,1,8,3:2:0:0:
273,69,126285,1,8,3:2:0:0:
237,26,126379,6,0,P|166:30|121:93,1,140,6|0,3:2|2:0,0:0:0:0:
121,170,126660,2,0,P|50:174|5:237,1,140,2|0,2:0|2:0,0:0:0:0:
111,89,126941,2,0,L|189:106,1,70,2|0,2:0|2:0,0:0:0:0:
226,176,127129,5,2,3:2:0:0:
273,195,127222,1,0,2:0:0:0:
323,182,127316,1,0,2:0:0:0:
356,142,127410,1,0,2:0:0:0:
359,91,127504,2,0,L|341:17,3,70,8|0|0|0,2:0|0:0|2:0|2:0,2:0:0:0:
420,7,127879,5,2,3:2:0:0:
464,33,127972,1,0,2:0:0:0:
488,79,128066,1,0,2:0:0:0:
484,131,128160,1,0,2:0:0:0:
454,173,128254,1,8,2:0:0:0:
406,193,128347,1,0,2:0:0:0:
355,186,128441,6,0,P|316:189|286:207,1,70,2|0,2:0|2:0,2:0:0:0:
212,172,128629,2,0,P|172:174|142:192,1,70,2|0,3:2|2:0,0:0:0:0:
330,93,128816,2,0,P|290:95|260:113,1,70,2|0,2:0|2:0,0:0:0:0:
186,78,129004,2,0,P|146:80|116:98,1,70,10|0,2:0|2:0,0:0:0:0:
304,0,129191,2,0,P|264:2|234:20,1,70,2|0,2:0|2:0,0:0:0:0:
8,38,129379,6,0,P|80:61|92:142,1,140,2|0,3:2|2:0,0:0:0:0:
186,78,129660,2,0,P|258:101|270:182,1,140,2|0,2:0|2:0,0:0:0:0:
115,114,129941,2,0,L|101:191,1,70,2|0,2:0|2:0,0:0:0:0:
78,360,130129,6,0,P|150:337|162:256,1,140,2|0,3:2|2:0,0:0:0:0:
256,320,130410,2,0,P|328:297|340:216,1,140,2|0,2:0|2:0,0:0:0:0:
185,284,130691,2,0,L|171:207,1,70,2|0,2:0|2:0,0:0:0:0:
237,166,130879,5,2,3:2:0:0:
237,166,130972,2,0,P|228:123|245:82,1,70,2|0,2:0|2:0,2:0:0:0:
452,221,131160,1,2,2:0:0:0:
452,221,131253,2,0,P|443:178|460:137,1,70,10|0,2:0|2:0,2:0:0:0:
306,133,131441,2,0,L|383:119,1,70,2|0,2:0|2:0,0:0:0:0:
183,291,131629,5,2,3:2:0:0:
183,291,131722,2,0,P|174:248|191:207,1,70,2|0,2:0|2:0,2:0:0:0:
398,346,131910,1,2,2:0:0:0:
398,346,132003,2,0,P|389:303|406:262,1,70,10|0,2:0|2:0,2:0:0:0:
252,258,132191,2,0,L|329:244,1,70,2|0,2:0|2:0,2:0:0:0:
246,364,132379,6,0,P|176:332|109:363,1,140,2|0,3:2|2:0,0:0:0:0:
166,223,132660,2,0,P|96:191|29:222,1,140,2|0,2:0|2:0,0:0:0:0:
106,354,132941,2,0,L|122:270,1,70,2|0,2:0|2:0,0:0:0:0:
232,174,133129,5,2,3:2:0:0:
232,174,133222,2,0,P|269:166|310:172,1,70,0|0,2:0|2:0,0:0:0:0:
85,70,133410,1,0,2:0:0:0:
85,70,133503,2,0,P|122:62|163:68,1,70,8|0,2:0|0:0,2:0:0:0:
239,22,133691,2,0,L|223:116,1,70,0|0,2:0|2:0,0:0:0:0:
147,259,133879,5,0,3:0:0:0:
147,259,133972,2,0,P|184:251|225:257,1,70,0|0,2:0|2:0,0:0:0:0:
0,155,134160,1,0,2:0:0:0:
0,155,134253,2,0,P|37:147|78:153,1,70,8|0,2:0|2:0,0:0:0:0:
61,230,134441,6,0,L|75:308,1,70,2|0,2:0|2:0,2:0:0:0:
142,104,134629,2,0,L|156:182,1,70,2|0,3:2|2:0,0:0:0:0:
215,254,134816,2,0,L|229:332,1,70,2|0,2:0|2:0,0:0:0:0:
296,128,135004,2,0,L|310:206,1,70,10|0,2:0|2:0,0:0:0:0:
392,267,135191,2,0,L|406:345,1,70,2|0,2:0|2:0,0:0:0:0:
504,187,135379,6,0,P|518:113|481:42,1,140,2|0,3:2|2:0,0:0:0:0:
393,131,135660,2,0,P|407:57|370:-14,1,140,2|0,2:0|2:0,0:0:0:0:
501,44,135941,2,0,L|420:62,1,70,2|0,2:0|2:0,0:0:0:0:
307,109,136129,6,0,P|321:183|284:254,1,140,2|0,3:2|2:0,0:0:0:0:
196,165,136410,2,0,P|210:239|173:310,1,140,2|0,2:0|2:0,0:0:0:0:
304,252,136691,2,0,L|223:234,1,70,2|0,2:0|2:0,0:0:0:0:
127,99,136879,5,2,3:2:0:0:
127,99,136972,2,0,P|85:109|42:105,1,70,2|0,2:0|2:0,2:0:0:0:
70,295,137160,1,2,2:0:0:0:
70,295,137253,2,0,P|28:305|-15:301,1,70,10|0,2:0|2:0,2:0:0:0:
118,181,137441,2,0,L|137:265,1,70,2|0,2:0|2:0,0:0:0:0:
274,137,137629,5,2,3:2:0:0:
274,137,137722,2,0,P|232:147|189:143,1,70,2|0,2:0|2:0,2:0:0:0:
217,333,137910,1,2,2:0:0:0:
217,333,138003,2,0,P|175:343|132:339,1,70,10|0,2:0|2:0,2:0:0:0:
265,219,138191,2,0,L|284:303,1,70,2|0,2:0|2:0,2:0:0:0:
301,365,138379,5,6,3:2:0:0:
351,376,138472,1,0,2:0:0:0:
402,365,138566,1,0,2:0:0:0:
444,334,138660,1,0,2:0:0:0:
470,289,138754,2,0,L|455:200,3,70,8|0|0|0,2:0|2:0|2:0|2:0,0:0:0:0:
441,144,139129,5,0,3:0:0:0:
390,155,139222,1,0,2:0:0:0:
339,144,139316,1,0,2:0:0:0:
297,113,139410,1,0,2:0:0:0:
271,68,139504,2,0,L|286:-21,3,70,8|0|0|0,2:0|2:0|2:0|2:0,0:0:0:0:
189,77,139879,5,0,3:0:0:0:
137,68,139972,1,0,2:0:0:0:
89,86,140066,1,0,2:0:0:0:
58,128,140160,1,0,2:0:0:0:
53,179,140254,2,0,L|150:197,1,70,8|0,2:0|2:0,0:0:0:0:
195,145,140441,6,0,P|198:113|180:61,1,70,2|0,2:0|2:0,2:0:0:0:
275,258,140629,2,0,P|278:226|260:174,1,70,2|0,3:2|2:0,0:0:0:0:
316,119,140816,2,0,P|319:87|301:35,1,70,2|0,2:0|2:0,0:0:0:0:
396,232,141004,2,0,P|399:200|381:148,1,70,10|0,2:0|2:0,0:0:0:0:
512,31,141191,5,2,2:0:0:0:
512,31,141285,1,0,2:0:0:0:
512,31,141379,2,0,P|418:50|414:126,1,140,2|0,3:2|2:0,0:0:0:0:
487,176,141660,2,0,P|393:195|389:271,1,140,2|0,2:0|2:0,0:0:0:0:
415,91,141941,2,0,L|319:100,1,70,2|0,2:0|2:0,0:0:0:0:
275,46,142129,6,0,P|181:65|177:141,1,140,2|0,3:2|2:0,0:0:0:0:
250,191,142410,2,0,P|156:210|152:286,1,140,2|0,2:0|2:0,0:0:0:0:
178,106,142691,2,0,L|82:115,1,70,2|0,2:0|2:0,0:0:0:0:
56,182,142879,5,2,3:2:0:0:
56,182,142972,2,0,P|63:218|54:266,1,70,0|0,2:0|2:0,0:0:0:0:
222,277,143160,1,0,2:0:0:0:
222,277,143253,2,0,P|229:313|220:361,1,70,8|0,2:0|2:0,0:0:0:0:
81,331,143441,2,0,L|175:306,1,70,0|0,2:0|2:0,0:0:0:0:
197,128,143629,5,2,3:2:0:0:
197,128,143722,2,0,P|204:164|195:212,1,70,0|0,2:0|2:0,0:0:0:0:
363,223,143910,1,0,2:0:0:0:
363,223,144003,2,0,P|370:259|361:307,1,70,10|0,2:0|2:0,2:0:0:0:
222,277,144191,2,0,L|316:252,1,70,0|0,2:0|2:0,2:0:0:0:
413,358,144379,5,6,3:2:0:0:
463,347,144472,1,0,2:0:0:0:
500,311,144566,1,0,2:0:0:0:
512,260,144660,1,0,2:0:0:0:
495,212,144754,2,0,L|402:201,1,70,8|0,2:0|2:0,0:0:0:0:
249,109,144941,5,6,2:0:0:0:
299,120,145034,1,0,2:0:0:0:
336,156,145128,1,0,3:0:0:0:
348,207,145222,1,0,2:0:0:0:
331,255,145316,2,0,L|238:265,1,70,0|0,2:0|2:0,0:0:0:0:
187,162,145504,6,0,P|193:181|188:239,1,70,10|0,2:0|2:0,2:0:0:0:
20,259,145691,2,0,P|26:278|21:336,1,70,2|0,2:0|2:0,2:0:0:0:
92,372,145879,5,6,3:2:0:0:
134,341,145972,1,0,2:0:0:0:
184,326,146066,1,0,2:0:0:0:
236,327,146160,1,0,2:0:0:0:
286,345,146254,2,0,L|279:254,1,70,8|0,2:0|2:0,0:0:0:0:
323,209,146441,5,6,2:0:0:0:
280,178,146534,1,0,2:0:0:0:
230,163,146628,1,0,3:0:0:0:
178,164,146722,1,0,2:0:0:0:
127,181,146816,2,0,P|105:114|129:39,1,140,2|8,2:0|2:0,0:0:0:0:
122,48,147097,2,0,L|199:64,1,70,2|0,2:0|2:0,0:0:0:0:
261,11,147285,1,0,2:0:0:0:
261,11,147379,5,6,3:2:0:0:
296,48,147472,1,0,2:0:0:0:
311,98,147566,1,0,2:0:0:0:
300,149,147660,1,0,2:0:0:0:
267,189,147754,2,0,L|189:197,3,70,8|0|0|0,2:0|2:0|2:0|2:0,0:0:0:0:
123,153,148129,5,6,3:2:0:0:
87,190,148222,1,0,2:0:0:0:
72,240,148316,1,0,2:0:0:0:
83,291,148410,1,0,2:0:0:0:
116,331,148504,2,0,L|185:337,3,70,8|0|0|0,2:0|2:0|2:0|2:0,0:0:0:0:
256,378,148879,5,6,3:2:0:0:
282,333,148972,1,0,2:0:0:0:
326,305,149066,1,0,2:0:0:0:
378,298,149160,1,0,2:0:0:0:
427,316,149254,2,0,L|445:214,1,70,8|0,2:0|2:0,0:0:0:0:
508,206,149441,5,6,2:0:0:0:
481,161,149534,1,0,2:0:0:0:
437,133,149628,1,0,3:0:0:0:
385,126,149722,1,0,2:0:0:0:
336,144,149816,2,0,L|318:41,1,70,0|0,2:0|2:0,0:0:0:0:
449,12,150004,6,0,P|411:21|367:11,1,70,14|0,2:0|2:0,0:0:0:0:
249,124,150191,2,0,P|211:133|167:123,1,70,0|0,2:0|2:0,0:0:0:0:
146,52,150379,5,2,3:2:0:0:
95,42,150472,1,0,2:0:0:0:
46,60,150566,1,0,2:0:0:0:
14,100,150660,1,2,2:0:0:0:
7,152,150754,1,8,2:0:0:0:
28,199,150847,1,0,2:0:0:0:
71,229,150941,1,2,2:0:0:0:
123,232,151035,1,0,2:0:0:0:
169,208,151129,1,2,3:2:0:0:
220,212,151222,1,0,2:0:0:0:
255,249,151316,1,0,2:0:0:0:
257,300,151410,1,2,2:0:0:0:
224,340,151504,2,0,L|143:330,3,70,8|0|2|0,2:0|2:0|2:0|2:0,0:0:0:0:
299,382,151879,5,2,3:2:0:0:
350,384,151972,1,0,2:0:0:0:
397,361,152066,1,0,2:0:0:0:
427,319,152160,1,2,2:0:0:0:
433,267,152254,1,8,2:0:0:0:
414,219,152347,1,0,2:0:0:0:
374,186,152441,1,2,2:0:0:0:
323,176,152535,1,0,2:0:0:0:
273,192,152629,1,2,3:2:0:0:
238,230,152722,1,0,2:0:0:0:
188,241,152815,1,0,2:0:0:0:
144,215,152909,1,2,2:0:0:0:
131,166,153004,2,0,L|123:78,3,70,8|0|2|0,2:0|2:0|2:0|2:0,0:0:0:0:
177,34,153379,5,2,3:2:0:0:
177,34,153472,2,0,P|222:33|271:58,1,70,0|0,2:0|2:0,0:0:0:0:
378,0,153660,1,2,2:0:0:0:
378,0,153753,2,0,P|423:-1|472:24,1,70,8|0,2:0|2:0,0:0:0:0:
322,55,153941,2,0,L|343:136,1,70,2|0,2:0|2:0,0:0:0:0:
220,183,154129,5,2,3:2:0:0:
220,183,154222,2,0,P|265:182|314:207,1,70,0|0,2:0|2:0,0:0:0:0:
421,149,154410,1,2,2:0:0:0:
421,149,154503,2,0,P|466:148|515:173,1,70,8|0,2:0|2:0,0:0:0:0:
365,204,154691,2,0,L|386:285,1,70,2|0,2:0|2:0,0:0:0:0:
485,349,154879,5,2,3:2:0:0:
485,349,154972,1,0,2:0:0:0:
485,349,155066,2,0,B|402:324|429:367|343:342,1,140,0|8,2:0|2:0,0:0:0:0:
125,282,155441,1,2,2:0:0:0:
125,282,155535,1,0,2:0:0:0:
125,282,155629,5,2,3:2:0:0:
312,102,155816,2,0,L|326:190,1,70,8|0,2:0|0:0,0:0:0:0:
268,231,156004,5,8,2:0:0:0:
217,240,156097,1,0,3:0:0:0:
171,217,156191,1,10,3:2:0:0:
149,170,156285,1,8,3:2:0:0:
161,120,156379,6,0,B|275:95|214:133|357:99,3,195.999994018555,6|0|0|0,3:1|3:0|3:0|3:0,2:0:0:0:
109,5,157691,5,2,2:0:0:0:
109,5,157785,1,2,2:0:0:0:
109,5,157879,2,0,P|82:75|94:125,1,97.9999970092774,2|0,3:2|2:0,0:0:0:0:
26,222,158254,2,0,P|-1:292|11:342,1,97.9999970092774,2|2,3:2|2:1,2:0:0:0:
46,314,158535,1,2,2:1:0:0:
71,353,158629,6,0,L|226:370,2,146.999995513916,2|2|2,3:1|2:1|2:1,2:0:0:0:
261,298,159379,6,0,B|232:156|225:236|191:77,3,195.999994018555,2|0|0|0,3:1|3:0|3:0|3:0,2:0:0:0:
365,196,160691,1,2,2:0:0:0:
365,196,160785,1,2,2:0:0:0:
365,196,160879,2,0,B|390:319|397:239|426:381,3,195.999994018555,2|0|0|0,3:1|3:0|3:0|3:0,0:0:0:0:
489,81,162191,1,2,2:0:0:0:
489,81,162285,1,2,2:0:0:0:
494,85,162379,6,0,B|352:56|432:49|273:15,2,195.999994018555,2|0|0,3:1|3:0|3:0,2:0:0:0:
276,86,163504,2,0,L|134:114,1,97.9999970092774,2|0,3:2|2:0,0:0:0:0:
179,104,163785,1,0,2:0:0:0:
179,104,163879,6,0,P|158:46|176:-4,1,97.9999970092774,2|0,3:2|2:0,0:0:0:0:
120,246,164254,2,0,P|98:187|116:137,1,97.9999970092774,0|2,3:0|2:1,2:0:0:0:
67,134,164535,1,2,2:1:0:0:
26,151,164629,6,0,L|0:-1,2,146.999995513916,2|2|2,3:1|2:1|2:1,2:0:0:0:
187,290,165379,6,0,B|48:271|127:258|-13:232,3,195.999994018555,2|0|0|2,3:1|3:0|3:0|3:2,2:0:0:0:
425,280,166691,1,0,2:0:0:0:
425,280,166785,1,0,2:0:0:0:
425,280,166879,2,0,B|286:261|365:248|225:222,3,195.999994018555,2|0|0|0,3:1|3:0|3:0|3:0,2:0:0:0:
480,33,168191,1,2,3:2:0:0:
480,33,168285,1,2,3:2:0:0:
481,33,168379,6,2,B|509:159|463:99|494:225|494:225|402:131|473:160|384:64|384:64|412:190|366:130|397:256|397:256|306:162|376:191|288:95|288:95|316:221|270:161|302:288,1,979.999970092774,2|0,3:1|3:0,2:1:0:0:
234,365,170441,1,2,2:1:0:0:
234,365,170535,1,2,2:1:0:0:
234,365,170629,2,0,L|82:346,2,146.999995513916,2|2|2,3:1|2:1|2:1,2:0:0:0:
13,368,171379,6,0,P|-3:297|28:250,1,97.9999970092774,2|0,3:1|2:0,2:0:0:0:
84,234,171660,2,0,P|68:163|99:116,1,97.9999970092774,2|0,2:1|2:0,2:0:0:0:
17,279,171941,6,0,B|111:256|73:292|203:265,1,146.999995513916,2|0,2:1|2:0,2:0:0:0:
294,368,172316,2,0,B|388:345|350:381|480:354,1,146.999995513916,2|0,2:1|2:0,2:0:0:0:
235,314,172691,2,0,L|243:249,1,48.9999985046387,0|0,2:0|2:0,2:0:0:0:
307,226,172879,6,0,P|347:167|276:40,1,195.999994018555,2|0,3:2|3:0,2:0:0:0:
166,7,173441,1,2,2:0:0:0:
166,7,173535,1,2,2:0:0:0:
166,7,173629,2,0,P|136:64|188:147,1,146.999995513916,2|0,3:2|2:0,2:0:0:0:
167,135,174004,2,0,P|222:125|275:125,1,97.9999970092774,2|0,3:2|0:0,2:0:0:0:
463,77,174379,6,0,L|287:49,2,146.999995513916,2|2|2,3:1|2:1|2:1,2:0:0:0:
506,155,175129,2,2,P|456:168|418:232,1,97.9999970092774,2|0,3:1|0:0,2:1:0:0:
426,201,175410,1,0,0:0:0:0:
426,201,175504,1,0,3:0:0:0:
455,282,175691,1,0,0:0:0:0:
402,344,175879,6,0,B|282:367|316:334|195:352,1,195.999994018555,0|0,3:0|3:0,0:0:0:0:
34,384,176441,1,2,2:1:0:0:
34,384,176535,1,2,2:1:0:0:
34,384,176629,2,0,P|26:325|-3:237,2,146.999995513916,2|2|2,3:1|2:1|2:1,2:0:0:0:
34,168,177379,6,2,P|118:144|204:247,1,195.999994018555,2|0,3:1|3:0,2:1:0:0:
265,358,177941,1,0,0:0:0:0:
265,358,178035,1,0,0:0:0:0:
265,358,178129,2,0,P|336:296|427:318,2,195.999994018555,0|0|0,3:0|3:0|3:0,0:0:0:0:
255,40,179629,6,0,L|262:99,3,48.9999985046387,0|0|0|0,2:0|2:0|2:0|2:0,0:0:0:0:
302,164,180004,1,0,3:0:0:0:
254,170,180097,1,0,3:0:0:0:
220,204,180191,1,0,3:0:0:0:
213,252,180285,1,0,3:0:0:0:
239,294,180379,6,0,L|230:359,1,56,6|0,3:2|2:0,0:0:0:0:
331,384,180566,1,0,2:0:0:0:
331,384,180660,1,0,2:0:0:0:
331,384,180754,1,8,2:0:0:0:
331,384,180847,1,0,2:0:0:0:
331,384,180941,1,0,2:0:0:0:
331,384,181035,1,0,2:0:0:0:
331,384,181129,6,0,L|321:309,1,56,2|0,3:2|2:0,0:0:0:0:
407,266,181316,1,0,2:0:0:0:
407,266,181410,1,0,2:0:0:0:
407,266,181504,1,8,2:0:0:0:
407,266,181597,1,0,2:0:0:0:
407,266,181691,1,0,2:0:0:0:
407,266,181785,1,0,2:0:0:0:
407,266,181879,6,0,L|397:341,1,56,2|0,3:2|2:0,0:0:0:0:
488,379,182066,1,0,2:0:0:0:
488,379,182160,1,0,2:0:0:0:
488,379,182254,2,0,L|478:310,1,56,8|0,2:0|2:0,2:0:0:0:
512,192,182441,5,2,2:0:0:0:
458,196,182534,1,2,2:0:0:0:
419,159,182629,2,0,P|348:177|296:175,1,112,2|0,3:2|2:0,2:0:0:0:
254,251,182910,2,0,P|183:269|131:267,1,112,2|0,2:0|2:0,2:0:0:0:
299,185,183191,2,0,L|282:113,1,56,2|0,2:0|2:0,2:0:0:0:
249,3,183379,6,0,L|240:89,1,56,2|0,3:2|2:0,0:0:0:0:
173,114,183566,1,0,2:0:0:0:
173,114,183660,1,0,2:0:0:0:
173,114,183754,1,8,2:0:0:0:
173,114,183847,1,0,2:0:0:0:
173,114,183941,1,0,2:0:0:0:
173,114,184035,1,0,2:0:0:0:
173,114,184129,6,0,L|164:28,1,56,2|0,3:2|2:0,0:0:0:0:
92,15,184316,1,0,2:0:0:0:
92,15,184410,1,0,2:0:0:0:
92,15,184504,1,8,2:0:0:0:
92,15,184597,1,0,2:0:0:0:
92,15,184691,1,0,2:0:0:0:
92,15,184785,1,0,2:0:0:0:
92,15,184879,6,0,L|83:101,1,56,2|0,3:2|2:0,0:0:0:0:
12,120,185066,1,0,2:0:0:0:
12,120,185160,1,0,2:0:0:0:
12,120,185254,1,8,2:0:0:0:
12,120,185347,1,0,2:0:0:0:
12,120,185441,1,0,2:0:0:0:
12,120,185535,1,0,2:0:0:0:
12,120,185629,6,0,L|3:34,1,56,2|0,3:2|2:0,0:0:0:0:
77,232,185816,2,0,L|68:318,1,56,0|0,2:0|2:0,0:0:0:0:
126,167,186004,1,8,2:0:0:0:
167,158,186097,1,0,2:0:0:0:
208,149,186191,1,0,2:0:0:0:
249,139,186285,1,0,2:0:0:0:
290,130,186379,6,0,L|360:145,1,56,6|0,3:2|2:0,0:0:0:0:
434,213,186566,1,0,2:0:0:0:
434,213,186660,1,0,2:0:0:0:
434,213,186754,1,8,2:0:0:0:
434,213,186847,1,0,2:0:0:0:
434,213,186941,1,0,2:0:0:0:
434,213,187035,1,0,2:0:0:0:
434,213,187129,6,0,L|364:226,1,56,2|0,3:2|2:0,0:0:0:0:
275,274,187316,1,0,2:0:0:0:
275,274,187410,1,0,2:0:0:0:
275,274,187504,1,8,2:0:0:0:
275,274,187597,1,0,2:0:0:0:
275,274,187691,1,0,2:0:0:0:
275,274,187785,1,0,2:0:0:0:
275,274,187879,6,0,L|345:287,1,56,2|0,3:2|2:0,0:0:0:0:
387,360,188066,1,0,2:0:0:0:
387,360,188160,1,0,2:0:0:0:
387,360,188254,2,0,L|294:375,1,56,8|0,2:0|2:0,2:0:0:0:
164,379,188441,5,2,2:0:0:0:
129,338,188534,1,2,2:0:0:0:
138,285,188629,2,0,P|122:222|147:167,1,112,2|0,3:2|2:0,2:0:0:0:
235,195,188910,2,0,P|220:133|245:78,1,112,2|0,2:0|2:0,2:0:0:0:
145,168,189191,2,0,L|78:148,1,56,2|0,2:0|2:0,2:0:0:0:
15,129,189379,5,2,3:2:0:0:
8,86,189472,1,0,2:0:0:0:
28,47,189566,1,0,2:0:0:0:
68,28,189660,1,0,2:0:0:0:
111,37,189754,1,8,2:0:0:0:
140,70,189847,1,0,2:0:0:0:
141,114,189940,1,0,2:0:0:0:
167,150,190034,1,0,2:0:0:0:
208,166,190128,1,2,3:2:0:0:
251,158,190222,1,0,2:0:0:0:
283,127,190315,1,0,2:0:0:0:
292,83,190409,1,0,2:0:0:0:
276,42,190504,2,0,L|206:33,3,56,8|0|0|0,2:0|2:0|2:0|2:0,0:0:0:0:
362,41,190879,5,2,3:2:0:0:
411,15,190972,1,0,2:0:0:0:
464,27,191066,1,0,2:0:0:0:
496,72,191160,1,0,2:0:0:0:
490,127,191254,2,0,L|476:194,3,56,8|0|0|0,2:0|2:0|2:0|2:0,0:0:0:0:
393,203,191629,5,2,3:2:0:0:
345,177,191722,1,0,2:0:0:0:
292,189,191816,1,0,2:0:0:0:
260,234,191910,1,0,2:0:0:0:
266,289,192004,2,0,L|280:357,3,56,8|0|0|0,3:2|3:0|3:0|3:0,2:0:0:0:
210,384,192379,6,0,L|126:366,1,56,6|0,3:2|2:0,0:0:0:0:
5,318,192566,1,0,2:0:0:0:
5,318,192660,1,0,2:0:0:0:
5,318,192754,1,8,2:0:0:0:
5,318,192847,1,0,2:0:0:0:
5,318,192941,1,0,2:0:0:0:
5,318,193035,1,0,2:0:0:0:
5,318,193129,6,0,L|89:300,1,56,2|0,3:2|2:0,0:0:0:0:
171,260,193316,1,0,2:0:0:0:
171,260,193410,1,0,2:0:0:0:
171,260,193504,1,8,2:0:0:0:
171,260,193597,1,0,2:0:0:0:
171,260,193691,1,0,2:0:0:0:
171,260,193785,1,0,2:0:0:0:
171,260,193879,6,0,L|87:242,1,56,2|0,3:2|2:0,0:0:0:0:
31,172,194066,1,0,2:0:0:0:
31,172,194160,1,0,2:0:0:0:
31,172,194254,2,0,L|115:154,1,56,8|0,2:0|2:0,2:0:0:0:
237,82,194441,5,2,2:0:0:0:
278,117,194534,1,2,2:0:0:0:
265,168,194629,2,0,P|245:229|268:289,1,112,2|0,3:2|2:0,2:0:0:0:
365,222,194910,2,0,P|346:284|369:344,1,112,2|0,2:0|2:0,2:0:0:0:
252,286,195191,2,0,L|320:271,1,56,2|0,2:0|2:0,2:0:0:0:
159,346,195379,6,0,P|158:281|194:216,1,112,2|0,3:2|2:0,2:0:0:0:
176,239,195660,1,2,2:0:0:0:
176,239,195754,2,0,L|115:221,1,56,8|0,2:0|2:0,2:0:0:0:
32,309,195941,2,0,L|94:291,1,56,2|0,2:0|2:0,2:0:0:0:
38,191,196129,6,0,P|39:126|3:61,1,112,2|0,3:2|2:0,2:0:0:0:
21,84,196410,1,2,2:0:0:0:
21,84,196504,2,0,L|83:66,1,56,8|0,2:0|2:0,2:0:0:0:
165,154,196691,2,0,L|104:136,1,56,2|0,2:0|0:0,2:0:0:0:
31,0,196879,5,0,3:0:0:0:
254,54,197066,2,0,P|274:113|258:175,1,112,2|8,2:0|2:0,2:0:0:0:
260,358,197441,1,0,2:0:0:0:
260,358,197535,1,0,2:0:0:0:
260,358,197629,6,0,P|251:319|246:286,1,56,2|0,3:2|2:0,0:0:0:0:
185,371,197816,2,0,P|176:332|171:299,1,56,0|0,2:0|2:0,0:0:0:0:
307,255,198004,2,0,P|316:216|321:183,1,56,8|0,2:0|2:0,2:0:0:0:
382,268,198191,2,0,P|391:229|396:196,1,56,0|0,2:0|2:0,2:0:0:0:
227,119,198379,6,0,B|297:104|258:90|348:72,1,112,2|0,3:2|2:0,2:0:0:0:
410,105,198660,2,0,B|480:90|441:76|531:58,1,112,2|0,2:0|2:0,2:0:0:0:
341,63,198941,6,0,L|328:125,1,56,2|0,2:0|2:0,2:0:0:0:
490,160,199129,2,0,L|477:222,3,56,2|0|0|0,3:2|2:0|2:0|2:0,0:0:0:0:
402,226,199504,6,0,P|408:260|401:297,1,56,8|0,2:0|2:0,2:0:0:0:
509,300,199691,2,0,P|515:334|508:371,1,56,0|0,2:0|2:0,2:0:0:0:
430,358,199879,5,0,3:0:0:0:
381,383,199972,1,0,2:0:0:0:
327,374,200066,1,0,2:0:0:0:
287,335,200160,1,0,2:0:0:0:
278,281,200254,2,0,L|193:300,1,56,8|0,2:0|2:0,2:0:0:0:
145,312,200441,5,2,2:0:0:0:
145,312,200535,1,0,2:0:0:0:
145,312,200629,2,0,P|81:291|27:299,1,112,2|0,3:2|2:0,2:0:0:0:
224,211,200910,2,0,P|160:190|106:198,1,112,2|0,2:0|2:0,2:0:0:0:
28,304,201191,2,0,L|16:231,1,56,2|0,2:0|2:0,2:0:0:0:
84,373,201379,5,6,3:2:0:0:
127,383,201472,1,0,2:0:0:0:
168,366,201566,1,0,2:0:0:0:
190,328,201660,1,0,2:0:0:0:
185,284,201754,1,8,2:0:0:0:
155,252,201847,1,0,2:0:0:0:
112,244,201941,1,0,2:0:0:0:
71,227,202034,1,0,2:0:0:0:
45,191,202128,1,0,3:0:0:0:
41,147,202222,1,0,2:0:0:0:
61,108,202316,1,0,2:0:0:0:
99,84,202410,1,0,2:0:0:0:
143,84,202504,2,0,L|151:147,3,56,8|0|0|0,2:0|2:0|2:0|2:0,0:0:0:0:
133,213,202879,5,6,3:2:0:0:
168,239,202972,1,0,2:0:0:0:
212,238,203066,1,0,2:0:0:0:
248,212,203160,1,0,2:0:0:0:
261,170,203254,1,8,2:0:0:0:
251,127,203347,1,0,2:0:0:0:
266,86,203441,1,0,2:0:0:0:
302,60,203535,1,0,2:0:0:0:
346,58,203629,1,0,3:0:0:0:
384,82,203722,1,0,2:0:0:0:
402,122,203816,1,0,2:0:0:0:
395,166,203910,1,0,2:0:0:0:
365,198,204004,2,0,L|307:187,3,56,8|0|0|0,2:0|2:0|2:0|2:0,0:0:0:0:
441,248,204379,5,6,3:2:0:0:
459,288,204472,1,0,2:0:0:0:
452,332,204566,1,0,2:0:0:0:
423,366,204660,1,0,2:0:0:0:
381,378,204754,1,8,2:0:0:0:
339,366,204847,1,0,2:0:0:0:
309,333,204941,1,0,2:0:0:0:
302,290,205035,1,0,2:0:0:0:
305,246,205129,1,0,3:0:0:0:
281,210,205223,1,0,2:0:0:0:
239,196,205317,1,0,2:0:0:0:
198,212,205411,1,0,2:0:0:0:
175,250,205504,2,0,L|187:308,3,56,8|0|0|0,2:0|2:0|2:0|2:0,0:0:0:0:
134,362,205879,5,6,3:2:0:0:
79,360,205972,1,0,2:0:0:0:
31,331,206066,1,0,2:0:0:0:
4,283,206160,1,0,2:0:0:0:
2,228,206254,1,8,2:0:0:0:
28,178,206347,1,0,2:0:0:0:
74,148,206441,1,0,2:0:0:0:
129,143,206535,1,0,2:0:0:0:
180,166,206629,5,0,3:0:0:0:
225,15,206816,2,0,L|236:85,1,56,8|0,2:0|0:0,0:0:0:0:
316,289,207004,5,8,2:0:0:0:
348,248,207097,1,0,3:0:0:0:
354,196,207191,1,8,3:2:0:0:
334,149,207285,1,8,3:2:0:0:
292,118,207379,1,6,3:2:0:0:
227,52,209441,6,0,P|238:86|258:168,1,105,2|0,0:0|0:0,0:0:0:0:
255,153,210035,6,0,P|318:158|348:111,2,105,2|2|2,0:0|0:0|0:0,0:0:0:0:
23,31,211350,1,0,0:0:0:0:
1,105,211613,1,0,0:0:0:0:
74,131,211877,1,0,0:0:0:0:
218,66,212140,6,0,B|151:52|177:72|92:60,2,105
272,13,213221,1,2,0:0:0:0:
321,104,213491,1,2,0:0:0:0:
228,182,213761,1,2,0:0:0:0:
317,284,214031,1,2,0:0:0:0:
198,371,214302,6,0,P|185:318|203:243,2,105,2|2|2,0:0|0:0|0:0,0:0:0:0:
396,187,215413,2,0,P|409:240|391:315,2,105,2|2|2,0:0|0:0|0:0,0:0:0:0:
498,368,216524,6,0,P|448:346|268:330,1,210,2|0,0:0|0:0,0:0:0:0:
167,363,217605,2,0,P|203:368|242:377,1,70,2|0,0:0|0:0,0:0:0:0:
55,311,218145,2,0,P|91:306|130:297,1,70,2|0,0:0|0:0,0:0:0:0:
7,374,218686,6,0,B|22:238|60:313|73:152,1,210,2|2,0:0|0:0,0:0:0:0:
486,207,220337,1,2,0:0:0:0:
486,207,220612,1,2,0:0:0:0:
461,281,220887,6,0,B|446:145|408:220|395:59,1,210,2|2,0:0|0:0,0:0:0:0:
233,0,222263,2,0,P|247:50|265:118,1,105,2|0,0:0|0:0,0:0:0:0:
236,282,223089,6,0,P|250:332|268:400,2,105,2|2|2,0:0|0:0|0:0,0:0:0:0:
286,148,224160,1,2,0:0:0:0:
212,162,224428,1,2,0:0:0:0:
226,236,224696,1,2,0:0:0:0:
300,222,224964,1,2,0:0:0:0:
168,120,225231,6,0,P|108:132|24:146,1,140,2|0,0:0|0:0,0:0:0:0:
344,264,226056,2,0,P|404:252|488:238,1,140,2|0,0:0|0:0,0:0:0:0:
263,147,226882,2,0,P|256:191|249:227,1,70,2|0,0:0|0:0,0:0:0:0:
182,94,227488,6,0,P|159:138|212:285,1,210,2|0,0:0|0:0,0:0:0:0:
412,178,228815,2,0,B|454:172|445:182|493:174,2,70,2|2|0,0:0|0:0|0:0,0:0:0:0:
365,245,229611,6,0,P|294:231|144:215,1,210,2|2,0:0|0:0,0:0:0:0:
462,121,230974,2,0,L|389:131,2,70,0|2|0,0:0|0:0|0:0,0:0:0:0:
508,51,231792,5,0,0:0:0:0:
441,11,232077,1,0,0:0:0:0:
423,89,232363,1,0,0:0:0:0:
335,62,232663,1,0,0:0:0:0:
337,155,232963,1,0,0:0:0:0:
222,163,233263,1,0,0:0:0:0:
263,279,233563,1,0,0:0:0:0:
111,190,233892,1,0,0:0:0:0:
0,316,234222,2,2,L|3:332,3,11.6666666666667
256,192,234499,12,0,238388,0:0:0:0:
