osu file format v14

[General]
AudioFilename: audio.mp3
AudioLeadIn: 0
PreviewTime: 73572
Countdown: 0
SampleSet: Normal
StackLeniency: 0.7
Mode: 1
LetterboxInBreaks: 0
WidescreenStoryboard: 1

[Editor]
DistanceSpacing: 0.8
BeatDivisor: 16
GridSize: 32
TimelineZoom: 3.099998

[Metadata]
Title:Stella
TitleUnicode:ステラ
Artist:Leo/need x Hatsune Miku
ArtistUnicode:Leo/need × 初音ミク
Creator:Nanatsu
Version:Oni
Source:プロジェクトセカイ カラフルステージ! feat. 初音ミク
Tags:project sekai colorful stage featuring hatsune miku proseka プロセカ japanese レオニード レオニ 星乃 一歌 ほしの いちか hoshino ichika 天馬 咲希 てんま さき tenma saki 望月 穂波 もちづき ほなみ mochizuki honami 日野森 志歩 ひのもり しほ hinomori shiho vocaloid cover video game じん jin 自然の敵P shizen no teki P stage! prsk ボーカロイド pop j-pop jpop jrock j-rock rock sutera
BeatmapID:4251153
BeatmapSetID:2035756

[Difficulty]
HPDrainRate:5
CircleSize:5
OverallDifficulty:6
ApproachRate:5
SliderMultiplier:1.4
SliderTickRate:1

[Events]
//Background and Video events
0,0,"Ej3-pUUU8AAlSKR.jpg",0,20
Video,-3397,"output.mp4"
//Break Periods
//Storyboard Layer 0 (Background)
//Storyboard Layer 1 (Fail)
//Storyboard Layer 2 (Pass)
//Storyboard Layer 3 (Foreground)
//Storyboard Layer 4 (Overlay)
//Storyboard Sound Samples

[TimingPoints]
15,304.568527918782,4,1,0,40,1,8
1233,304.568527918782,4,1,0,30,1,0
1233,-125,4,1,0,30,0,0
19488,-125,4,1,0,40,0,0
21334,-125,4,1,0,40,0,0
21486,-125,4,1,0,45,0,0
21639,-125,4,1,0,50,0,0
21791,-125,4,1,0,55,0,0
21943,-125,4,1,0,60,0,0
22095,-125,4,1,0,65,0,0
22248,-125,4,1,0,70,0,0
22400,-125,4,1,0,75,0,0
22552,-125,4,1,0,80,0,0
22686,-100,4,1,0,80,0,0
23161,304.568527918782,4,1,0,80,1,0
42634,-100,4,1,0,60,0,0
52380,-100,4,1,0,70,0,0
73548,-99.502487562189,4,1,0,70,0,0
73700,-99.009900990099,4,1,0,70,0,0
73852,-98.0392156862745,4,1,0,70,0,0
74309,-98.0392156862745,4,1,0,100,0,0
74328,304.568527918782,4,1,0,100,1,1
74328,-97.0873786407767,4,1,0,100,0,1
74613,-95.2380952380952,4,1,0,100,0,1
117576,-97.5609756097561,4,1,0,100,0,1
118185,-97.5609756097561,4,1,0,100,0,0
118471,-97.5609756097561,4,1,0,80,0,0
126713,-100,4,1,0,75,0,0
127018,-100,4,1,0,70,0,0
127322,-100,4,1,0,65,0,0
127627,-100,4,1,0,60,0,0
127932,-100,4,1,0,55,0,0
128236,-100,4,1,0,50,0,0
128541,-100,4,1,0,45,0,0
128845,-100,4,1,0,40,0,0
129150,-100,4,1,0,35,0,0
129454,-100,4,1,0,30,0,0
129759,-100,4,1,0,25,0,0
130064,-100,4,1,0,20,0,0
130368,-100,4,1,0,15,0,0

[HitObjects]
346,192,1233,5,2,0:0:0:0:
252,180,1385,1,0,0:0:0:0:
402,192,1538,1,2,0:0:0:0:
122,192,1690,1,0,0:0:0:0:
458,192,1994,1,0,0:0:0:0:
178,192,2147,1,2,0:0:0:0:
234,192,2451,1,2,0:0:0:0:
66,192,2604,1,2,0:0:0:0:
346,192,2756,1,0,0:0:0:0:
192,275,2908,1,0,0:0:0:0:
10,192,3213,1,2,0:0:0:0:
402,192,3365,1,0,0:0:0:0:
122,192,3517,1,0,0:0:0:0:
458,192,3670,1,2,0:0:0:0:
178,192,3974,1,0,0:0:0:0:
290,192,4126,1,2,0:0:0:0:
234,192,4431,1,0,0:0:0:0:
66,192,4583,1,2,0:0:0:0:
346,192,4736,1,0,0:0:0:0:
10,192,4888,1,2,0:0:0:0:
149,162,5192,1,0,0:0:0:0:
122,192,5344,1,2,0:0:0:0:
234,192,5649,1,0,0:0:0:0:
178,192,6106,1,2,0:0:0:0:
290,192,6258,1,2,0:0:0:0:
234,192,6411,1,0,0:0:0:0:
66,192,6563,1,2,0:0:0:0:
346,192,6868,1,2,0:0:0:0:
10,192,7020,1,0,0:0:0:0:
122,192,7324,1,2,0:0:0:0:
395,207,7476,1,0,0:0:0:0:
178,192,7629,1,0,0:0:0:0:
89,187,7781,1,2,0:0:0:0:
290,192,8086,1,0,0:0:0:0:
234,192,8238,1,2,0:0:0:0:
168,174,8390,1,2,0:0:0:0:
346,192,8543,1,0,0:0:0:0:
10,192,8847,1,0,0:0:0:0:
402,192,9000,1,2,0:0:0:0:
122,192,9304,1,2,0:0:0:0:
458,192,9456,1,2,0:0:0:0:
178,192,9609,1,0,0:0:0:0:
164,118,9760,1,2,0:0:0:0:
227,182,10065,1,0,0:0:0:0:
290,192,10218,1,2,0:0:0:0:
237,247,10522,1,0,0:0:0:0:
346,192,10979,1,2,0:0:0:0:
10,192,11436,1,2,0:0:0:0:
402,192,11588,1,0,0:0:0:0:
122,192,11741,1,2,0:0:0:0:
178,192,12045,1,0,0:0:0:0:
290,192,12197,1,2,0:0:0:0:
234,192,12350,1,2,0:0:0:0:
66,192,12502,1,0,0:0:0:0:
215,195,12654,1,2,0:0:0:0:
346,192,12959,1,2,0:0:0:0:
10,192,13111,1,0,0:0:0:0:
165,227,13263,1,0,0:0:0:0:
122,192,13416,1,2,0:0:0:0:
458,192,13720,1,2,0:0:0:0:
178,192,13873,1,0,0:0:0:0:
290,192,14177,1,0,0:0:0:0:
234,192,14329,1,2,0:0:0:0:
226,129,14481,1,2,0:0:0:0:
346,192,14634,1,0,0:0:0:0:
199,148,14938,1,2,0:0:0:0:
10,192,15091,1,0,0:0:0:0:
209,229,15395,1,0,0:0:0:0:
458,192,15852,1,2,0:0:0:0:
178,192,16005,1,0,0:0:0:0:
290,192,16157,1,2,0:0:0:0:
234,192,16309,1,0,0:0:0:0:
66,192,16614,1,2,0:0:0:0:
346,192,16918,1,2,0:0:0:0:
10,192,17071,1,2,0:0:0:0:
402,192,17222,1,0,0:0:0:0:
122,192,17375,1,2,0:0:0:0:
458,192,17832,1,0,0:0:0:0:
290,192,17984,1,2,0:0:0:0:
234,192,18289,1,2,0:0:0:0:
123,178,18441,1,2,0:0:0:0:
346,192,18593,1,0,0:0:0:0:
10,192,18746,1,2,0:0:0:0:
402,192,19050,1,2,0:0:0:0:
122,192,19203,1,0,0:0:0:0:
227,96,19354,1,2,0:0:0:0:
210,84,19507,1,2,0:0:0:0:
178,192,19659,1,0,0:0:0:0:
290,192,19812,1,2,0:0:0:0:
234,192,19964,1,2,0:0:0:0:
66,192,20269,1,2,0:0:0:0:
346,192,20421,1,2,0:0:0:0:
10,192,20573,1,0,0:0:0:0:
402,192,20877,1,2,0:0:0:0:
122,192,21030,1,0,0:0:0:0:
458,192,21182,1,2,0:0:0:0:
256,192,21334,12,0,22552,0:0:0:0:
93,169,22705,5,0,0:0:0:0:
103,174,22781,1,0,0:0:0:0:
109,184,22857,1,2,0:0:0:0:
209,219,23009,1,0,0:0:0:0:
178,192,23161,5,6,0:0:0:0:
264,186,23313,1,0,0:0:0:0:
228,114,23389,1,0,0:0:0:0:
290,192,23465,1,0,0:0:0:0:
234,192,23617,1,2,0:0:0:0:
66,192,23922,5,2,0:0:0:0:
314,285,23998,1,0,0:0:0:0:
197,173,24074,1,0,0:0:0:0:
346,192,24227,1,2,0:0:0:0:
402,192,24531,1,0,0:0:0:0:
170,170,24683,1,2,0:0:0:0:
122,192,24836,1,0,0:0:0:0:
458,192,24988,1,2,0:0:0:0:
178,192,25141,1,2,0:0:0:0:
231,209,25216,1,2,0:0:0:0:
290,192,25293,1,0,0:0:0:0:
234,192,25445,1,2,0:0:0:0:
66,192,25598,1,6,0:0:0:0:
222,190,25749,1,0,0:0:0:0:
346,192,25902,1,0,0:0:0:0:
202,186,25978,1,0,0:0:0:0:
10,192,26054,1,2,0:0:0:0:
402,192,26359,1,0,0:0:0:0:
205,159,26511,1,0,0:0:0:0:
122,192,26664,1,2,0:0:0:0:
178,192,26968,1,2,0:0:0:0:
290,192,27120,1,0,0:0:0:0:
234,192,27273,1,0,0:0:0:0:
66,192,27425,1,2,0:0:0:0:
346,192,27577,1,2,0:0:0:0:
143,158,27653,1,2,0:0:0:0:
10,192,27730,1,0,0:0:0:0:
233,135,27805,1,0,0:0:0:0:
402,192,27882,1,2,0:0:0:0:
122,192,28034,1,6,0:0:0:0:
213,165,28186,1,0,0:0:0:0:
458,192,28339,1,0,0:0:0:0:
138,181,28414,1,0,0:0:0:0:
178,192,28491,1,2,0:0:0:0:
116,204,28795,1,2,0:0:0:0:
165,104,28947,1,0,0:0:0:0:
234,192,29100,1,2,0:0:0:0:
66,192,29404,1,0,0:0:0:0:
346,192,29557,1,2,0:0:0:0:
10,192,29709,1,0,0:0:0:0:
402,192,29861,1,2,0:0:0:0:
122,192,30014,1,2,0:0:0:0:
146,174,30089,1,2,0:0:0:0:
458,192,30166,1,0,0:0:0:0:
178,192,30318,1,2,0:0:0:0:
290,192,30471,1,6,0:0:0:0:
168,103,30622,1,0,0:0:0:0:
234,192,30775,1,0,0:0:0:0:
168,103,30851,1,0,0:0:0:0:
66,192,30927,1,2,0:0:0:0:
346,192,31232,1,0,0:0:0:0:
182,153,31384,1,0,0:0:0:0:
10,192,31537,1,2,0:0:0:0:
122,192,31841,1,0,0:0:0:0:
458,192,31993,1,2,0:0:0:0:
178,192,32146,1,0,0:0:0:0:
290,192,32298,1,2,0:0:0:0:
234,192,32450,1,0,0:0:0:0:
202,182,32526,1,2,0:0:0:0:
66,192,32603,1,0,0:0:0:0:
346,192,32755,1,2,0:0:0:0:
10,192,32907,1,6,0:0:0:0:
402,192,33212,1,2,0:0:0:0:
122,192,33364,1,0,0:0:0:0:
458,192,33516,1,0,0:0:0:0:
246,227,33668,1,2,0:0:0:0:
246,227,33744,1,0,0:0:0:0:
178,192,33821,1,2,0:0:0:0:
290,192,33973,1,2,0:0:0:0:
234,192,34125,1,0,0:0:0:0:
160,213,34277,1,0,0:0:0:0:
66,192,34430,1,2,0:0:0:0:
10,192,34735,1,0,0:0:0:0:
402,192,34887,1,2,0:0:0:0:
122,192,35039,1,2,0:0:0:0:
178,192,35344,1,2,0:0:0:0:
290,192,35648,1,2,0:0:0:0:
234,192,35801,1,0,0:0:0:0:
66,192,35953,1,2,0:0:0:0:
346,192,36105,1,2,0:0:0:0:
246,227,36181,1,0,0:0:0:0:
10,192,36257,1,0,0:0:0:0:
246,227,36409,1,0,0:0:0:0:
402,192,36562,1,2,0:0:0:0:
458,192,36867,1,2,0:0:0:0:
178,192,37019,1,0,0:0:0:0:
290,192,37171,1,2,0:0:0:0:
174,174,37247,1,2,0:0:0:0:
234,192,37323,1,2,0:0:0:0:
66,192,37476,1,0,0:0:0:0:
346,192,37780,1,6,0:0:0:0:
10,192,38085,1,0,0:0:0:0:
402,192,38237,1,2,0:0:0:0:
122,192,38389,1,2,0:0:0:0:
168,175,38541,1,0,0:0:0:0:
168,175,38617,1,0,0:0:0:0:
458,192,38694,1,2,0:0:0:0:
217,152,38846,1,0,0:0:0:0:
178,192,38999,1,2,0:0:0:0:
161,180,39150,1,0,0:0:0:0:
290,192,39303,1,2,0:0:0:0:
234,192,39608,1,2,0:0:0:0:
66,192,39760,1,2,0:0:0:0:
346,192,39912,1,0,0:0:0:0:
208,185,40064,1,0,0:0:0:0:
10,192,40217,1,2,0:0:0:0:
402,192,40521,1,0,0:0:0:0:
122,192,40674,1,2,0:0:0:0:
204,166,40825,1,0,0:0:0:0:
458,192,40978,1,2,0:0:0:0:
210,168,41054,1,0,0:0:0:0:
132,164,41130,1,0,0:0:0:0:
178,192,41283,1,0,0:0:0:0:
290,192,41435,1,2,0:0:0:0:
203,138,41587,1,2,0:0:0:0:
66,192,41740,1,2,0:0:0:0:
204,183,41815,1,2,0:0:0:0:
143,145,41891,1,0,0:0:0:0:
143,145,41968,1,0,0:0:0:0:
10,192,42044,1,2,0:0:0:0:
402,192,42196,1,2,0:0:0:0:
122,192,42348,1,2,0:0:0:0:
335,285,42424,1,2,0:0:0:0:
458,192,42501,1,0,0:0:0:0:
178,192,42653,1,6,0:0:0:0:
234,192,42958,1,0,0:0:0:0:
66,192,43110,1,2,0:0:0:0:
346,192,43415,1,2,0:0:0:0:
10,192,43567,1,0,0:0:0:0:
122,192,43872,1,2,0:0:0:0:
458,192,44024,1,0,0:0:0:0:
178,192,44176,1,2,0:0:0:0:
317,169,44480,1,0,0:0:0:0:
190,231,44633,1,2,0:0:0:0:
234,192,44785,1,2,0:0:0:0:
66,192,44938,1,0,0:0:0:0:
346,192,45090,1,2,0:0:0:0:
402,192,45395,1,0,0:0:0:0:
122,192,45547,1,2,0:0:0:0:
458,192,45851,1,0,0:0:0:0:
178,192,46004,1,2,0:0:0:0:
290,192,46156,1,2,0:0:0:0:
278,174,46308,1,0,0:0:0:0:
278,174,46612,1,0,0:0:0:0:
278,174,46917,1,2,0:0:0:0:
278,174,47221,1,0,0:0:0:0:
234,192,47526,1,2,0:0:0:0:
346,192,47831,1,0,0:0:0:0:
10,192,47983,1,2,0:0:0:0:
402,192,48288,1,0,0:0:0:0:
122,192,48440,1,2,0:0:0:0:
178,192,48745,1,2,0:0:0:0:
290,192,48896,1,0,0:0:0:0:
234,192,49049,1,2,0:0:0:0:
223,159,49353,1,0,0:0:0:0:
66,192,49506,1,2,0:0:0:0:
346,192,49658,1,2,0:0:0:0:
402,192,49963,1,2,0:0:0:0:
122,192,50268,1,0,0:0:0:0:
458,192,50420,1,2,0:0:0:0:
195,110,50572,1,2,0:0:0:0:
447,321,50724,1,0,0:0:0:0:
234,192,50877,1,2,0:0:0:0:
66,192,51029,1,0,0:0:0:0:
346,192,51334,1,2,0:0:0:0:
10,192,51486,1,2,0:0:0:0:
133,146,51638,1,0,0:0:0:0:
122,192,51790,1,0,0:0:0:0:
458,192,51943,1,2,0:0:0:0:
178,192,52400,1,6,0:0:0:0:
170,189,52704,1,0,0:0:0:0:
290,192,52856,1,2,0:0:0:0:
234,192,53009,1,2,0:0:0:0:
66,192,53161,1,0,0:0:0:0:
10,192,53466,1,2,0:0:0:0:
402,192,53618,1,2,0:0:0:0:
122,192,53770,1,0,0:0:0:0:
307,234,53846,1,0,0:0:0:0:
458,192,53922,1,2,0:0:0:0:
307,234,54226,1,0,0:0:0:0:
178,192,54379,1,2,0:0:0:0:
290,192,54532,1,2,0:0:0:0:
234,192,54684,1,0,0:0:0:0:
66,192,54836,1,2,0:0:0:0:
233,157,54912,1,0,0:0:0:0:
233,157,54988,1,0,0:0:0:0:
346,192,55141,1,2,0:0:0:0:
10,192,55293,1,0,0:0:0:0:
402,192,55598,1,2,0:0:0:0:
325,221,55673,1,0,0:0:0:0:
122,192,55750,1,2,0:0:0:0:
458,192,55902,1,2,0:0:0:0:
133,172,56054,1,0,0:0:0:0:
140,181,56358,1,2,0:0:0:0:
152,162,56511,1,2,0:0:0:0:
152,163,56663,1,0,0:0:0:0:
154,169,56968,1,2,0:0:0:0:
142,188,57120,1,0,0:0:0:0:
246,246,57196,1,0,0:0:0:0:
178,192,57273,1,2,0:0:0:0:
290,192,57425,1,0,0:0:0:0:
234,192,57577,1,2,0:0:0:0:
66,192,57730,1,2,0:0:0:0:
183,86,57881,1,0,0:0:0:0:
346,192,58034,1,2,0:0:0:0:
172,159,58110,1,2,0:0:0:0:
10,192,58186,1,0,0:0:0:0:
402,192,58339,1,2,0:0:0:0:
122,192,58491,1,2,0:0:0:0:
458,192,58643,1,0,0:0:0:0:
178,192,58796,1,2,0:0:0:0:
214,195,59100,1,0,0:0:0:0:
290,192,59252,1,2,0:0:0:0:
234,192,59405,1,2,0:0:0:0:
66,192,59557,1,0,0:0:0:0:
346,192,59709,1,2,0:0:0:0:
170,161,60013,1,0,0:0:0:0:
10,192,60166,1,0,0:0:0:0:
219,178,60242,1,0,0:0:0:0:
402,192,60318,1,2,0:0:0:0:
170,161,60470,1,0,0:0:0:0:
186,169,60622,1,0,0:0:0:0:
122,192,60775,1,2,0:0:0:0:
458,192,60928,1,2,0:0:0:0:
290,192,61003,1,2,0:0:0:0:
181,189,61079,1,0,0:0:0:0:
181,191,61155,1,0,0:0:0:0:
181,194,61232,1,2,0:0:0:0:
178,192,61384,1,0,0:0:0:0:
226,237,61536,1,2,0:0:0:0:
271,172,61688,1,2,0:0:0:0:
238,152,61764,1,2,0:0:0:0:
254,177,61841,1,0,0:0:0:0:
234,192,62145,1,6,0:0:0:0:
173,162,62450,1,0,0:0:0:0:
66,192,62603,1,2,0:0:0:0:
346,192,62907,1,2,0:0:0:0:
104,155,63059,1,2,0:0:0:0:
402,192,63211,1,0,0:0:0:0:
122,192,63516,1,2,0:0:0:0:
131,159,63668,1,0,0:0:0:0:
458,192,63821,1,2,0:0:0:0:
178,68,64277,1,0,0:0:0:0:
178,192,64430,1,2,0:0:0:0:
290,192,64582,1,6,0:0:0:0:
234,192,64887,1,0,0:0:0:0:
66,192,65039,1,2,0:0:0:0:
346,192,65344,1,2,0:0:0:0:
165,74,65495,1,0,0:0:0:0:
402,192,65648,1,2,0:0:0:0:
122,192,65953,1,0,0:0:0:0:
458,192,66105,1,2,0:0:0:0:
178,192,66257,1,2,0:0:0:0:
168,229,66714,1,0,0:0:0:0:
290,192,66867,1,2,0:0:0:0:
234,192,67019,1,4,0:0:0:0:
66,192,67323,1,0,0:0:0:0:
346,192,67476,1,2,0:0:0:0:
10,192,67780,1,0,0:0:0:0:
402,192,68085,1,2,0:0:0:0:
122,192,68389,1,2,0:0:0:0:
145,137,68541,1,0,0:0:0:0:
458,192,68694,1,2,0:0:0:0:
178,192,68999,1,2,0:0:0:0:
290,192,69151,1,0,0:0:0:0:
267,237,69303,1,0,0:0:0:0:
66,192,69455,1,6,0:0:0:0:
346,192,69760,1,0,0:0:0:0:
10,192,69912,1,2,0:0:0:0:
209,174,70216,1,0,0:0:0:0:
402,192,70369,1,2,0:0:0:0:
122,192,70521,1,2,0:0:0:0:
458,192,70674,1,0,0:0:0:0:
178,192,70826,1,2,0:0:0:0:
199,176,70902,1,2,0:0:0:0:
290,192,70978,1,0,0:0:0:0:
234,192,71131,1,2,0:0:0:0:
66,192,71283,1,0,0:0:0:0:
346,192,71435,1,2,0:0:0:0:
10,192,71587,1,2,0:0:0:0:
160,151,71663,1,0,0:0:0:0:
402,192,71740,1,0,0:0:0:0:
122,192,71892,1,6,0:0:0:0:
190,158,72196,1,0,0:0:0:0:
458,192,72349,1,2,0:0:0:0:
194,164,72501,1,0,0:0:0:0:
194,164,72653,1,2,0:0:0:0:
178,192,72806,1,2,0:0:0:0:
257,165,72957,1,0,0:0:0:0:
290,192,73110,1,2,0:0:0:0:
205,165,73186,1,2,0:0:0:0:
177,165,73262,1,0,0:0:0:0:
177,165,73338,1,0,0:0:0:0:
234,192,73415,1,2,0:0:0:0:
66,192,73567,1,2,0:0:0:0:
346,192,73719,1,4,0:0:0:0:
10,192,73871,1,4,0:0:0:0:
458,192,74328,1,6,0:0:0:0:
178,192,74632,1,2,0:0:0:0:
175,180,74784,1,0,0:0:0:0:
290,192,74937,1,2,0:0:0:0:
320,141,75012,1,2,0:0:0:0:
320,141,75088,1,0,0:0:0:0:
234,192,75241,1,2,0:0:0:0:
320,141,75393,1,0,0:0:0:0:
91,181,75469,1,0,0:0:0:0:
66,192,75546,1,2,0:0:0:0:
320,141,75698,1,0,0:0:0:0:
17,173,75850,1,2,0:0:0:0:
71,176,76002,1,0,0:0:0:0:
221,135,76154,1,2,0:0:0:0:
158,165,76231,1,2,0:0:0:0:
90,187,76307,1,0,0:0:0:0:
402,192,76460,1,2,0:0:0:0:
122,192,76612,1,0,0:0:0:0:
170,248,76687,1,0,0:0:0:0:
458,192,76764,1,2,0:0:0:0:
115,182,76916,1,0,0:0:0:0:
178,192,77069,1,2,0:0:0:0:
216,193,77220,1,0,0:0:0:0:
205,193,77296,1,0,0:0:0:0:
290,192,77373,1,2,0:0:0:0:
205,193,77449,1,2,0:0:0:0:
208,205,77525,1,0,0:0:0:0:
234,192,77678,1,2,0:0:0:0:
281,261,77753,1,2,0:0:0:0:
281,261,77829,1,0,0:0:0:0:
172,190,77982,1,2,0:0:0:0:
172,190,78286,1,0,0:0:0:0:
66,192,78439,1,2,0:0:0:0:
346,192,78592,1,0,0:0:0:0:
10,192,78744,1,2,0:0:0:0:
245,252,78820,1,0,0:0:0:0:
402,192,78896,1,2,0:0:0:0:
122,192,79048,1,0,0:0:0:0:
458,192,79201,1,6,0:0:0:0:
178,192,79505,1,2,0:0:0:0:
238,180,79657,1,0,0:0:0:0:
290,192,79810,1,2,0:0:0:0:
146,162,79885,1,2,0:0:0:0:
217,232,79961,1,0,0:0:0:0:
234,192,80114,1,2,0:0:0:0:
179,167,80266,1,0,0:0:0:0:
189,236,80343,1,2,0:0:0:0:
66,192,80419,1,0,0:0:0:0:
174,170,80571,1,2,0:0:0:0:
346,192,80724,1,2,0:0:0:0:
183,184,80875,1,0,0:0:0:0:
10,192,81028,1,2,0:0:0:0:
226,84,81104,1,2,0:0:0:0:
170,174,81180,1,0,0:0:0:0:
402,192,81333,1,2,0:0:0:0:
138,187,81484,1,0,0:0:0:0:
138,187,81560,1,0,0:0:0:0:
122,192,81637,1,2,0:0:0:0:
194,201,81789,1,0,0:0:0:0:
458,192,81942,1,2,0:0:0:0:
138,187,82093,1,0,0:0:0:0:
191,226,82170,1,0,0:0:0:0:
178,192,82246,1,2,0:0:0:0:
168,31,82322,1,2,0:0:0:0:
138,187,82398,1,0,0:0:0:0:
290,192,82551,1,2,0:0:0:0:
164,275,82626,1,2,0:0:0:0:
164,275,82703,1,2,0:0:0:0:
103,190,82855,1,0,0:0:0:0:
214,190,83159,1,0,0:0:0:0:
234,192,83312,1,2,0:0:0:0:
261,205,83464,1,0,0:0:0:0:
66,192,83617,1,2,0:0:0:0:
287,270,83692,1,0,0:0:0:0:
346,192,83769,1,2,0:0:0:0:
10,192,83921,1,0,0:0:0:0:
402,192,84073,1,6,0:0:0:0:
122,192,84378,1,2,0:0:0:0:
332,266,84530,1,0,0:0:0:0:
458,192,84683,1,2,0:0:0:0:
312,203,84759,1,2,0:0:0:0:
332,266,84835,1,0,0:0:0:0:
178,192,84987,1,0,0:0:0:0:
290,192,85140,1,2,0:0:0:0:
221,155,85215,1,0,0:0:0:0:
197,224,85291,1,0,0:0:0:0:
234,192,85444,1,2,0:0:0:0:
66,192,85749,1,2,0:0:0:0:
346,192,85901,1,2,0:0:0:0:
147,201,85977,1,0,0:0:0:0:
10,192,86053,1,2,0:0:0:0:
402,192,86206,1,0,0:0:0:0:
122,192,86358,1,0,0:0:0:0:
458,192,86510,1,2,0:0:0:0:
145,162,86662,1,0,0:0:0:0:
177,159,86738,1,0,0:0:0:0:
290,192,86815,1,2,0:0:0:0:
284,199,86967,1,0,0:0:0:0:
234,192,87119,1,2,0:0:0:0:
141,170,87195,1,2,0:0:0:0:
238,174,87271,1,0,0:0:0:0:
187,302,87348,1,0,0:0:0:0:
66,192,87424,1,2,0:0:0:0:
204,312,87576,1,0,0:0:0:0:
297,206,87728,1,2,0:0:0:0:
346,192,88033,1,2,0:0:0:0:
171,188,88185,1,0,0:0:0:0:
243,96,88261,1,0,0:0:0:0:
10,192,88338,1,2,0:0:0:0:
165,187,88489,1,0,0:0:0:0:
402,192,88642,1,2,0:0:0:0:
165,187,88946,1,4,0:0:0:0:
122,192,89251,1,2,0:0:0:0:
19,165,89403,1,0,0:0:0:0:
64,171,89479,1,0,0:0:0:0:
458,192,89556,1,2,0:0:0:0:
151,195,89708,1,0,0:0:0:0:
178,192,89861,1,2,0:0:0:0:
151,195,90165,1,0,0:0:0:0:
290,192,90470,1,2,0:0:0:0:
120,180,90621,1,0,0:0:0:0:
234,192,90774,1,2,0:0:0:0:
179,167,90850,1,0,0:0:0:0:
179,167,90926,1,2,0:0:0:0:
66,192,91079,1,2,0:0:0:0:
200,197,91231,1,0,0:0:0:0:
346,192,91383,1,2,0:0:0:0:
200,197,91459,1,0,0:0:0:0:
200,197,91535,1,0,0:0:0:0:
10,192,91688,1,2,0:0:0:0:
200,197,91840,1,2,0:0:0:0:
200,197,91916,1,2,0:0:0:0:
200,197,91992,1,0,0:0:0:0:
122,192,92145,1,2,0:0:0:0:
458,192,92297,1,0,0:0:0:0:
178,192,92449,1,2,0:0:0:0:
200,197,92753,1,2,0:0:0:0:
200,197,92906,1,0,0:0:0:0:
234,192,93059,1,2,0:0:0:0:
79,196,93210,1,0,0:0:0:0:
266,198,93286,1,0,0:0:0:0:
66,192,93363,1,2,0:0:0:0:
215,180,93439,1,0,0:0:0:0:
346,192,93515,1,2,0:0:0:0:
10,192,93668,1,0,0:0:0:0:
402,192,93820,1,6,0:0:0:0:
122,192,94125,1,2,0:0:0:0:
458,192,94277,1,0,0:0:0:0:
178,192,94429,1,2,0:0:0:0:
207,105,94505,1,0,0:0:0:0:
207,105,94581,1,2,0:0:0:0:
290,192,94734,1,2,0:0:0:0:
187,168,94885,1,0,0:0:0:0:
280,202,94961,1,0,0:0:0:0:
234,192,95038,1,2,0:0:0:0:
66,192,95191,1,0,0:0:0:0:
346,192,95343,1,2,0:0:0:0:
104,172,95494,1,0,0:0:0:0:
10,192,95647,1,2,0:0:0:0:
180,140,95723,1,2,0:0:0:0:
166,206,95799,1,0,0:0:0:0:
402,192,95952,1,2,0:0:0:0:
122,192,96104,1,0,0:0:0:0:
217,285,96180,1,0,0:0:0:0:
458,192,96257,1,2,0:0:0:0:
180,177,96408,1,0,0:0:0:0:
178,192,96561,1,2,0:0:0:0:
166,206,96713,1,2,0:0:0:0:
344,280,96789,1,0,0:0:0:0:
290,192,96866,1,2,0:0:0:0:
202,194,96941,1,2,0:0:0:0:
203,196,97017,1,0,0:0:0:0:
234,192,97170,1,2,0:0:0:0:
338,297,97246,1,2,0:0:0:0:
338,297,97322,1,0,0:0:0:0:
213,191,97474,1,2,0:0:0:0:
210,110,97779,1,0,0:0:0:0:
66,192,97932,1,2,0:0:0:0:
346,192,98084,1,2,0:0:0:0:
10,192,98236,1,0,0:0:0:0:
176,162,98312,1,0,0:0:0:0:
402,192,98389,1,2,0:0:0:0:
122,192,98541,1,0,0:0:0:0:
458,192,98693,1,6,0:0:0:0:
178,192,98998,1,2,0:0:0:0:
290,192,99150,1,0,0:0:0:0:
234,192,99302,1,2,0:0:0:0:
156,153,99378,1,2,0:0:0:0:
215,227,99454,1,0,0:0:0:0:
66,192,99607,1,2,0:0:0:0:
221,220,99758,1,0,0:0:0:0:
221,221,99835,1,0,0:0:0:0:
346,192,99911,1,2,0:0:0:0:
221,221,100063,1,0,0:0:0:0:
10,192,100216,1,2,0:0:0:0:
221,221,100368,1,0,0:0:0:0:
402,192,100520,1,0,0:0:0:0:
109,161,100596,1,2,0:0:0:0:
226,168,100672,1,0,0:0:0:0:
122,192,100825,1,2,0:0:0:0:
205,228,100977,1,0,0:0:0:0:
240,198,101053,1,0,0:0:0:0:
458,192,101130,1,2,0:0:0:0:
117,174,101281,1,0,0:0:0:0:
223,158,101357,1,0,0:0:0:0:
178,192,101434,1,2,0:0:0:0:
262,74,101510,1,2,0:0:0:0:
144,158,101586,1,0,0:0:0:0:
290,192,101739,1,2,0:0:0:0:
144,158,101890,1,0,0:0:0:0:
234,192,102043,1,2,0:0:0:0:
327,292,102119,1,0,0:0:0:0:
109,245,102195,1,2,0:0:0:0:
226,169,102347,1,2,0:0:0:0:
195,125,102652,1,0,0:0:0:0:
66,192,102805,1,2,0:0:0:0:
340,300,102956,1,0,0:0:0:0:
346,192,103109,1,2,0:0:0:0:
340,300,103185,1,2,0:0:0:0:
10,192,103262,1,0,0:0:0:0:
402,192,103414,1,0,0:0:0:0:
122,192,103566,1,6,0:0:0:0:
458,192,103871,1,0,0:0:0:0:
332,301,104022,1,0,0:0:0:0:
251,178,104099,1,0,0:0:0:0:
178,192,104175,1,2,0:0:0:0:
257,279,104327,1,0,0:0:0:0:
290,192,104480,1,2,0:0:0:0:
234,192,104632,1,2,0:0:0:0:
203,150,104708,1,0,0:0:0:0:
66,192,104784,1,0,0:0:0:0:
346,192,104937,1,2,0:0:0:0:
197,198,105088,1,0,0:0:0:0:
10,192,105241,1,2,0:0:0:0:
402,192,105394,1,2,0:0:0:0:
212,175,105469,1,0,0:0:0:0:
122,192,105546,1,2,0:0:0:0:
225,194,105621,1,2,0:0:0:0:
225,194,105698,1,0,0:0:0:0:
290,192,105850,1,0,0:0:0:0:
178,192,106003,1,2,0:0:0:0:
115,197,106154,1,0,0:0:0:0:
234,192,106307,1,2,0:0:0:0:
134,165,106459,1,0,0:0:0:0:
148,167,106535,1,0,0:0:0:0:
66,192,106612,1,2,0:0:0:0:
198,188,106763,1,0,0:0:0:0:
346,192,106916,1,2,0:0:0:0:
198,188,107220,1,2,0:0:0:0:
10,192,107526,1,2,0:0:0:0:
174,177,107677,1,0,0:0:0:0:
204,72,107753,1,0,0:0:0:0:
402,192,107830,1,2,0:0:0:0:
235,181,107982,1,0,0:0:0:0:
122,192,108135,1,2,0:0:0:0:
305,230,108286,1,2,0:0:0:0:
305,234,108439,1,4,0:0:0:0:
115,213,108743,1,0,0:0:0:0:
217,226,108895,1,2,0:0:0:0:
458,192,109048,1,0,0:0:0:0:
397,299,109200,1,2,0:0:0:0:
178,192,109353,1,2,0:0:0:0:
238,212,109505,1,0,0:0:0:0:
290,192,109658,1,2,0:0:0:0:
148,197,109733,1,2,0:0:0:0:
148,197,109809,1,0,0:0:0:0:
144,220,109961,1,2,0:0:0:0:
170,202,110114,1,2,0:0:0:0:
234,192,110267,1,0,0:0:0:0:
357,318,110418,1,0,0:0:0:0:
357,318,110494,1,0,0:0:0:0:
66,192,110571,1,2,0:0:0:0:
346,192,110876,1,2,0:0:0:0:
174,169,110951,1,0,0:0:0:0:
162,168,111027,1,0,0:0:0:0:
147,221,111180,1,0,0:0:0:0:
177,194,111332,1,2,0:0:0:0:
147,221,111484,1,0,0:0:0:0:
182,212,111560,1,0,0:0:0:0:
182,212,111637,1,2,0:0:0:0:
201,205,111789,1,0,0:0:0:0:
182,212,111941,1,2,0:0:0:0:
202,165,112017,1,0,0:0:0:0:
218,158,112093,1,2,0:0:0:0:
194,203,112246,1,0,0:0:0:0:
10,192,112399,1,2,0:0:0:0:
233,216,112550,1,0,0:0:0:0:
402,192,112703,1,2,0:0:0:0:
230,221,112779,1,0,0:0:0:0:
122,192,112856,1,2,0:0:0:0:
213,135,112931,1,2,0:0:0:0:
458,192,113008,1,0,0:0:0:0:
184,199,113159,1,2,0:0:0:0:
290,192,113312,1,4,0:0:0:0:
234,192,113617,1,0,0:0:0:0:
66,192,113769,1,2,0:0:0:0:
301,324,113921,1,0,0:0:0:0:
346,192,114074,1,2,0:0:0:0:
204,178,114149,1,0,0:0:0:0:
275,319,114225,1,2,0:0:0:0:
10,192,114378,1,0,0:0:0:0:
267,265,114530,1,2,0:0:0:0:
154,184,114682,1,0,0:0:0:0:
172,191,114835,1,2,0:0:0:0:
223,166,114911,1,0,0:0:0:0:
223,166,114987,1,0,0:0:0:0:
223,166,115139,1,2,0:0:0:0:
214,232,115291,1,0,0:0:0:0:
402,192,115444,1,2,0:0:0:0:
122,192,115597,1,2,0:0:0:0:
458,192,115749,1,0,0:0:0:0:
217,215,115824,1,2,0:0:0:0:
181,155,115901,1,0,0:0:0:0:
142,183,115977,1,0,0:0:0:0:
178,192,116053,1,2,0:0:0:0:
290,192,116206,1,2,0:0:0:0:
234,192,116510,1,2,0:0:0:0:
184,159,116662,1,0,0:0:0:0:
66,192,116815,1,6,0:0:0:0:
10,192,117576,1,0,0:0:0:0:
402,192,117880,1,2,0:0:0:0:
300,208,118185,1,4,0:0:0:0:
244,209,118489,1,0,0:0:0:0:
245,214,118642,1,2,0:0:0:0:
191,199,118946,1,2,0:0:0:0:
191,199,119099,1,0,0:0:0:0:
193,206,119251,1,2,0:0:0:0:
233,202,119555,1,0,0:0:0:0:
233,202,119708,1,2,0:0:0:0:
201,185,119860,1,0,0:0:0:0:
458,192,120013,1,2,0:0:0:0:
284,235,120088,1,0,0:0:0:0:
190,181,120165,1,0,0:0:0:0:
178,192,120317,1,2,0:0:0:0:
201,168,120621,1,6,0:0:0:0:
249,135,120774,1,0,0:0:0:0:
249,135,120850,1,0,0:0:0:0:
183,136,120926,1,2,0:0:0:0:
228,242,121078,1,2,0:0:0:0:
275,323,121231,1,0,0:0:0:0:
291,221,121383,1,2,0:0:0:0:
291,221,121459,1,0,0:0:0:0:
288,226,121535,1,0,0:0:0:0:
261,204,121687,1,2,0:0:0:0:
160,164,121992,1,2,0:0:0:0:
200,168,122144,1,2,0:0:0:0:
214,188,122296,1,0,0:0:0:0:
214,185,122449,1,2,0:0:0:0:
263,157,122525,1,2,0:0:0:0:
129,185,122601,1,0,0:0:0:0:
165,190,122753,1,2,0:0:0:0:
217,208,122906,1,0,0:0:0:0:
234,192,123059,1,6,0:0:0:0:
213,208,123210,1,2,0:0:0:0:
204,168,123286,1,0,0:0:0:0:
66,192,123363,1,0,0:0:0:0:
346,192,123515,1,2,0:0:0:0:
248,177,123667,1,0,0:0:0:0:
10,192,123820,1,0,0:0:0:0:
233,268,123895,1,0,0:0:0:0:
247,177,123972,1,2,0:0:0:0:
402,192,124125,1,2,0:0:0:0:
122,192,124429,1,0,0:0:0:0:
458,192,124581,1,2,0:0:0:0:
214,118,124733,1,0,0:0:0:0:
136,200,124885,1,2,0:0:0:0:
214,276,124961,1,0,0:0:0:0:
212,208,125038,1,2,0:0:0:0:
212,208,125190,1,2,0:0:0:0:
93,206,125342,1,0,0:0:0:0:
234,216,125494,1,6,0:0:0:0:
93,206,125647,1,2,0:0:0:0:
210,230,125723,1,2,0:0:0:0:
205,233,125799,1,0,0:0:0:0:
202,236,125875,1,0,0:0:0:0:
202,236,125951,1,2,0:0:0:0:
128,162,126256,1,0,0:0:0:0:
179,195,126408,1,6,0:0:0:0:
178,201,126560,1,6,0:0:0:0:
256,192,126713,12,0,130368,0:0:0:0:
