osu file format v14

[General]
AudioFilename: audio.mp3
AudioLeadIn: 0
PreviewTime: 73572
Countdown: 0
SampleSet: Normal
StackLeniency: 0.7
Mode: 1
LetterboxInBreaks: 0
WidescreenStoryboard: 1

[Editor]
DistanceSpacing: 0.8
BeatDivisor: 16
GridSize: 32
TimelineZoom: 2.699999

[Metadata]
Title:Stella
TitleUnicode:ステラ
Artist:Leo/need x Hatsune Miku
ArtistUnicode:Leo/need × 初音ミク
Creator:Nanatsu
Version:Muzukashii
Source:プロジェクトセカイ カラフルステージ! feat. 初音ミク
Tags:project sekai colorful stage featuring hatsune miku proseka プロセカ japanese レオニード レオニ 星乃 一歌 ほしの いちか hoshino ichika 天馬 咲希 てんま さき tenma saki 望月 穂波 もちづき ほなみ mochizuki honami 日野森 志歩 ひのもり しほ hinomori shiho vocaloid cover video game じん jin 自然の敵P shizen no teki P stage! prsk ボーカロイド pop j-pop jpop jrock j-rock rock sutera
BeatmapID:4245700
BeatmapSetID:2035756

[Difficulty]
HPDrainRate:6
CircleSize:5
OverallDifficulty:5
ApproachRate:5
SliderMultiplier:1.4
SliderTickRate:1

[Events]
//Background and Video events
0,0,"Ej3-pUUU8AAlSKR.jpg",0,20
Video,-3397,"output.mp4"
//Break Periods
//Storyboard Layer 0 (Background)
//Storyboard Layer 1 (Fail)
//Storyboard Layer 2 (Pass)
//Storyboard Layer 3 (Foreground)
//Storyboard Layer 4 (Overlay)
//Storyboard Sound Samples

[TimingPoints]
15,304.568527918782,4,1,0,30,1,8
1233,304.568527918782,4,1,0,30,1,0
19488,-100,4,1,0,40,0,0
21334,-100,4,1,0,40,0,0
21486,-100,4,1,0,45,0,0
21639,-100,4,1,0,50,0,0
21791,-100,4,1,0,55,0,0
21943,-100,4,1,0,60,0,0
22095,-100,4,1,0,65,0,0
22248,-100,4,1,0,70,0,0
22400,-100,4,1,0,75,0,0
22552,-100,4,1,0,80,0,0
22686,-100,4,1,0,80,0,0
23161,304.568527918782,4,1,0,80,1,0
23161,-100,4,1,0,80,0,0
42634,-100,4,1,0,60,0,0
52380,-100,4,1,0,70,0,0
74309,-100,4,1,0,100,0,0
74328,304.568527918782,4,1,0,100,1,1
74328,-100,4,1,0,100,0,1
118185,-100,4,1,0,100,0,0
118471,-100,4,1,0,80,0,0
126713,-100,4,1,0,75,0,0
127018,-100,4,1,0,70,0,0
127322,-100,4,1,0,65,0,0
127627,-100,4,1,0,60,0,0
127932,-100,4,1,0,55,0,0
128236,-100,4,1,0,50,0,0
128541,-100,4,1,0,45,0,0
128845,-100,4,1,0,40,0,0
129150,-100,4,1,0,35,0,0
129454,-100,4,1,0,30,0,0
129759,-100,4,1,0,25,0,0
130064,-100,4,1,0,20,0,0
130368,-100,4,1,0,15,0,0

[HitObjects]
346,192,1233,5,2,0:0:0:0:
10,192,1385,1,0,0:0:0:0:
402,192,1538,1,2,0:0:0:0:
122,192,1690,1,0,0:0:0:0:
458,192,1994,1,2,0:0:0:0:
178,192,2147,1,0,0:0:0:0:
234,192,2451,1,0,0:0:0:0:
66,192,2604,1,0,0:0:0:0:
346,192,2756,1,2,0:0:0:0:
10,192,3213,1,2,0:0:0:0:
402,192,3365,1,0,0:0:0:0:
458,192,3670,1,2,0:0:0:0:
178,192,3974,1,0,0:0:0:0:
290,192,4126,1,2,0:0:0:0:
234,192,4431,1,2,0:0:0:0:
66,192,4583,1,0,0:0:0:0:
10,192,4735,1,0,0:0:0:0:
178,192,6106,1,2,0:0:0:0:
290,192,6258,1,2,0:0:0:0:
234,192,6411,1,0,0:0:0:0:
66,192,6563,1,2,0:0:0:0:
346,192,6868,1,2,0:0:0:0:
10,192,7020,1,0,0:0:0:0:
122,192,7324,1,2,0:0:0:0:
458,192,7477,1,0,0:0:0:0:
178,192,7629,1,2,0:0:0:0:
290,192,8086,1,0,0:0:0:0:
234,192,8238,1,2,0:0:0:0:
346,192,8543,1,2,0:0:0:0:
10,192,8847,1,0,0:0:0:0:
402,192,9000,1,2,0:0:0:0:
122,192,9304,1,2,0:0:0:0:
458,192,9456,1,0,0:0:0:0:
178,192,9609,1,0,0:0:0:0:
346,192,10979,1,2,0:0:0:0:
10,192,11436,1,0,0:0:0:0:
402,192,11588,1,0,0:0:0:0:
122,192,11741,1,2,0:0:0:0:
458,192,12045,1,0,0:0:0:0:
290,192,12197,1,2,0:0:0:0:
234,192,12350,1,0,0:0:0:0:
66,192,12502,1,2,0:0:0:0:
346,192,12959,1,2,0:0:0:0:
10,192,13111,1,0,0:0:0:0:
122,192,13416,1,2,0:0:0:0:
458,192,13720,1,2,0:0:0:0:
178,192,13873,1,0,0:0:0:0:
290,192,14177,1,0,0:0:0:0:
234,192,14329,1,2,0:0:0:0:
66,192,14482,1,2,0:0:0:0:
458,192,15852,1,2,0:0:0:0:
178,192,16005,1,0,0:0:0:0:
290,192,16157,1,2,0:0:0:0:
234,192,16309,1,0,0:0:0:0:
66,192,16614,1,2,0:0:0:0:
346,192,16918,1,0,0:0:0:0:
10,192,17071,1,2,0:0:0:0:
209,193,17222,1,2,0:0:0:0:
122,192,17375,1,0,0:0:0:0:
458,192,17832,1,0,0:0:0:0:
178,192,17984,1,2,0:0:0:0:
234,192,18289,1,2,0:0:0:0:
66,192,18441,1,2,0:0:0:0:
346,192,18593,1,0,0:0:0:0:
10,192,18746,1,2,0:0:0:0:
402,192,19050,1,2,0:0:0:0:
122,192,19203,1,0,0:0:0:0:
178,192,19354,1,0,0:0:0:0:
202,164,19507,1,2,0:0:0:0:
290,192,19811,1,0,0:0:0:0:
234,192,19964,1,2,0:0:0:0:
66,192,20269,1,2,0:0:0:0:
346,192,20421,1,2,0:0:0:0:
170,212,20573,1,0,0:0:0:0:
136,113,20877,1,2,0:0:0:0:
140,120,21029,1,0,0:0:0:0:
140,122,21182,1,2,0:0:0:0:
256,192,21334,12,0,22552,0:0:0:0:
65,216,22705,5,2,0:0:0:0:
195,207,22781,1,2,0:0:0:0:
65,216,22857,1,2,0:0:0:0:
178,192,23161,5,6,0:0:0:0:
290,192,23466,1,0,0:0:0:0:
234,192,23618,1,2,0:0:0:0:
66,192,23922,5,0,0:0:0:0:
197,173,24074,1,0,0:0:0:0:
346,192,24227,1,2,0:0:0:0:
402,192,24684,1,2,0:0:0:0:
122,192,24836,1,0,0:0:0:0:
183,219,24988,1,2,0:0:0:0:
178,192,25141,1,2,0:0:0:0:
290,192,25293,1,0,0:0:0:0:
66,192,25598,1,6,0:0:0:0:
183,219,25749,1,0,0:0:0:0:
346,192,25902,1,2,0:0:0:0:
196,169,25978,1,2,0:0:0:0:
10,192,26054,1,2,0:0:0:0:
402,192,26359,1,0,0:0:0:0:
205,159,26511,1,0,0:0:0:0:
122,192,26664,1,2,0:0:0:0:
290,192,27120,1,0,0:0:0:0:
234,192,27273,1,0,0:0:0:0:
66,192,27425,1,2,0:0:0:0:
346,192,27577,1,0,0:0:0:0:
10,192,27730,1,2,0:0:0:0:
216,131,27805,1,2,0:0:0:0:
216,131,27881,1,2,0:0:0:0:
122,192,28034,1,6,0:0:0:0:
458,192,28339,1,0,0:0:0:0:
178,192,28491,1,2,0:0:0:0:
290,192,28795,1,0,0:0:0:0:
218,181,28947,1,0,0:0:0:0:
234,192,29100,1,2,0:0:0:0:
346,192,29557,1,2,0:0:0:0:
10,192,29709,1,0,0:0:0:0:
402,192,29861,1,2,0:0:0:0:
122,192,30014,1,2,0:0:0:0:
458,192,30166,1,0,0:0:0:0:
290,192,30471,1,6,0:0:0:0:
221,140,30622,1,0,0:0:0:0:
234,192,30775,1,2,0:0:0:0:
194,132,30851,1,2,0:0:0:0:
66,192,30927,1,2,0:0:0:0:
346,192,31232,1,0,0:0:0:0:
182,153,31384,1,0,0:0:0:0:
10,192,31537,1,2,0:0:0:0:
458,192,31993,1,2,0:0:0:0:
178,192,32146,1,0,0:0:0:0:
290,192,32298,1,2,0:0:0:0:
234,192,32450,1,2,0:0:0:0:
66,192,32603,1,0,0:0:0:0:
206,224,32678,1,0,0:0:0:0:
132,218,32754,1,0,0:0:0:0:
10,192,32907,1,6,0:0:0:0:
402,192,33212,1,2,0:0:0:0:
122,192,33364,1,0,0:0:0:0:
458,192,33516,1,0,0:0:0:0:
225,200,33668,1,2,0:0:0:0:
178,192,33820,1,2,0:0:0:0:
234,192,34125,1,0,0:0:0:0:
66,192,34430,1,0,0:0:0:0:
346,192,34582,1,0,0:0:0:0:
10,192,34735,1,2,0:0:0:0:
402,192,34887,1,2,0:0:0:0:
122,192,35039,1,0,0:0:0:0:
178,192,35344,1,2,0:0:0:0:
290,192,35648,1,2,0:0:0:0:
234,192,35801,1,0,0:0:0:0:
66,192,35953,1,2,0:0:0:0:
345,124,36105,1,0,0:0:0:0:
10,192,36257,1,0,0:0:0:0:
402,192,36562,1,0,0:0:0:0:
178,255,36866,1,2,0:0:0:0:
290,192,37171,1,2,0:0:0:0:
234,192,37323,1,2,0:0:0:0:
66,192,37476,1,0,0:0:0:0:
346,192,37780,1,6,0:0:0:0:
10,192,38085,1,0,0:0:0:0:
402,192,38237,1,2,0:0:0:0:
122,192,38389,1,2,0:0:0:0:
171,162,38541,1,0,0:0:0:0:
458,192,38693,1,2,0:0:0:0:
178,192,38999,1,0,0:0:0:0:
290,192,39303,1,0,0:0:0:0:
277,215,39455,1,0,0:0:0:0:
234,192,39607,1,2,0:0:0:0:
66,192,39760,1,2,0:0:0:0:
346,192,39912,1,0,0:0:0:0:
10,192,40217,1,2,0:0:0:0:
402,192,40521,1,0,0:0:0:0:
122,192,40674,1,2,0:0:0:0:
173,168,40825,1,0,0:0:0:0:
458,192,40978,1,2,0:0:0:0:
132,164,41130,1,2,0:0:0:0:
290,192,41435,1,0,0:0:0:0:
105,157,41587,1,0,0:0:0:0:
66,192,41740,1,2,0:0:0:0:
10,192,42044,1,2,0:0:0:0:
402,192,42197,1,0,0:0:0:0:
153,172,42348,1,2,0:0:0:0:
369,300,42424,1,2,0:0:0:0:
142,159,42501,1,2,0:0:0:0:
178,192,42653,1,4,0:0:0:0:
234,192,42958,1,0,0:0:0:0:
66,192,43110,1,2,0:0:0:0:
346,192,43415,1,2,0:0:0:0:
10,192,43567,1,0,0:0:0:0:
122,192,43872,1,2,0:0:0:0:
458,192,44024,1,0,0:0:0:0:
178,192,44176,1,2,0:0:0:0:
290,192,44633,1,2,0:0:0:0:
234,192,44785,1,0,0:0:0:0:
346,192,45090,1,2,0:0:0:0:
402,192,45395,1,0,0:0:0:0:
122,192,45547,1,2,0:0:0:0:
458,192,45851,1,2,0:0:0:0:
178,192,46003,1,2,0:0:0:0:
290,192,46155,1,0,0:0:0:0:
234,192,47526,1,2,0:0:0:0:
66,192,47679,1,2,0:0:0:0:
346,192,47831,1,0,0:0:0:0:
10,192,47983,1,2,0:0:0:0:
402,192,48288,1,0,0:0:0:0:
122,192,48440,1,2,0:0:0:0:
178,192,48745,1,2,0:0:0:0:
290,192,48897,1,0,0:0:0:0:
234,192,49049,1,2,0:0:0:0:
66,192,49506,1,0,0:0:0:0:
346,192,49658,1,2,0:0:0:0:
402,192,49963,1,2,0:0:0:0:
122,192,50268,1,0,0:0:0:0:
458,192,50420,1,2,0:0:0:0:
290,192,50724,1,0,0:0:0:0:
234,192,50877,1,2,0:0:0:0:
66,192,51029,1,0,0:0:0:0:
346,192,51334,1,2,0:0:0:0:
169,176,51485,1,0,0:0:0:0:
402,192,51638,1,0,0:0:0:0:
122,192,51790,1,2,0:0:0:0:
458,192,51943,1,0,0:0:0:0:
178,192,52400,1,6,0:0:0:0:
81,161,52856,1,0,0:0:0:0:
144,163,53008,1,2,0:0:0:0:
66,192,53161,1,0,0:0:0:0:
10,192,53466,1,2,0:0:0:0:
402,192,53618,1,2,0:0:0:0:
122,192,53770,1,0,0:0:0:0:
458,192,53922,1,2,0:0:0:0:
218,253,54226,1,0,0:0:0:0:
178,192,54379,1,2,0:0:0:0:
290,192,54532,1,0,0:0:0:0:
160,150,54683,1,0,0:0:0:0:
66,192,54836,1,2,0:0:0:0:
346,192,55141,1,2,0:0:0:0:
10,192,55293,1,0,0:0:0:0:
402,192,55598,1,2,0:0:0:0:
122,192,55750,1,2,0:0:0:0:
145,143,55902,1,0,0:0:0:0:
86,177,56054,1,2,0:0:0:0:
218,168,56358,1,0,0:0:0:0:
186,240,56511,1,2,0:0:0:0:
103,170,56968,1,0,0:0:0:0:
178,192,57273,1,2,0:0:0:0:
290,192,57425,1,0,0:0:0:0:
234,192,57577,1,2,0:0:0:0:
66,192,57730,1,0,0:0:0:0:
346,192,58034,1,2,0:0:0:0:
402,192,58339,1,2,0:0:0:0:
122,192,58491,1,2,0:0:0:0:
458,192,58643,1,0,0:0:0:0:
178,192,58796,1,2,0:0:0:0:
154,154,59100,1,0,0:0:0:0:
290,192,59252,1,2,0:0:0:0:
234,192,59405,1,2,0:0:0:0:
191,107,59556,1,0,0:0:0:0:
346,192,59709,1,2,0:0:0:0:
123,173,60013,1,0,0:0:0:0:
10,192,60166,1,2,0:0:0:0:
402,192,60318,1,2,0:0:0:0:
114,136,60622,1,0,0:0:0:0:
122,192,60775,1,2,0:0:0:0:
458,192,60928,1,2,0:0:0:0:
186,164,61079,1,0,0:0:0:0:
186,164,61155,1,0,0:0:0:0:
229,143,61232,1,0,0:0:0:0:
178,192,61384,1,2,0:0:0:0:
290,192,61537,1,0,0:0:0:0:
250,196,61688,1,2,0:0:0:0:
186,164,61764,1,2,0:0:0:0:
186,164,61841,1,2,0:0:0:0:
234,192,62145,1,6,0:0:0:0:
217,160,62450,1,0,0:0:0:0:
66,192,62603,1,2,0:0:0:0:
346,192,62907,1,2,0:0:0:0:
10,192,63060,1,0,0:0:0:0:
402,192,63211,1,2,0:0:0:0:
122,192,63516,1,0,0:0:0:0:
458,192,63821,1,2,0:0:0:0:
250,123,64277,1,0,0:0:0:0:
290,192,64582,1,6,0:0:0:0:
234,192,64887,1,0,0:0:0:0:
66,192,65039,1,2,0:0:0:0:
346,192,65344,1,0,0:0:0:0:
10,192,65496,1,0,0:0:0:0:
402,192,65648,1,2,0:0:0:0:
122,192,65953,1,2,0:0:0:0:
458,192,66105,1,0,0:0:0:0:
178,192,66257,1,2,0:0:0:0:
294,157,66714,1,0,0:0:0:0:
234,192,67019,1,6,0:0:0:0:
66,192,67323,1,0,0:0:0:0:
346,192,67476,1,2,0:0:0:0:
10,192,67780,1,0,0:0:0:0:
402,192,68085,1,2,0:0:0:0:
122,192,68389,1,2,0:0:0:0:
173,88,68541,1,0,0:0:0:0:
458,192,68693,1,2,0:0:0:0:
178,192,68999,1,2,0:0:0:0:
290,192,69151,1,0,0:0:0:0:
234,192,69303,1,0,0:0:0:0:
66,192,69455,1,6,0:0:0:0:
346,192,69760,1,0,0:0:0:0:
10,192,69912,1,2,0:0:0:0:
290,231,70216,1,0,0:0:0:0:
402,192,70369,1,2,0:0:0:0:
122,192,70521,1,2,0:0:0:0:
228,80,70825,1,2,0:0:0:0:
290,192,70978,1,2,0:0:0:0:
234,192,71131,1,0,0:0:0:0:
66,192,71283,1,0,0:0:0:0:
346,192,71435,1,2,0:0:0:0:
10,192,71587,1,2,0:0:0:0:
122,192,71892,1,6,0:0:0:0:
134,166,72196,1,0,0:0:0:0:
458,192,72349,1,2,0:0:0:0:
122,163,72653,1,0,0:0:0:0:
178,192,72806,1,2,0:0:0:0:
172,167,72957,1,0,0:0:0:0:
290,192,73110,1,0,0:0:0:0:
373,222,73186,1,0,0:0:0:0:
373,226,73262,1,0,0:0:0:0:
295,216,73414,1,2,0:0:0:0:
352,298,73490,1,2,0:0:0:0:
66,192,73567,1,2,0:0:0:0:
346,192,73719,1,4,0:0:0:0:
201,103,73871,1,4,0:0:0:0:
458,192,74328,1,6,0:0:0:0:
178,192,74632,1,2,0:0:0:0:
230,245,74784,1,0,0:0:0:0:
290,192,74937,1,2,0:0:0:0:
206,206,75013,1,2,0:0:0:0:
238,172,75088,1,2,0:0:0:0:
234,192,75241,1,0,0:0:0:0:
206,213,75393,1,2,0:0:0:0:
66,192,75546,1,2,0:0:0:0:
222,213,75698,1,0,0:0:0:0:
346,192,75850,1,0,0:0:0:0:
175,126,75926,1,0,0:0:0:0:
10,192,76003,1,0,0:0:0:0:
229,199,76155,1,2,0:0:0:0:
402,192,76459,1,2,0:0:0:0:
122,192,76612,1,0,0:0:0:0:
458,192,76764,1,2,0:0:0:0:
178,192,77069,1,0,0:0:0:0:
81,173,77220,1,0,0:0:0:0:
290,192,77373,1,2,0:0:0:0:
241,223,77525,1,0,0:0:0:0:
234,192,77678,1,2,0:0:0:0:
200,149,77982,1,0,0:0:0:0:
66,192,78439,1,2,0:0:0:0:
346,192,78591,1,2,0:0:0:0:
10,192,78743,1,0,0:0:0:0:
402,192,78895,1,2,0:0:0:0:
125,157,79048,1,0,0:0:0:0:
458,192,79200,1,6,0:0:0:0:
178,192,79505,1,2,0:0:0:0:
216,162,79657,1,0,0:0:0:0:
290,192,79809,1,2,0:0:0:0:
146,158,79885,1,2,0:0:0:0:
222,165,79961,1,2,0:0:0:0:
234,192,80114,1,0,0:0:0:0:
187,164,80266,1,0,0:0:0:0:
66,192,80418,1,2,0:0:0:0:
213,181,80571,1,0,0:0:0:0:
346,192,80723,1,0,0:0:0:0:
208,184,80799,1,0,0:0:0:0:
208,185,80875,1,0,0:0:0:0:
10,192,81027,1,2,0:0:0:0:
402,192,81332,1,2,0:0:0:0:
116,174,81484,1,0,0:0:0:0:
122,192,81637,1,0,0:0:0:0:
458,192,81941,1,0,0:0:0:0:
214,158,82093,1,0,0:0:0:0:
178,192,82246,1,2,0:0:0:0:
143,182,82398,1,0,0:0:0:0:
290,192,82550,1,2,0:0:0:0:
162,189,82855,1,0,0:0:0:0:
234,192,83312,1,2,0:0:0:0:
66,192,83617,1,2,0:0:0:0:
346,192,83769,1,0,0:0:0:0:
10,192,83921,1,0,0:0:0:0:
402,192,84074,1,6,0:0:0:0:
122,192,84378,1,0,0:0:0:0:
458,192,84683,1,2,0:0:0:0:
178,192,84987,1,0,0:0:0:0:
290,192,85140,1,2,0:0:0:0:
200,188,85291,1,0,0:0:0:0:
234,192,85444,1,2,0:0:0:0:
66,192,85749,1,0,0:0:0:0:
346,192,85901,1,2,0:0:0:0:
10,192,86053,1,2,0:0:0:0:
185,234,86129,1,2,0:0:0:0:
402,192,86206,1,2,0:0:0:0:
122,192,86358,1,0,0:0:0:0:
458,192,86510,1,2,0:0:0:0:
290,192,86815,1,0,0:0:0:0:
165,167,86967,1,0,0:0:0:0:
234,192,87119,1,2,0:0:0:0:
241,210,87271,1,0,0:0:0:0:
66,192,87424,1,2,0:0:0:0:
241,196,87728,1,0,0:0:0:0:
346,192,88033,1,0,0:0:0:0:
177,171,88185,1,0,0:0:0:0:
10,192,88338,1,2,0:0:0:0:
402,192,88642,1,2,0:0:0:0:
168,171,88946,1,4,0:0:0:0:
122,192,89251,1,2,0:0:0:0:
160,170,89403,1,0,0:0:0:0:
458,192,89556,1,2,0:0:0:0:
178,192,89861,1,2,0:0:0:0:
223,208,90165,1,0,0:0:0:0:
290,192,90470,1,0,0:0:0:0:
122,169,90621,1,0,0:0:0:0:
234,192,90774,1,2,0:0:0:0:
66,192,91078,1,0,0:0:0:0:
346,192,91383,1,2,0:0:0:0:
10,192,91688,1,0,0:0:0:0:
402,192,91840,1,2,0:0:0:0:
122,192,92145,1,2,0:0:0:0:
458,192,92296,1,0,0:0:0:0:
178,192,92449,1,2,0:0:0:0:
234,192,93059,1,2,0:0:0:0:
129,158,93210,1,0,0:0:0:0:
66,192,93363,1,2,0:0:0:0:
182,169,93439,1,2,0:0:0:0:
346,192,93515,1,2,0:0:0:0:
10,192,93668,1,0,0:0:0:0:
402,192,93820,1,6,0:0:0:0:
122,192,94125,1,2,0:0:0:0:
458,192,94277,1,0,0:0:0:0:
178,192,94429,1,0,0:0:0:0:
261,140,94505,1,0,0:0:0:0:
261,140,94581,1,0,0:0:0:0:
290,192,94734,1,2,0:0:0:0:
186,144,94885,1,2,0:0:0:0:
234,192,95038,1,0,0:0:0:0:
125,159,95190,1,0,0:0:0:0:
346,192,95343,1,2,0:0:0:0:
167,194,95419,1,2,0:0:0:0:
200,181,95494,1,2,0:0:0:0:
10,192,95647,1,0,0:0:0:0:
402,192,95952,1,2,0:0:0:0:
122,192,96104,1,0,0:0:0:0:
458,192,96257,1,2,0:0:0:0:
178,192,96561,1,0,0:0:0:0:
208,180,96713,1,0,0:0:0:0:
290,192,96866,1,2,0:0:0:0:
229,207,97017,1,0,0:0:0:0:
234,192,97170,1,2,0:0:0:0:
178,192,97474,1,0,0:0:0:0:
66,192,97932,1,0,0:0:0:0:
346,192,98084,1,2,0:0:0:0:
10,192,98236,1,2,0:0:0:0:
402,192,98389,1,0,0:0:0:0:
216,178,98541,1,0,0:0:0:0:
458,192,98693,1,6,0:0:0:0:
178,192,98998,1,2,0:0:0:0:
290,192,99150,1,0,0:0:0:0:
234,192,99302,1,2,0:0:0:0:
204,209,99378,1,2,0:0:0:0:
162,178,99454,1,2,0:0:0:0:
66,192,99607,1,0,0:0:0:0:
204,209,99758,1,0,0:0:0:0:
346,192,99911,1,2,0:0:0:0:
221,211,100063,1,0,0:0:0:0:
10,192,100216,1,2,0:0:0:0:
96,199,100292,1,2,0:0:0:0:
197,202,100368,1,2,0:0:0:0:
402,192,100520,1,0,0:0:0:0:
122,192,100825,1,0,0:0:0:0:
221,211,100977,1,2,0:0:0:0:
458,192,101130,1,0,0:0:0:0:
178,192,101434,1,2,0:0:0:0:
192,205,101586,1,0,0:0:0:0:
290,192,101739,1,2,0:0:0:0:
283,182,101891,1,2,0:0:0:0:
234,192,102043,1,0,0:0:0:0:
241,195,102347,1,0,0:0:0:0:
66,192,102805,1,2,0:0:0:0:
346,192,103109,1,2,0:0:0:0:
10,192,103262,1,0,0:0:0:0:
402,192,103414,1,0,0:0:0:0:
122,192,103566,1,6,0:0:0:0:
458,192,103871,1,0,0:0:0:0:
178,192,104175,1,2,0:0:0:0:
290,192,104480,1,0,0:0:0:0:
234,192,104632,1,2,0:0:0:0:
66,192,104784,1,0,0:0:0:0:
346,192,104937,1,2,0:0:0:0:
10,192,105241,1,0,0:0:0:0:
402,192,105394,1,2,0:0:0:0:
122,192,105546,1,2,0:0:0:0:
458,192,105698,1,0,0:0:0:0:
184,180,105850,1,0,0:0:0:0:
290,192,106002,1,2,0:0:0:0:
234,192,106307,1,0,0:0:0:0:
190,215,106459,1,0,0:0:0:0:
66,192,106612,1,2,0:0:0:0:
87,189,106764,1,0,0:0:0:0:
346,192,106916,1,2,0:0:0:0:
219,147,107220,1,0,0:0:0:0:
10,192,107526,1,0,0:0:0:0:
163,190,107677,1,0,0:0:0:0:
402,192,107830,1,2,0:0:0:0:
122,192,108135,1,2,0:0:0:0:
170,164,108439,1,4,0:0:0:0:
256,192,108743,12,0,111942,0:0:0:0:
10,192,112399,5,2,0:0:0:0:
402,192,112703,1,2,0:0:0:0:
122,192,112856,1,0,0:0:0:0:
192,108,112931,1,0,0:0:0:0:
458,192,113008,1,0,0:0:0:0:
178,192,113160,1,2,0:0:0:0:
290,192,113312,1,4,0:0:0:0:
234,192,113617,1,0,0:0:0:0:
66,192,113769,1,2,0:0:0:0:
142,178,113921,1,0,0:0:0:0:
346,192,114074,1,2,0:0:0:0:
10,192,114378,1,0,0:0:0:0:
217,196,114682,1,0,0:0:0:0:
217,196,114835,1,2,0:0:0:0:
81,181,115139,1,0,0:0:0:0:
402,192,115444,1,2,0:0:0:0:
122,192,115597,1,0,0:0:0:0:
458,192,115749,1,6,0:0:0:0:
201,254,115901,1,0,0:0:0:0:
151,182,115977,1,0,0:0:0:0:
178,192,116054,1,0,0:0:0:0:
290,192,116206,1,2,0:0:0:0:
234,192,116510,1,2,0:0:0:0:
161,177,116662,1,0,0:0:0:0:
66,192,116815,1,6,0:0:0:0:
10,192,117576,1,0,0:0:0:0:
402,192,117881,1,2,0:0:0:0:
272,218,118185,1,6,0:0:0:0:
290,192,118490,1,0,0:0:0:0:
234,192,118642,1,2,0:0:0:0:
66,192,118946,5,0,0:0:0:0:
197,173,119098,1,0,0:0:0:0:
346,192,119251,1,2,0:0:0:0:
402,192,119708,1,2,0:0:0:0:
122,192,119860,1,0,0:0:0:0:
183,219,120012,1,2,0:0:0:0:
178,192,120165,1,2,0:0:0:0:
290,192,120317,1,0,0:0:0:0:
66,192,120622,1,6,0:0:0:0:
183,219,120773,1,0,0:0:0:0:
346,192,120926,1,2,0:0:0:0:
268,171,121003,1,2,0:0:0:0:
10,192,121078,1,2,0:0:0:0:
402,192,121383,1,0,0:0:0:0:
205,159,121535,1,0,0:0:0:0:
122,192,121688,1,2,0:0:0:0:
290,192,122144,1,0,0:0:0:0:
234,192,122297,1,0,0:0:0:0:
66,192,122449,1,2,0:0:0:0:
346,192,122601,1,0,0:0:0:0:
10,192,122754,1,2,0:0:0:0:
216,131,122829,1,2,0:0:0:0:
216,131,122905,1,2,0:0:0:0:
122,192,123058,1,6,0:0:0:0:
458,192,123363,1,0,0:0:0:0:
178,192,123515,1,2,0:0:0:0:
290,192,123819,1,0,0:0:0:0:
218,181,123971,1,0,0:0:0:0:
234,192,124124,1,2,0:0:0:0:
346,192,124581,1,2,0:0:0:0:
10,192,124733,1,0,0:0:0:0:
402,192,124885,1,2,0:0:0:0:
122,192,125038,1,2,0:0:0:0:
458,192,125190,1,0,0:0:0:0:
290,192,125495,5,6,0:0:0:0:
221,140,125646,1,0,0:0:0:0:
297,162,125800,1,2,0:0:0:0:
212,77,125876,1,2,0:0:0:0:
66,192,125951,1,2,0:0:0:0:
346,192,126256,1,0,0:0:0:0:
200,181,126409,1,6,0:0:0:0:
10,192,126561,1,6,0:0:0:0:
256,192,126713,12,0,130368,0:0:0:0:
