osu file format v14

[General]
AudioFilename: audio.mp3
AudioLeadIn: 0
PreviewTime: 366932
Countdown: 0
SampleSet: Soft
StackLeniency: 0.4
Mode: 0
LetterboxInBreaks: 0
EpilepsyWarning: 1
WidescreenStoryboard: 1

[Editor]
Bookmarks: 17875,32875,47875,62875,85375,100375,130375,145375,160375,174089,176017,187803,215232,228946,242660,270406,297817,323663,338432,367971,396910,414910,430910,446701,464611,482521,493268,511178,532671,564909,593407,637390,656590,680590,701510
DistanceSpacing: 1.6
BeatDivisor: 4
GridSize: 32
TimelineZoom: 0.8

[Metadata]
Title:Qing Ge Wang
TitleUnicode:情歌王
Artist:Leo Ku
ArtistUnicode:古巨基
Creator:Pata-Mon
Version:Ai
Source:
Tags:Marathon Gu Ju Ji Ku Kui Kei Chinese Love Song Compilation Forever Love 王力宏 两个人的烟火 黎明 如果·爱 如果 爱 张学友 童话 光良 很爱很爱你 刘若英 我愿意 王菲 好想好想 明天我要嫁给你 周华健 不得不爱 潘玮柏 弦子 阴天 莫文蔚 飞机场的10:30 陶喆 那么爱你为什么 黄品源 你怎么舍得我难过 爱我别走 张震岳 让我欢喜让我忧 原来你什么都不想要 张惠妹 用心良苦 张宇 祝福 吻别 把悲伤留给自己 陈升 征服 那英 听海 味道 辛晓琪 我怀念的 孙燕姿 领悟 月亮惹的祸 我们的爱 飞儿乐团 你把我灌醉 黄大炜 眼泪 范晓萱 情非得已 庾澄庆 你是如此难以忘记 梁朝伟 心太软 任贤齐
BeatmapID:1899226
BeatmapSetID:910109

[Difficulty]
HPDrainRate:4
CircleSize:3.5
OverallDifficulty:5.5
ApproachRate:7
SliderMultiplier:2.8
SliderTickRate:1

[Events]
//Background and Video events
0,0,"BG.jpg",0,0
//Break Periods
2,383055,388010
2,493268,505805
//Storyboard Layer 0 (Background)
//Storyboard Layer 1 (Fail)
//Storyboard Layer 2 (Pass)
//Storyboard Layer 3 (Foreground)
//Storyboard Sound Samples

[TimingPoints]
2875,937.5,4,2,1,20,1,0
17875,-142.857142857143,4,2,1,20,0,1
18109,-142.857142857143,4,2,1,20,0,0
32875,-117.647058823529,4,2,1,30,0,1
33109,-117.647058823529,4,2,1,30,0,0
47875,-100,4,2,1,40,0,1
48109,-100,4,2,1,40,0,0
62875,-100,4,2,2,40,0,1
63109,-100,4,2,2,40,0,0
85375,-100,4,2,2,40,0,1
85609,-100,4,2,2,40,0,0
88187,-117.647058823529,4,2,2,20,0,0
98968,-142.857142857143,4,2,2,20,0,0
100375,-142.857142857143,4,2,2,20,0,1
100609,-142.857142857143,4,2,2,20,0,0
130375,-142.857142857143,4,2,2,20,0,1
130609,-142.857142857143,4,2,2,20,0,0
145375,-142.857142857143,4,2,2,30,0,1
145609,-142.857142857143,4,2,2,30,0,0
160375,857.142857142857,4,2,1,50,1,1
160375,-100,4,2,1,50,0,1
160589,-100,4,2,1,50,0,0
174089,-100,4,2,1,50,0,1
174303,-100,4,2,1,50,0,0
187803,-100,4,2,2,50,0,1
188017,-100,4,2,2,50,0,0
215232,-100,4,2,3,50,0,1
215446,-100,4,2,3,50,0,0
228946,-100,4,2,3,50,0,1
229160,-100,4,2,3,50,0,0
241803,-142.857142857143,4,2,2,40,0,0
242660,-142.857142857143,4,2,2,30,0,1
242875,-142.857142857143,4,2,2,30,0,0
263232,884.5,4,2,2,30,1,0
263232,-142.857142857143,4,2,2,30,0,0
266770,909.090909090909,4,2,2,30,1,0
266770,-181.818181818182,4,2,2,30,0,0
269270,-142.857142857143,4,2,2,40,0,0
270406,-142.857142857143,4,2,2,40,0,1
270633,-142.857142857143,4,2,2,40,0,0
292224,950.5,4,2,2,40,1,0
294125,923.076923076923,4,2,2,40,1,0
294125,-100,4,2,2,40,0,0
295971,-100,4,2,2,50,0,0
297817,-100,4,2,2,50,0,1
298048,-100,4,2,2,50,0,0
315817,-142.857142857143,4,2,2,30,0,0
319971,-100,4,2,2,30,0,0
320894,-100,4,2,2,40,0,0
321817,-100,4,2,2,50,0,0
323663,-100,4,2,2,50,0,1
323894,-100,4,2,2,50,0,0
338432,-100,4,2,2,50,0,1
338663,-100,4,2,2,50,0,0
360586,-142.857142857143,4,2,2,30,0,0
364278,-100,4,2,2,50,0,0
367971,-100,4,2,2,50,0,1
368201,-100,4,2,2,50,0,0
386432,956,4,2,2,40,1,0
386910,1000,4,2,2,40,1,0
388910,1000,4,2,4,40,1,0
390910,-100,4,2,5,40,0,0
392910,-100,4,2,4,40,0,0
394910,-100,4,2,5,40,0,0
396910,-100,4,2,4,30,0,1
397160,-100,4,2,4,30,0,0
398910,-100,4,2,5,30,0,0
400910,-100,4,2,4,30,0,0
402910,-100,4,2,5,30,0,0
404910,-100,4,2,4,30,0,0
406910,-100,4,2,5,30,0,0
408910,-100,4,2,4,30,0,0
410910,-100,4,2,5,30,0,0
412910,-100,4,2,2,40,0,0
414910,1000,4,2,2,40,1,1
414910,-100,4,2,2,40,0,1
415160,-100,4,2,2,40,0,0
430910,-100,4,2,2,50,0,1
431160,-100,4,2,2,50,0,0
444910,895.522388059701,4,2,2,50,1,0
446701,895.522388059701,4,2,2,40,1,1
446701,-117.647058823529,4,2,2,40,0,1
446924,-117.647058823529,4,2,2,40,0,0
461029,-100,4,2,2,50,0,0
464611,-100,4,2,2,50,0,1
464835,-100,4,2,2,50,0,0
493268,-100,4,2,2,30,0,1
493492,-142.857142857143,4,2,2,30,0,0
509387,-142.857142857143,4,2,2,40,0,0
510283,-100,4,2,2,50,0,0
511178,-100,4,2,2,50,0,1
511402,-100,4,2,2,50,0,0
532671,-100,4,2,2,50,0,1
532895,-100,4,2,2,50,0,0
564909,-100,4,2,2,50,0,1
565133,-100,4,2,2,50,0,0
588641,-100,4,2,2,30,0,0
589984,-142.857142857143,4,2,2,20,0,0
591775,816.326530612245,4,2,2,20,1,0
591775,-142.857142857143,4,2,2,20,0,0
593407,816.326530612245,4,2,2,20,1,1
593407,-142.857142857143,4,2,2,20,0,1
593611,-142.857142857143,4,2,2,20,0,0
632590,600,4,2,2,20,1,0
632590,-166.666666666667,4,2,2,20,0,0
636490,-142.857142857143,4,2,2,20,0,0
637390,-142.857142857143,4,2,6,30,0,1
637540,-142.857142857143,4,2,6,30,0,0
656590,-142.857142857143,4,2,6,30,0,1
656740,-142.857142857143,4,2,6,30,0,0
679690,-142.857142857143,4,2,6,40,0,0
680590,-142.857142857143,4,2,6,40,0,1
680740,-142.857142857143,4,2,6,40,0,0
697390,1089,4,2,2,40,1,0
698479,1031,4,2,2,40,1,0
699510,1000,4,2,2,50,1,0
701510,1000,4,2,2,50,1,1
701510,-100,4,2,2,50,0,1
701760,-100,4,2,2,50,0,0
728260,-100,4,2,2,40,0,0
729510,-100,4,2,2,30,0,0
730510,-100,4,2,2,40,0,0
731510,-100,4,2,2,50,0,0
741510,1034.48275862069,4,2,2,50,1,0
742544,1153.84615384615,4,2,2,50,1,0
743697,1224.48979591837,4,2,1,40,1,0
744921,-100,4,2,1,5,0,0
746145,1212.12121212121,4,2,1,20,1,0

[Colours]
Combo1 : 255,191,0
Combo2 : 239,0,0

[HitObjects]
256,192,17875,6,0,B|239:240|256:288|256:288|273:336|256:384,1,195.999994018555,2|0,0:0|0:0,0:0:0:0:
210,84,19750,2,0,P|288:92|329:49,1,97.9999970092774,2|0,0:0|0:0,0:0:0:0:
326,9,20453,2,0,B|288:-2|256:20|256:20|224:-2|186:9,1,146.999995513916,2|0,0:0|0:0,0:0:0:0:
127,156,21625,6,0,P|131:209|150:249,1,97.9999970092774,2|0,0:0|0:0,0:0:0:0:
210,300,22328,2,0,P|288:292|329:335,1,97.9999970092774,2|0,0:0|0:0,0:0:0:0:
362,249,23031,2,0,P|383:204|385:156,1,97.9999970092774,2|0,0:0|0:0,0:0:0:0:
169,40,24203,1,0,0:0:0:0:
169,40,24437,2,0,P|192:47|216:48,1,48.9999985046387,2|0,0:0|0:0,0:0:0:0:
295,47,24906,2,0,P|319:46|342:39,1,48.9999985046387,0|0,0:0|0:0,0:0:0:0:
379,118,25375,5,0,0:0:0:0:
379,118,25609,2,0,P|387:196|344:237,1,97.9999970092774,2|0,0:0|0:0,0:0:0:0:
334,274,26312,2,0,L|340:372,1,97.9999970092774,2|0,0:0|0:0,0:0:0:0:
172,372,27250,2,0,L|178:274,1,97.9999970092774,2|0,0:0|0:0,0:0:0:0:
133,210,27953,2,0,P|125:132|168:91,1,97.9999970092774,2|0,0:0|0:0,0:0:0:0:
146,40,28656,2,0,L|94:37,1,48.9999985046387,2|0,0:0|0:0,0:0:0:0:
207,90,29125,6,0,P|254:94|322:86,1,97.9999970092774,2|0,0:0|0:0,0:0:0:0:
366,40,29828,2,0,L|470:34,1,97.9999970092774,2|0,0:0|0:0,0:0:0:0:
496,106,30531,2,0,P|508:151|512:219,1,97.9999970092774,2|2,0:0|0:0,0:0:0:0:
256,124,31937,5,2,0:0:0:0:
256,290,32406,1,0,0:0:0:0:
61,237,32875,6,0,P|114:210|173:207,1,119.000002269745,6|0,0:0|0:0,0:0:0:0:
256,290,33812,1,0,0:0:0:0:
451,237,34281,2,0,P|398:210|339:207,1,119.000002269745,2|0,0:0|0:0,0:0:0:0:
256,290,35218,1,0,0:0:0:0:
256,124,35687,2,0,L|256:-8,1,119.000002269745,2|0,0:0|0:0,0:0:0:0:
138,242,36625,6,0,P|63:233|1:187,1,119.000002269745,2|0,0:0|0:0,0:0:0:0:
256,124,37562,1,0,0:0:0:0:
374,242,38031,2,0,P|449:233|511:187,1,119.000002269745,2|0,0:0|0:0,0:0:0:0:
256,124,38968,1,0,0:0:0:0:
256,360,39437,1,2,0:0:0:0:
374,242,39906,1,0,0:0:0:0:
169,165,40375,6,0,P|106:165|66:200,1,119.000002269745,6|0,0:0|0:0,0:0:0:0:
66,284,41078,2,0,P|106:319|169:319,1,119.000002269745,2|0,0:0|0:0,0:0:0:0:
138,242,41781,1,2,0:0:0:0:
343,319,42250,2,0,P|406:319|446:284,1,119.000002269745,2|0,0:0|0:0,0:0:0:0:
446,200,42953,2,0,P|406:165|343:165,2,119.000002269745,2|2|0,0:0|0:0|0:0,0:0:0:0:
374,242,44125,6,0,L|246:242,1,119.000002269745,2|0,0:0|0:0,0:0:0:0:
187,194,44828,2,0,P|156:195|113:205,1,59.5000011348725,2|0,0:0|0:0,0:0:0:0:
128,284,45296,2,0,P|157:289|186:290,1,59.5000011348725,2|0,0:0|0:0,0:0:0:0:
56,242,45765,1,0,0:0:0:0:
56,242,46000,1,2,0:0:0:0:
91,13,46468,6,0,L|150:9,1,59.5000011348725,0|0,0:0|0:0,0:0:0:0:
212,62,46937,2,0,P|257:69|320:54,2,89.2500017023087,2|0|0,0:0|0:0|0:0,0:0:0:0:
362,9,47875,6,0,P|380:46|382:176,1,140,6|0,0:0|0:0,0:0:0:0:
338,209,48578,1,0,0:0:0:0:
256,139,48812,2,0,L|256:299,1,140,10|0,0:0|0:0,0:0:0:0:
326,325,49515,1,0,0:0:0:0:
186,325,49750,1,2,0:0:0:0:
186,325,49984,2,0,P|137:289|125:193,1,140,2|0,0:0|0:0,0:0:0:0:
256,174,50687,2,0,L|256:291,2,105,10|0|0,0:0|0:0|0:0,0:0:0:0:
326,325,51625,6,0,P|375:289|387:193,1,140,2|0,0:0|0:0,0:0:0:0:
376,132,52328,1,0,0:0:0:0:
256,174,52562,2,0,L|256:291,2,105,10|0|0,0:0|0:0|0:0,0:0:0:0:
256,89,53500,1,2,0:0:0:0:
256,89,53968,2,0,L|256:0,1,70,0|0,0:0|0:0,0:0:0:0:
172,54,54437,2,0,P|91:34|47:55,2,105,10|0|0,0:0|0:0|0:0,0:0:0:0:
110,130,55375,6,0,P|95:236|167:276,1,140,2|0,0:0|0:0,0:0:0:0:
167,192,56078,1,0,0:0:0:0:
172,330,56312,2,0,P|91:350|47:329,2,105,10|0|0,0:0|0:0|0:0,0:0:0:0:
256,226,57250,2,0,L|256:409,1,140,2|0,0:0|0:0,0:0:0:0:
172,330,57953,1,0,0:0:0:0:
340,330,58187,1,10,0:0:0:0:
340,330,58421,2,0,P|389:294|401:198,1,140,2|0,0:0|0:0,0:0:0:0:
329,139,59125,6,0,P|393:128|459:131,2,105,2|0|0,0:0|0:0|0:0,0:0:0:0:
183,139,60062,2,0,P|119:128|53:131,2,105,10|0|0,0:0|0:0|0:0,0:0:0:0:
256,27,61000,2,0,L|256:97,1,70,6|0,0:0|0:0,0:0:0:0:
163,293,61468,6,0,P|169:246|189:200,1,70,2|0,0:0|0:0,0:0:0:0:
256,357,61937,2,0,L|256:287,1,70,2|0,0:0|0:0,0:0:0:0:
349,293,62406,2,0,P|343:246|323:200,1,70,2|0,0:0|0:0,0:0:0:0:
256,27,62875,6,0,L|256:187,1,140,6|0,0:0|0:0,0:0:0:0:
78,108,63812,2,0,P|77:149|99:188,1,70,10|0,0:0|0:0,0:0:0:0:
159,129,64281,1,0,0:0:0:0:
92,259,64515,1,2,0:0:0:0:
256,167,64750,2,0,L|256:27,1,140,2|0,0:0|0:0,0:0:0:0:
434,108,65687,2,0,P|435:149|413:188,1,70,10|0,0:0|0:0,0:0:0:0:
338,280,66156,2,0,P|337:239|359:200,1,70,2|0,0:0|0:0,0:0:0:0:
256,72,66625,6,0,L|256:232,1,140,2|0,0:0|0:0,0:0:0:0:
78,108,67562,2,0,P|77:149|99:188,1,70,10|0,0:0|0:0,0:0:0:0:
163,213,68031,1,0,0:0:0:0:
17,221,68265,1,2,0:0:0:0:
159,129,68500,1,2,0:0:0:0:
359,299,68968,2,0,P|433:325|558:321,2,140,0|8|0,0:0|0:0|0:0,0:0:0:0:
256,129,70375,6,0,L|256:269,1,140,6|0,0:0|0:0,0:0:0:0:
396,132,71312,2,0,P|355:30|295:-5,1,140,10|0,0:0|0:0,0:0:0:0:
256,44,72015,1,2,0:0:0:0:
116,132,72250,2,0,P|157:30|217:-5,1,140,2|0,0:0|0:0,0:0:0:0:
172,275,73187,2,0,P|128:285|75:280,1,70,10|0,0:0|0:0,0:0:0:0:
256,129,73656,1,2,0:0:0:0:
256,129,73890,1,0,0:0:0:0:
340,275,74125,6,0,P|437:280|532:201,1,140,6|0,0:0|0:0,0:0:0:0:
172,275,75062,2,0,P|128:285|75:280,1,70,10|0,0:0|0:0,0:0:0:0:
256,129,75531,2,0,L|256:32,1,70,6|0,0:0|0:0,0:0:0:0:
340,275,76000,2,4,P|384:285|437:280,1,70,6|0,0:0|0:0,0:0:0:0:
256,226,76468,2,0,L|256:418,2,140,2|8|0,0:0|0:0|0:0,0:0:0:0:
53,96,77875,6,0,P|125:59|213:60,1,140,6|0,0:0|0:0,0:0:0:0:
459,96,78812,2,0,P|386:59|299:60,1,140,10|0,0:0|0:0,0:0:0:0:
256,97,79515,1,2,0:0:0:0:
351,212,79750,2,0,P|353:294|326:370,1,140,2|0,0:0|0:0,0:0:0:0:
329,55,80687,2,0,L|429:44,1,70,10|0,0:0|0:0,0:0:0:0:
183,55,81156,2,0,L|83:44,1,70,2|0,0:0|0:0,0:0:0:0:
256,97,81625,6,0,L|254:280,1,140,6|0,0:0|0:0,0:0:0:0:
53,96,82562,2,0,P|125:59|213:60,1,140,14|0,0:0|0:0,0:0:0:0:
256,97,83265,1,2,0:0:0:0:
459,96,83500,2,0,P|386:59|299:60,1,140,6|0,0:0|0:0,0:0:0:0:
256,181,84203,5,2,0:0:0:0:
329,307,84437,2,0,L|429:318,1,70,10|0,0:0|0:0,0:0:0:0:
183,307,84906,2,0,L|83:318,1,70,2|0,0:0|0:0,0:0:0:0:
149,150,85375,6,0,P|165:79|214:37,1,140,6|0,0:0|0:0,0:0:0:0:
321,223,86078,2,0,P|256:245|191:223,1,140,6|0,0:0|0:0,0:0:0:0:
298,37,86781,2,0,P|347:79|363:150,1,140,6|0,0:0|0:0,0:0:0:0:
206,274,88187,2,0,P|206:244|214:215,1,59.5000011348725,2|0,0:0|0:0,0:0:0:0:
298,216,88656,2,0,P|306:251|303:290,1,59.5000011348725,2|0,0:0|0:0,0:0:0:0:
136,183,89125,6,0,P|82:151|64:101,1,119.000002269745,2|0,0:0|0:0,0:0:0:0:
107,27,89828,2,0,P|160:17|214:48,1,119.000002269745,2|0,0:0|0:0,0:0:0:0:
148,100,90531,2,0,L|231:148,1,59.5000011348725,2|0,0:0|0:0,0:0:0:0:
298,49,91000,2,0,P|353:17|405:27,1,119.000002269745,2|0,0:0|0:0,0:0:0:0:
448,101,91703,2,0,P|431:151|376:183,1,119.000002269745,2|0,0:0|0:0,0:0:0:0:
364,100,92406,2,0,L|281:148,1,59.5000011348725,2|0,0:0|0:0,0:0:0:0:
333,253,92875,6,0,P|333:316|298:356,1,119.000002269745,2|0,0:0|0:0,0:0:0:0:
256,284,93578,1,0,0:0:0:0:
214,356,93812,2,0,P|179:316|179:253,1,119.000002269745,2|0,0:0|0:0,0:0:0:0:
256,284,94515,1,0,0:0:0:0:
179,171,94750,2,0,P|166:133|162:29,1,119.000002269745,2|0,0:0|0:0,0:0:0:0:
256,140,95453,2,0,L|256:12,1,119.000002269745,2|0,0:0|0:0,0:0:0:0:
333,171,96156,2,0,P|346:133|350:29,1,119.000002269745,2|0,0:0|0:0,0:0:0:0:
187,192,98968,6,0,L|89:178,2,97.9999970092774,0|2|0,0:0|0:0|0:0,0:0:0:0:
325,192,100375,6,0,L|423:178,2,97.9999970092774,2|0|0,0:0|0:0|0:0,0:0:0:0:
216,79,101781,2,0,P|271:11|296:79,1,195.999994018555,2|0,0:0|0:0,0:0:0:0:
187,192,103187,2,0,L|89:206,1,97.9999970092774,2|0,0:0|0:0,0:0:0:0:
325,192,104125,6,0,L|423:206,2,97.9999970092774,2|0|0,0:0|0:0|0:0,0:0:0:0:
216,305,105531,2,0,P|271:373|296:305,1,195.999994018555,2|0,0:0|0:0,0:0:0:0:
256,138,106937,2,0,L|256:236,1,97.9999970092774,2|0,0:0|0:0,0:0:0:0:
68,30,107875,6,0,B|166:34|166:34|205:1|256:1,1,195.999994018555,6|0,0:0|0:0,0:0:0:0:
444,30,109281,2,0,B|346:34|346:34|307:1|256:1,1,195.999994018555,2|0,0:0|0:0,0:0:0:0:
343,179,110687,2,0,L|441:175,1,97.9999970092774,2|0,0:0|0:0,0:0:0:0:
169,179,111625,6,0,L|71:175,2,97.9999970092774,2|0|0,0:0|0:0|0:0,0:0:0:0:
256,81,113031,2,0,L|256:277,1,195.999994018555,2|0,0:0|0:0,0:0:0:0:
302,15,114437,2,0,P|240:2|189:37,1,97.9999970092774,2|0,0:0|0:0,0:0:0:0:
166,201,115375,6,0,B|217:201|256:168|256:168|295:201|346:201,1,195.999994018555,6|0,0:0|0:0,0:0:0:0:
166,64,116781,2,0,L|68:60,1,97.9999970092774,2|0,0:0|0:0,0:0:0:0:
256,168,117718,1,0,0:0:0:0:
346,64,118187,2,0,L|444:60,1,97.9999970092774,2|0,0:0|0:0,0:0:0:0:
166,192,119125,6,0,L|68:188,1,97.9999970092774,2|0,0:0|0:0,0:0:0:0:
346,192,120062,2,0,L|444:188,1,97.9999970092774,2|0,0:0|0:0,0:0:0:0:
256,145,121000,2,0,B|232:192|256:239|256:239|280:286|256:333,1,195.999994018555,2|0,0:0|0:0,0:0:0:0:
88,229,122875,6,0,B|72:154|117:94|117:94|98:73|96:47,2,195.999994018555,2|0|0,0:0|0:0|0:0,0:0:0:0:
423,229,126625,2,0,B|439:154|395:94|395:94|414:73|416:47,2,195.999994018555,2|0|0,0:0|0:0|0:0,0:0:0:0:
200,85,130375,6,0,P|165:85|93:69,1,97.9999970092774,2|0,0:0|0:0,0:0:0:0:
40,26,131078,1,0,0:0:0:0:
40,26,131312,2,0,P|26:85|43:123,1,97.9999970092774,2|0,0:0|0:0,0:0:0:0:
16,281,132250,2,0,P|51:281|123:265,1,97.9999970092774,2|0,0:0|0:0,0:0:0:0:
176,222,132953,1,0,0:0:0:0:
176,222,133187,2,0,P|190:281|173:319,1,48.9999985046387,2|0,0:0|0:0,0:0:0:0:
312,85,134125,6,0,P|347:85|419:69,1,97.9999970092774,2|0,0:0|0:0,0:0:0:0:
472,26,134828,1,0,0:0:0:0:
472,26,135062,2,0,P|486:85|469:123,1,97.9999970092774,2|0,0:0|0:0,0:0:0:0:
496,281,136000,2,0,P|461:281|389:265,1,97.9999970092774,2|0,0:0|0:0,0:0:0:0:
336,222,136703,1,0,0:0:0:0:
336,222,136937,2,0,P|322:281|339:319,1,97.9999970092774,2|0,0:0|0:0,0:0:0:0:
168,324,137875,6,0,L|178:228,1,48.9999985046387,0|0,0:0|0:0,0:0:0:0:
117,219,138343,2,0,L|21:229,1,48.9999985046387,2|0,0:0|0:0,0:0:0:0:
125,141,138812,2,0,L|29:151,1,48.9999985046387,2|0,0:0|0:0,0:0:0:0:
344,60,139750,2,0,L|324:252,1,97.9999970092774,2|0,0:0|0:0,0:0:0:0:
175,251,140687,2,0,L|165:347,2,73.4999977569581,2|0|0,0:0|0:0|0:0,0:0:0:0:
256,153,141625,6,0,B|202:111|136:130|136:130|116:100|116:65,1,195.999994018555,2|0,0:0|0:0,0:0:0:0:
256,6,143031,1,0,0:0:0:0:
256,153,143500,2,0,B|310:111|376:130|376:130|396:100|396:65,1,195.999994018555,2|0,0:0|0:0,0:0:0:0:
337,251,145375,6,0,L|346:301,1,48.9999985046387,2|0,0:0|0:0,0:0:0:0:
396,193,145843,2,0,L|417:238,1,48.9999985046387,0|0,0:0|0:0,0:0:0:0:
437,121,146312,2,0,L|469:159,2,48.9999985046387,2|0|0,0:0|0:0|0:0,0:0:0:0:
384,62,147015,1,0,0:0:0:0:
384,62,147250,2,0,P|340:48|252:53,1,97.9999970092774,2|0,0:0|0:0,0:0:0:0:
238,106,147953,1,2,0:0:0:0:
238,106,148187,2,0,P|189:104|142:89,1,97.9999970092774,2|0,0:0|0:0,0:0:0:0:
175,251,149125,6,0,L|166:301,1,48.9999985046387,2|0,0:0|0:0,0:0:0:0:
116,193,149593,2,0,L|95:238,1,48.9999985046387,0|0,0:0|0:0,0:0:0:0:
75,121,150062,2,0,L|43:159,2,48.9999985046387,2|0|0,0:0|0:0|0:0,0:0:0:0:
128,62,150765,1,0,0:0:0:0:
128,62,151000,2,0,P|172:48|260:53,1,97.9999970092774,2|0,0:0|0:0,0:0:0:0:
274,106,151703,2,0,L|358:112,1,48.9999985046387,2|0,0:0|0:0,0:0:0:0:
381,57,152171,2,0,L|465:51,2,48.9999985046387,2|0|0,0:0|0:0|0:0,0:0:0:0:
367,175,152875,6,0,P|380:214|377:262,2,73.4999977569581,2|0|0,0:0|0:0|0:0,0:0:0:0:
256,232,153812,1,2,0:0:0:0:
256,232,154046,2,0,L|256:296,2,48.9999985046387,0|0|0,0:0|0:0|0:0,0:0:0:0:
145,175,154750,2,0,P|132:214|135:262,2,73.4999977569581,2|0|0,0:0|0:0|0:0,0:0:0:0:
256,232,155687,1,2,0:0:0:0:
256,232,155921,2,0,L|256:296,2,48.9999985046387,0|0|0,0:0|0:0|0:0,0:0:0:0:
145,175,156625,5,2,0:0:0:0:
145,175,156859,2,0,P|173:138|217:113,1,97.9999970092774,0|0,0:0|0:0,0:0:0:0:
367,175,157562,1,2,0:0:0:0:
367,175,157796,2,0,P|339:138|295:113,1,97.9999970092774,0|0,0:0|0:0,0:0:0:0:
256,232,158500,2,0,L|256:369,2,97.9999970092774,2|0|0,0:0|0:0|0:0,0:0:0:0:
256,75,159906,2,0,L|256:11,1,48.9999985046387,0|0,0:0|0:0,0:0:0:0:
83,57,160375,6,0,P|121:113|192:124,1,140,6|0,0:0|0:0,0:0:0:0:
256,75,161017,1,2,0:0:0:0:
429,57,161232,2,0,P|391:113|320:124,1,140,10|0,0:0|0:0,0:0:0:0:
256,75,161875,1,0,0:0:0:0:
298,205,162089,2,0,P|339:209|387:203,1,70,2|0,0:0|0:0,0:0:0:0:
449,186,162517,1,2,0:0:0:0:
214,205,162946,2,0,P|173:209|125:203,1,70,10|0,0:0|0:0,0:0:0:0:
63,186,163375,1,2,0:0:0:0:
63,186,163589,1,0,0:0:0:0:
214,205,163803,6,0,B|214:275|214:275|182:363,1,140,2|0,0:0|0:0,0:0:0:0:
256,132,164446,1,2,0:0:0:0:
298,205,164660,2,0,B|298:275|298:275|330:363,1,140,10|0,0:0|0:0,0:0:0:0:
461,247,165517,2,0,L|461:177,2,70,2|0|0,0:0|0:0|0:0,0:0:0:0:
256,62,166375,1,2,0:0:0:0:
256,62,166803,1,2,0:0:0:0:
256,62,167232,6,0,P|184:69|87:95,1,140,2|0,0:0|0:0,0:0:0:0:
150,162,167875,1,2,0:0:0:0:
256,262,168089,2,0,P|184:255|87:229,1,140,10|0,0:0|0:0,0:0:0:0:
150,162,168732,1,0,0:0:0:0:
314,200,168946,2,0,B|340:224|340:224|341:259,1,70,2|0,0:0|0:0,0:0:0:0:
232,181,169375,1,0,0:0:0:0:
232,181,169589,2,0,B|240:147|240:147|270:128,1,70,2|8,0:0|0:0,0:0:0:0:
256,262,170017,1,0,0:0:0:0:
256,262,170232,2,0,B|222:272|222:272|192:255,1,70,2|0,0:0|0:0,0:0:0:0:
372,138,170660,6,0,B|424:186|424:186|426:256,1,140,2|0,0:0|0:0,0:0:0:0:
314,200,171303,1,2,0:0:0:0:
256,138,171517,2,0,B|204:186|204:186|202:256,1,140,10|0,0:0|0:0,0:0:0:0:
64,121,172375,2,0,B|-54:67,2,70,2|0|0,0:0|0:0|0:0,0:0:0:0:
256,262,173232,6,0,L|256:192,1,70,2|0,0:0|0:0,0:0:0:0:
256,108,173660,2,0,L|256:38,1,70,0|0,0:0|0:0,0:0:0:0:
256,192,174089,6,0,P|320:189|416:128,1,140,2|0,0:0|0:0,0:0:0:0:
437,88,174732,1,0,0:0:0:0:
423,233,174946,2,0,L|423:393,1,140,10|0,0:0|0:0,0:0:0:0:
507,303,175589,1,0,0:0:0:0:
339,268,175803,2,0,L|339:338,1,70,2|0,0:0|0:0,0:0:0:0:
507,303,176232,1,2,0:0:0:0:
312,130,176660,2,0,P|299:92|299:56,1,70,10|0,0:0|0:0,0:0:0:0:
394,148,177089,1,2,0:0:0:0:
394,148,177303,1,0,0:0:0:0:
256,192,177517,6,0,P|192:189|96:128,1,140,2|0,0:0|0:0,0:0:0:0:
75,88,178160,1,0,0:0:0:0:
89,233,178375,1,10,0:0:0:0:
89,233,178589,2,0,L|89:303,1,70,0|0,0:0|0:0,0:0:0:0:
5,303,179017,1,0,0:0:0:0:
173,268,179232,2,0,L|173:338,1,70,2|0,0:0|0:0,0:0:0:0:
5,303,179660,1,2,0:0:0:0:
200,130,180089,1,2,0:0:0:0:
200,130,180517,2,0,P|213:92|213:56,1,70,2|0,0:0|0:0,0:0:0:0:
256,192,180946,6,0,L|256:288,2,70,2|0|0,0:0|0:0|0:0,0:0:0:0:
118,148,181589,1,0,0:0:0:0:
213,62,181803,2,0,P|212:97|200:130,1,70,10|0,0:0|0:0,0:0:0:0:
312,130,182232,2,0,P|299:92|299:56,1,70,0|0,0:0|0:0,0:0:0:0:
394,148,182660,1,2,0:0:0:0:
394,148,182875,2,0,P|393:183|381:216,1,70,2|0,0:0|0:0,0:0:0:0:
132,215,183517,1,10,0:0:0:0:
132,215,183732,2,0,P|119:177|119:141,2,70,2|0|0,0:0|0:0|0:0,0:0:0:0:
256,342,184375,6,0,L|256:202,1,140,2|0,0:0|0:0,0:0:0:0:
256,118,185017,1,2,0:0:0:0:
187,21,185232,2,0,B|256:33|256:33|325:21,2,140,10|2|2,0:0|0:0|0:0,0:0:0:0:
187,276,186946,6,0,B|256:264|256:264|325:276,1,140,0|0,0:0|0:0,0:0:0:0:
362,26,187803,6,0,P|320:96|422:86,1,233.333333333333,6|0,0:0|0:0,0:0:0:0:
447,136,188660,2,0,P|444:182|433:227,1,93.3333333333333,10|0,0:0|0:0,0:0:0:0:
150,26,189375,2,0,P|204:110|90:86,1,280,2|0,0:0|0:0,0:0:0:0:
65,136,190375,2,0,P|68:182|79:227,1,93.3333333333333,10|0,0:0|0:0,0:0:0:0:
362,358,191089,6,0,P|308:274|422:298,1,280,0|0,0:0|0:0,0:0:0:0:
447,248,192089,2,0,P|444:202|433:157,1,93.3333333333333,10|0,0:0|0:0,0:0:0:0:
394,116,192517,2,0,P|348:113|303:102,1,93.3333333333333,2|0,0:0|0:0,0:0:0:0:
258,66,192946,2,0,P|300:136|198:126,1,233.333333333333,2|0,0:0|0:0,0:0:0:0:
175,75,193803,2,0,L|142:306,1,233.333333333333,10|0,0:0|0:0,0:0:0:0:
150,358,194660,6,0,P|192:288|90:298,1,233.333333333333,2|0,0:0|0:0,0:0:0:0:
65,248,195517,2,0,P|68:202|79:157,1,93.3333333333333,10|0,0:0|0:0,0:0:0:0:
362,358,196232,2,0,P|308:274|422:298,1,280,2|0,0:0|0:0,0:0:0:0:
447,248,197232,2,0,P|444:202|433:157,1,93.3333333333333,10|0,0:0|0:0,0:0:0:0:
150,26,197946,6,0,P|204:110|90:86,1,280,2|0,0:0|0:0,0:0:0:0:
65,136,198946,2,0,P|68:182|79:227,1,93.3333333333333,10|0,0:0|0:0,0:0:0:0:
118,268,199375,2,0,P|164:271|209:282,1,93.3333333333333,2|0,0:0|0:0,0:0:0:0:
254,318,199803,2,0,P|212:248|314:258,1,233.333333333333,2|0,0:0|0:0,0:0:0:0:
337,309,200660,2,0,L|370:78,1,233.333333333333,10|0,0:0|0:0,0:0:0:0:
362,26,201517,6,0,P|320:96|422:86,1,233.333333333333,6|0,0:0|0:0,0:0:0:0:
447,136,202375,2,0,P|444:182|433:227,1,93.3333333333333,10|0,0:0|0:0,0:0:0:0:
150,26,203089,2,0,P|204:110|90:86,1,280,2|0,0:0|0:0,0:0:0:0:
150,86,204089,1,10,0:0:0:0:
239,192,204375,2,0,P|226:261|193:322,1,140,2|0,0:0|0:0,0:0:0:0:
150,358,204946,6,0,P|192:288|90:298,1,233.333333333333,2|0,0:0|0:0,0:0:0:0:
65,248,205803,2,0,P|68:202|79:157,1,93.3333333333333,10|0,0:0|0:0,0:0:0:0:
362,358,206517,2,0,P|308:274|422:298,1,280,2|0,0:0|0:0,0:0:0:0:
447,248,207517,2,0,P|444:202|433:157,1,93.3333333333333,10|0,0:0|0:0,0:0:0:0:
150,26,208375,6,0,P|192:96|90:86,1,233.333333333333,6|0,0:0|0:0,0:0:0:0:
65,136,209232,2,0,P|68:182|79:227,1,93.3333333333333,10|0,0:0|0:0,0:0:0:0:
362,26,209946,2,0,P|308:110|422:86,1,280,2|0,0:0|0:0,0:0:0:0:
447,136,210946,2,0,P|444:182|433:227,1,93.3333333333333,10|0,0:0|0:0,0:0:0:0:
150,358,211660,6,0,P|204:274|90:298,1,280,2|0,0:0|0:0,0:0:0:0:
150,298,212660,1,10,0:0:0:0:
239,192,212946,2,0,P|226:123|193:62,1,140,2|0,0:0|0:0,0:0:0:0:
150,26,213517,1,2,0:0:0:0:
187,296,213946,6,0,B|256:284|256:284|325:296,2,140,2|4|0,0:0|0:0|0:0,0:0:0:0:
360,98,215232,6,0,P|382:186|381:256,1,140,6|0,0:0|0:0,0:0:0:0:
325,296,215875,2,0,P|319:340|326:390,1,70,2|8,0:0|0:0,0:0:0:0:
256,248,216303,2,0,L|256:152,2,70,2|0|0,0:0|0:0|0:0,0:0:0:0:
191,365,216946,2,0,P|192:330|187:296,1,70,2|0,0:0|0:0,0:0:0:0:
129,235,217375,1,2,0:0:0:0:
256,38,217803,2,0,L|256:178,1,140,10|0,0:0|0:0,0:0:0:0:
444,281,218660,6,0,P|399:232|324:221,1,140,2|0,0:0|0:0,0:0:0:0:
256,262,219303,1,2,0:0:0:0:
68,281,219517,2,0,P|113:232|188:221,1,140,10|0,0:0|0:0,0:0:0:0:
256,262,220160,1,0,0:0:0:0:
256,108,220375,2,0,L|256:178,1,70,2|0,0:0|0:0,0:0:0:0:
256,262,220803,1,2,0:0:0:0:
194,51,221232,2,0,P|295:33|339:93,1,140,10|0,0:0|0:0,0:0:0:0:
194,235,222089,6,0,P|295:253|339:193,1,140,2|0,0:0|0:0,0:0:0:0:
256,108,222732,2,0,L|256:178,1,70,2|8,0:0|0:0,0:0:0:0:
256,366,223375,1,0,0:0:0:0:
183,150,223803,1,2,0:0:0:0:
183,150,224017,2,0,P|107:143|31:100,1,70,2|0,0:0|0:0,0:0:0:0:
256,108,224446,2,0,L|256:38,1,70,2|8,0:0|0:0,0:0:0:0:
329,150,224875,2,0,P|405:143|481:100,1,140,2|0,0:0|0:0,0:0:0:0:
462,269,225517,6,0,P|399:240|330:234,1,140,2|0,0:0|0:0,0:0:0:0:
256,276,226160,2,0,L|256:346,1,70,2|8,0:0|0:0,0:0:0:0:
183,234,226589,2,0,P|107:241|31:284,1,70,2|0,0:0|0:0,0:0:0:0:
256,192,227017,1,0,0:0:0:0:
256,192,227232,2,0,L|256:122,2,70,2|0|0,0:0|0:0|0:0,0:0:0:0:
187,370,228089,2,0,B|256:350|325:370,1,140,10|0,0:0|0:0,0:0:0:0:
511,222,228946,6,0,L|423:228,1,70,6|0,0:0|0:0,0:0:0:0:
348,141,229375,2,0,L|436:147,1,70,0|0,0:0|0:0,0:0:0:0:
325,60,229803,2,0,B|256:40|187:60,1,140,10|0,0:0|0:0,0:0:0:0:
94,146,230446,2,0,L|182:140,1,70,2|0,0:0|0:0,0:0:0:0:
18,107,230875,1,2,0:0:0:0:
64,230,231089,2,0,L|240:218,1,140,2|8,0:0|0:0,0:0:0:0:
256,287,231732,2,0,L|256:383,2,70,0|0|0,0:0|0:0|0:0,0:0:0:0:
256,154,232375,6,0,L|256:32,2,105,2|0|0,0:0|0:0|0:0,0:0:0:0:
308,220,233232,2,0,L|484:232,1,140,10|0,0:0|0:0,0:0:0:0:
425,59,234089,2,0,L|337:53,1,70,2|0,0:0|0:0,0:0:0:0:
187,132,234517,2,0,B|256:152|325:132,1,140,2|8,0:0|0:0,0:0:0:0:
256,314,235375,2,0,B|256:384,1,70,0|0,0:0|0:0,0:0:0:0:
214,241,235803,6,0,P|163:245|108:265,2,105,2|0|0,0:0|0:0|0:0,0:0:0:0:
298,241,236660,2,0,P|348:245|404:265,1,105,10|0,0:0|0:0,0:0:0:0:
436,242,237089,2,0,P|444:198|441:154,1,70,0|0,0:0|0:0,0:0:0:0:
379,118,237517,2,0,P|371:74|374:30,1,70,2|0,0:0|0:0,0:0:0:0:
221,84,237946,2,0,P|265:87|309:79,1,70,2|0,2:0|0:0,0:0:0:0:
141,49,238375,1,10,0:0:0:0:
141,49,238589,2,0,P|141:84|133:119,1,70,2|0,0:0|0:0,0:0:0:0:
92,297,239232,6,0,P|145:253|214:241,1,140,2|0,0:0|0:0,0:0:0:0:
256,384,239875,2,0,B|256:314,2,70,2|8|0,0:0|0:0|0:0,0:0:0:0:
420,297,240517,2,0,P|367:253|298:241,1,140,2|0,0:0|0:0,0:0:0:0:
217,124,241803,6,0,P|192:128|137:160,1,48.9999985046387,2|0,0:0|0:0,0:0:0:0:
295,124,242232,2,0,P|320:128|375:160,1,48.9999985046387,0|0,0:0|0:0,0:0:0:0:
256,290,242660,6,0,L|256:192,1,97.9999970092774,6|0,0:0|0:0,0:0:0:0:
100,76,243517,1,2,0:0:0:0:
120,212,243946,2,0,P|116:270|96:326,1,97.9999970092774,2|0,0:0|0:0,0:0:0:0:
412,76,245232,1,2,0:0:0:0:
392,212,245660,2,0,P|396:270|416:326,1,97.9999970092774,2|0,0:0|0:0,0:0:0:0:
256,40,246946,5,2,0:0:0:0:
159,137,247375,2,0,P|111:150|63:152,1,97.9999970092774,2|0,0:0|0:0,0:0:0:0:
256,234,248232,2,0,L|256:352,1,97.9999970092774,2|0,0:0|0:0,0:0:0:0:
353,137,249089,2,0,P|401:150|449:152,1,97.9999970092774,2|0,0:0|0:0,0:0:0:0:
87,247,250375,5,2,0:0:0:0:
108,112,250803,2,0,P|143:76|209:61,1,97.9999970092774,2|0,0:0|0:0,0:0:0:0:
325,61,251660,2,0,P|371:77|404:113,1,97.9999970092774,2|0,0:0|0:0,0:0:0:0:
425,247,252517,1,2,0:0:0:0:
256,192,252946,6,0,B|208:175|160:192|160:192|112:209|64:192,2,195.999994018555,2|0|0,0:0|0:0|0:0,0:0:0:0:
448,192,255517,2,0,B|400:175|352:192|352:192|304:209|256:192,1,195.999994018555,0|0,0:0|0:0,0:0:0:0:
104,309,257232,6,0,P|108:251|128:195,1,97.9999970092774,2|0,0:0|0:0,0:0:0:0:
256,331,258089,2,0,L|256:233,1,97.9999970092774,2|0,0:0|0:0,0:0:0:0:
408,309,258946,2,0,P|404:251|384:195,1,97.9999970092774,2|0,0:0|0:0,0:0:0:0:
256,95,259803,5,2,0:0:0:0:
159,192,260232,1,0,0:0:0:0:
256,289,260660,1,0,0:0:0:0:
353,192,261089,2,0,P|401:179|449:177,1,97.9999970092774,2|0,0:0|0:0,0:0:0:0:
256,289,261946,1,0,0:0:0:0:
159,192,262375,1,0,0:0:0:0:
236,1,262803,6,0,P|254:48|256:96,1,97.9999970092774,2|0,0:0|0:0,0:0:0:0:
65,212,263674,2,0,P|112:194|160:192,1,97.9999970092774,2|0,0:0|0:0,0:0:0:0:
276,383,264558,2,0,P|258:336|256:288,1,97.9999970092774,2|0,0:0|0:0,0:0:0:0:
447,172,265443,2,0,P|400:190|352:192,2,97.9999970092774,2|0|0,0:0|0:0|0:0,0:0:0:0:
236,120,266770,6,0,P|225:241|286:312,2,154.000004699707,2|0|0,0:0|0:0|0:0,0:0:0:0:
296,56,269270,5,0,0:0:0:0:
296,56,269497,2,0,P|303:79|304:104,1,48.9999985046387,2|0,0:0|0:0,0:0:0:0:
208,104,269951,2,0,P|214:62|233:30,1,48.9999985046387,0|0,0:0|0:0,0:0:0:0:
96,104,270406,6,0,L|51:178,1,48.9999985046387,6|0,0:0|0:0,0:0:0:0:
152,160,270860,2,0,L|129:235,1,48.9999985046387,0|0,0:0|0:0,0:0:0:0:
208,104,271315,2,0,P|257:112|304:104,1,97.9999970092774,2|0,0:0|0:0,0:0:0:0:
360,48,271997,1,0,0:0:0:0:
416,104,272224,2,0,L|461:178,1,48.9999985046387,2|0,0:0|0:0,0:0:0:0:
360,160,272679,2,0,L|383:235,1,48.9999985046387,0|0,0:0|0:0,0:0:0:0:
304,104,273133,2,0,P|255:112|208:104,1,97.9999970092774,2|0,0:0|0:0,0:0:0:0:
57,260,274042,6,0,L|47:327,1,48.9999985046387,2|0,0:0|0:0,0:0:0:0:
135,260,274497,2,0,L|125:327,1,48.9999985046387,0|0,0:0|0:0,0:0:0:0:
96,192,274951,2,0,P|108:151|150:118,1,97.9999970092774,2|0,0:0|0:0,0:0:0:0:
362,118,275860,2,0,P|404:151|416:192,1,97.9999970092774,2|0,0:0|0:0,0:0:0:0:
338,192,276542,1,0,0:0:0:0:
377,260,276770,2,0,L|387:327,1,48.9999985046387,2|0,0:0|0:0,0:0:0:0:
455,260,277224,2,0,L|465:327,1,48.9999985046387,0|0,0:0|0:0,0:0:0:0:
416,192,277679,6,0,L|461:118,1,48.9999985046387,2|0,0:0|0:0,0:0:0:0:
360,136,278133,2,0,L|383:61,1,48.9999985046387,0|0,0:0|0:0,0:0:0:0:
304,192,278588,2,0,P|255:184|208:192,1,97.9999970092774,2|0,0:0|0:0,0:0:0:0:
152,248,279270,1,0,0:0:0:0:
96,192,279497,2,0,L|51:118,1,48.9999985046387,2|0,0:0|0:0,0:0:0:0:
152,136,279951,2,0,L|129:61,1,48.9999985046387,0|0,0:0|0:0,0:0:0:0:
208,192,280406,2,0,P|257:184|304:192,1,97.9999970092774,2|0,0:0|0:0,0:0:0:0:
455,61,281315,6,0,L|465:-6,1,48.9999985046387,2|0,0:0|0:0,0:0:0:0:
377,61,281770,2,0,L|387:-6,1,48.9999985046387,0|0,0:0|0:0,0:0:0:0:
416,129,282224,2,0,P|404:170|362:203,1,97.9999970092774,2|0,0:0|0:0,0:0:0:0:
150,203,283133,2,0,P|108:170|96:129,1,97.9999970092774,2|0,0:0|0:0,0:0:0:0:
174,129,283815,1,0,0:0:0:0:
135,61,284042,2,0,L|125:-6,1,48.9999985046387,2|0,0:0|0:0,0:0:0:0:
57,61,284497,2,0,L|47:-6,1,48.9999985046387,0|0,0:0|0:0,0:0:0:0:
96,129,284951,6,0,P|104:178|96:225,1,97.9999970092774,2|0,0:0|0:0,0:0:0:0:
256,99,285860,2,0,L|256:-29,1,97.9999970092774,2|0,0:0|0:0,0:0:0:0:
416,129,286770,2,0,P|408:178|416:225,1,97.9999970092774,2|0,0:0|0:0,0:0:0:0:
256,353,287679,2,0,L|256:255,1,97.9999970092774,2|0,0:0|0:0,0:0:0:0:
256,99,288588,1,2,0:0:0:0:
256,99,289951,6,0,L|256:32,1,48.9999985046387,0|0,0:0|0:0,0:0:0:0:
161,157,290406,2,0,P|240:177|351:157,2,195.999994018555,2|0|2,0:0|0:0|0:0,0:0:0:0:
256,270,294125,6,0,L|256:200,1,70,2|0,0:0|0:0,0:0:0:0:
256,54,294586,1,8,0:0:0:0:
256,54,294817,1,8,0:0:0:0:
364,108,295048,2,0,P|332:122|298:127,1,70,2|0,0:0|0:0,0:0:0:0:
214,127,295509,2,0,P|171:120|135:99,1,70,2|0,0:0|0:0,0:0:0:0:
256,54,295971,1,10,0:0:0:0:
393,192,296201,2,0,P|329:210|256:213,1,140,6|0,0:0|0:0,0:0:0:0:
256,54,296894,1,10,0:0:0:0:
119,192,297125,2,0,P|183:210|256:213,1,140,6|0,0:0|0:0,0:0:0:0:
393,192,297817,6,0,L|387:310,1,70,6|0,0:0|0:0,0:0:0:0:
311,350,298278,2,0,L|305:232,1,70,2|0,0:0|0:0,0:0:0:0:
325,142,298740,1,10,0:0:0:0:
325,142,298971,2,0,P|256:152|187:142,1,140,0|0,0:0|0:0,0:0:0:0:
119,192,299663,2,0,L|125:310,1,70,2|0,0:0|0:0,0:0:0:0:
201,350,300125,2,0,L|207:232,1,70,2|0,0:0|0:0,0:0:0:0:
187,142,300586,1,10,0:0:0:0:
187,142,300817,2,0,P|256:152|325:142,1,140,0|0,0:0|0:0,0:0:0:0:
256,236,301509,6,0,L|256:364,2,105,2|0|0,0:0|0:0|0:0,0:0:0:0:
107,347,302432,2,0,P|140:360|179:362,1,70,10|0,0:0|0:0,0:0:0:0:
68,272,302894,2,0,P|33:274|0:287,1,70,0|0,0:0|0:0,0:0:0:0:
134,221,303355,2,0,P|135:174|105:104,1,105,2|0,0:0|0:0,0:0:0:0:
79,99,303817,2,0,P|46:112|7:114,1,70,0|0,0:0|0:0,0:0:0:0:
138,39,304278,1,10,0:0:0:0:
197,98,304509,2,0,P|230:111|269:113,1,70,0|0,0:0|0:0,0:0:0:0:
405,347,305201,6,0,P|372:360|333:362,1,70,6|0,0:0|0:0,0:0:0:0:
444,272,305663,2,0,P|479:274|512:287,1,70,2|0,0:0|0:0,0:0:0:0:
378,221,306125,2,0,P|377:174|407:104,2,105,10|0|0,0:0|0:0|0:0,0:0:0:0:
315,344,307048,2,0,P|316:297|286:227,1,105,2|0,0:0|0:0,0:0:0:0:
260,222,307509,2,0,P|227:235|188:237,1,70,2|0,0:0|0:0,0:0:0:0:
319,162,307971,1,10,0:0:0:0:
378,221,308201,2,0,P|411:234|519:217,1,140,0|0,0:0|0:0,0:0:0:0:
322,92,308894,6,0,L|319:162,1,70,6|0,0:0|0:0,0:0:0:0:
256,41,309355,1,0,3:0:0:0:
256,41,309586,1,0,3:0:0:0:
189,92,309817,2,0,L|193:162,1,70,2|0,0:0|0:0,0:0:0:0:
256,41,310278,1,0,3:0:0:0:
256,41,310509,1,0,3:0:0:0:
256,218,310740,1,2,0:0:0:0:
256,218,310971,2,0,L|256:384,1,140,0|0,0:0|0:0,0:0:0:0:
305,150,311663,2,0,P|230:138|189:167,2,105,0|0|0,0:0|0:0|0:0,0:0:0:0:
133,189,312586,6,0,P|129:121|175:72,1,140,6|0,0:0|0:0,0:0:0:0:
256,50,313278,1,0,0:0:0:0:
337,72,313509,2,0,P|383:121|379:189,2,140,0|0|2,0:0|0:0|0:0,0:0:0:0:
256,285,315817,6,0,L|256:352,1,48.9999985046387,0|0,0:0|0:0,0:0:0:0:
161,227,316278,2,0,P|240:207|351:227,2,195.999994018555,2|0|2,0:0|0:0|0:0,0:0:0:0:
214,262,319971,6,0,P|179:263|146:273,1,70,6|0,0:0|0:0,0:0:0:0:
298,262,320432,2,0,P|333:263|366:273,1,70,2|0,0:0|0:0,0:0:0:0:
201,179,320894,2,0,P|166:180|133:190,1,70,10|0,0:0|0:0,0:0:0:0:
311,179,321355,2,0,P|346:180|379:190,1,70,2|0,0:0|0:0,0:0:0:0:
188,96,321817,2,0,P|153:97|120:107,1,70,6|0,0:0|0:0,0:0:0:0:
324,96,322278,2,0,P|359:97|392:107,1,70,2|0,0:0|0:0,0:0:0:0:
256,145,322740,5,10,0:0:0:0:
221,19,322971,2,0,L|291:19,1,70,2|0,0:0|0:0,0:0:0:0:
256,145,323432,1,2,0:0:0:0:
68,153,323663,6,0,P|126:104|188:96,1,140,6|0,0:0|0:0,0:0:0:0:
256,338,324586,1,10,0:0:0:0:
289,261,324817,2,0,P|312:231|340:216,1,70,0|0,0:0|0:0,0:0:0:0:
365,296,325278,1,2,0:0:0:0:
444,153,325509,2,0,P|386:104|324:96,1,140,2|0,0:0|0:0,0:0:0:0:
256,338,326432,2,0,L|256:268,1,70,10|0,0:0|0:0,0:0:0:0:
172,216,326894,2,0,L|172:286,1,70,0|0,0:0|0:0,0:0:0:0:
68,153,327355,6,0,P|126:104|188:96,1,140,2|0,0:0|0:0,0:0:0:0:
256,338,328278,2,0,L|256:268,1,70,10|0,0:0|0:0,0:0:0:0:
340,216,328740,2,0,L|340:286,1,70,0|0,0:0|0:0,0:0:0:0:
444,153,329201,2,0,P|386:104|324:96,1,140,2|0,0:0|0:0,0:0:0:0:
256,338,330125,1,10,0:0:0:0:
175,361,330355,1,0,0:0:0:0:
172,216,330586,2,0,P|193:247|195:280,1,70,2|0,0:0|0:0,0:0:0:0:
68,153,331048,6,0,P|126:104|188:96,1,140,6|0,0:0|0:0,0:0:0:0:
256,338,331971,1,10,0:0:0:0:
289,261,332201,2,0,P|312:231|340:216,1,70,0|0,0:0|0:0,0:0:0:0:
365,296,332663,1,2,0:0:0:0:
444,153,332894,2,0,P|386:104|324:96,1,140,2|0,0:0|0:0,0:0:0:0:
256,338,333817,2,0,L|256:268,1,70,10|0,0:0|0:0,0:0:0:0:
172,216,334278,2,0,L|172:286,1,70,0|0,0:0|0:0,0:0:0:0:
325,133,334740,6,0,B|289:130|256:143|256:143|223:130|187:133,1,140,2|0,0:0|0:0,0:0:0:0:
312,287,335663,2,0,P|308:332|288:371,1,70,10|0,0:0|0:0,0:0:0:0:
200,287,336125,2,0,P|204:332|224:371,1,70,2|0,0:0|0:0,0:0:0:0:
256,224,336586,1,2,3:2:0:0:
256,224,336817,1,0,3:0:0:0:
256,140,337048,1,2,3:2:0:0:
256,140,337278,1,0,3:0:0:0:
394,161,337509,6,0,P|365:177|329:182,1,70,10|0,0:0|0:0,0:0:0:0:
118,161,337971,2,0,P|147:177|183:182,1,70,2|0,0:0|0:0,0:0:0:0:
256,0,338432,6,0,L|256:140,1,140,6|0,0:0|0:0,0:0:0:0:
476,362,339355,2,0,P|466:277|436:234,1,140,10|0,0:0|0:0,0:0:0:0:
363,192,340048,1,2,0:0:0:0:
476,22,340278,2,0,P|466:107|436:150,1,140,2|0,0:0|0:0,0:0:0:0:
149,192,341201,2,0,P|178:208|214:213,1,70,10|0,0:0|0:0,0:0:0:0:
363,192,341663,2,0,P|334:208|298:213,1,70,2|0,0:0|0:0,0:0:0:0:
256,0,342125,6,0,L|256:140,1,140,2|0,0:0|0:0,0:0:0:0:
36,362,343048,2,0,P|46:277|76:234,1,140,10|0,0:0|0:0,0:0:0:0:
149,192,343740,1,2,0:0:0:0:
36,22,343971,2,0,P|46:107|76:150,1,140,2|0,0:0|0:0,0:0:0:0:
363,192,344894,2,0,P|334:208|298:213,1,70,10|0,0:0|0:0,0:0:0:0:
149,192,345355,2,0,P|178:208|214:213,1,70,2|0,0:0|0:0,0:0:0:0:
256,0,345817,6,0,L|256:140,1,140,6|0,0:0|0:0,0:0:0:0:
426,380,346740,2,0,P|341:370|298:340,1,140,10|0,0:0|0:0,0:0:0:0:
256,267,347432,1,2,0:0:0:0:
86,380,347663,2,0,P|171:370|214:340,1,140,2|0,0:0|0:0,0:0:0:0:
256,267,348355,1,2,0:0:0:0:
122,221,348586,2,0,P|141:249|172:267,1,70,10|0,0:0|0:0,0:0:0:0:
340,267,349048,2,0,P|370:250|394:199,1,70,2|0,0:0|0:0,0:0:0:0:
256,127,349509,6,0,L|256:267,1,140,2|0,0:0|0:0,0:0:0:0:
152,82,350432,2,0,P|180:62|215:54,1,70,10|0,0:0|0:0,0:0:0:0:
298,54,350894,2,0,P|350:72|382:138,1,70,2|0,0:0|0:0,0:0:0:0:
214,222,351355,2,0,P|162:204|130:138,1,70,6|0,0:0|0:0,0:0:0:0:
214,138,351817,1,2,3:2:0:0:
146,291,352048,1,0,3:0:0:0:
298,222,352278,2,0,P|350:204|382:138,1,70,6|0,0:0|0:0,0:0:0:0:
298,138,352740,1,2,3:2:0:0:
366,291,352971,1,0,3:0:0:0:
214,222,353201,6,0,P|146:227|27:279,1,140,6|0,0:0|0:0,0:0:0:0:
434,249,354125,2,0,P|369:228|298:222,1,140,10|0,0:0|0:0,0:0:0:0:
256,295,354817,1,2,0:0:0:0:
340,141,355048,2,0,P|377:145|422:158,1,70,2|0,0:0|0:0,0:0:0:0:
172,141,355509,2,0,P|135:145|90:158,1,70,2|0,0:0|0:0,0:0:0:0:
256,160,355971,2,0,L|256:32,2,105,10|0|0,0:0|0:0|0:0,0:0:0:0:
187,254,356894,6,0,P|256:244|325:254,1,140,2|0,0:0|0:0,0:0:0:0:
214,77,357817,2,0,P|180:66|146:66,1,70,10|0,0:0|0:0,0:0:0:0:
298,77,358278,2,0,P|332:66|366:66,1,70,2|0,0:0|0:0,0:0:0:0:
256,150,358740,2,0,L|256:342,1,140,2|0,0:0|0:0,0:0:0:0:
256,4,359663,1,0,0:0:0:0:
256,4,360125,1,0,0:0:0:0:
91,106,360586,6,0,P|138:120|187:123,1,97.9999970092774,2|0,0:0|0:0,0:0:0:0:
325,123,361509,2,0,P|363:121|428:104,1,97.9999970092774,2|0,0:0|0:0,0:0:0:0:
256,4,362432,1,2,0:0:0:0:
145,126,364278,6,0,P|173:130|262:125,1,70,6|0,0:0|0:0,0:0:0:0:
256,59,364740,1,0,3:0:0:0:
256,59,364971,1,0,3:0:0:0:
367,126,365201,2,0,P|338:130|250:125,1,70,10|0,0:0|0:0,0:0:0:0:
256,59,365663,1,0,3:0:0:0:
256,59,365894,1,0,3:0:0:0:
256,205,366125,1,14,0:0:0:0:
256,205,366355,2,0,L|256:365,1,140,2|0,0:0|0:0,0:0:0:0:
145,136,367048,6,0,P|173:132|262:137,1,70,2|0,0:0|0:0,0:0:0:0:
367,136,367509,2,0,P|338:132|250:137,1,70,2|0,0:0|0:0,0:0:0:0:
177,219,367971,6,0,P|256:276|340:192,1,210,6|0,0:0|0:0,0:0:0:0:
256,192,368894,1,10,0:0:0:0:
188,345,369125,2,0,P|256:360|401:270,1,140,2|0,0:0|0:0,0:0:0:0:
161,226,369817,2,0,B|197:251|197:251|178:295|188:345,1,140,2|0,0:0|0:0,0:0:0:0:
256,192,370509,1,0,0:0:0:0:
351,226,370740,2,0,B|315:251|315:251|334:295|324:345,1,140,10|0,0:0|0:0,0:0:0:0:
256,192,371432,1,0,0:0:0:0:
336,77,371663,6,0,P|336:112|326:146,1,70,2|0,0:0|0:0,0:0:0:0:
186,146,372125,2,0,P|176:112|176:77,1,70,2|0,0:0|0:0,0:0:0:0:
256,192,372586,2,0,L|256:301,2,105,10|0|0,0:0|0:0|0:0,0:0:0:0:
334,327,373509,1,2,0:0:0:0:
178,327,373740,1,8,0:0:0:0:
256,192,373971,2,0,L|256:96,1,70,2|0,0:0|0:0,0:0:0:0:
189,243,374432,1,2,3:2:0:0:
189,243,374663,1,0,3:0:0:0:
323,243,374894,1,2,3:2:0:0:
323,243,375125,1,0,3:0:0:0:
177,160,375355,6,0,P|256:103|340:187,1,210,6|0,0:0|0:0,0:0:0:0:
256,187,376278,1,10,0:0:0:0:
188,34,376509,2,0,P|256:19|401:109,1,140,2|0,0:0|0:0,0:0:0:0:
161,153,377201,2,0,B|197:128|197:128|178:84|188:34,1,140,2|0,0:0|0:0,0:0:0:0:
256,187,377894,1,0,0:0:0:0:
351,153,378125,2,0,B|315:128|315:128|334:84|324:34,1,140,10|0,0:0|0:0,0:0:0:0:
256,187,378817,1,0,0:0:0:0:
406,217,379048,6,0,P|435:157|413:96,1,70,6|0,0:0|0:0,0:0:0:0:
412,74,379509,1,0,3:0:0:0:
412,74,379740,1,0,3:0:0:0:
323,232,379971,2,0,L|323:337,1,105,10|0,0:0|0:0,0:0:0:0:
353,365,380432,2,0,P|418:383|474:351,1,70,2|0,0:0|0:0,0:0:0:0:
249,376,380894,1,6,0:0:0:0:
256,192,381009,12,0,382855,0:0:0:0:
300,94,388910,6,0,P|384:74|418:94,2,70,2|0|0,0:0|0:0|0:0,0:0:0:0:
256,166,389660,1,2,0:0:0:0:
300,238,389910,1,10,0:0:0:0:
300,238,390160,2,0,P|296:307|256:364,1,140,0|0,0:0|0:0,0:0:0:0:
196,305,390910,2,0,L|87:309,2,105,2|0|0,0:0|0:0|0:0,0:0:0:0:
256,364,391910,2,0,P|276:280|256:246,1,70,10|0,0:0|0:0,0:0:0:0:
233,230,392410,2,0,P|238:196|256:166,1,70,0|0,0:0|0:0,0:0:0:0:
212,94,392910,6,0,P|128:74|94:94,2,70,2|0|0,0:0|0:0|0:0,0:0:0:0:
256,166,393660,1,2,0:0:0:0:
212,238,393910,1,10,0:0:0:0:
212,238,394160,2,0,P|216:307|256:364,1,140,0|0,0:0|0:0,0:0:0:0:
316,305,394910,2,0,L|425:309,2,105,2|0|0,0:0|0:0|0:0,0:0:0:0:
256,364,395910,2,0,P|236:280|256:246,1,70,10|0,0:0|0:0,0:0:0:0:
279,230,396410,2,0,P|274:196|256:166,1,70,0|0,0:0|0:0,0:0:0:0:
204,73,396910,6,0,P|272:80|332:64,1,105,2|0,0:0|0:0,0:0:0:0:
343,51,397410,2,0,P|408:57|449:109,1,70,2|0,0:0|0:0,0:0:0:0:
452,132,397910,1,8,0:0:0:0:
363,201,398160,2,0,L|368:131,2,70,2|0|0,0:0|0:0|0:0,0:0:0:0:
308,73,398910,2,0,P|240:80|180:64,1,105,2|0,0:0|0:0,0:0:0:0:
169,51,399410,2,0,P|104:57|63:109,1,70,2|0,0:0|0:0,0:0:0:0:
60,132,399910,1,8,0:0:0:0:
149,201,400160,2,0,L|144:131,2,70,2|0|0,0:0|0:0|0:0,0:0:0:0:
221,99,400910,6,0,P|258:93|317:112,1,70,2|0,0:0|0:0,0:0:0:0:
363,201,401410,2,0,L|368:131,2,70,2|0|8,0:0|0:0|0:0,0:0:0:0:
368,355,402160,2,0,L|363:285,2,70,2|0|0,0:0|0:0|0:0,0:0:0:0:
287,378,402910,2,0,P|218:379|159:357,1,105,2|0,0:0|0:0,0:0:0:0:
144,355,403410,2,0,L|149:285,2,70,2|0|8,0:0|0:0|0:0,0:0:0:0:
149,201,404160,2,0,L|144:131,2,70,2|0|0,0:0|0:0|0:0,0:0:0:0:
204,73,404910,6,0,P|272:80|332:64,1,105,2|0,0:0|0:0,0:0:0:0:
343,51,405410,2,0,P|408:57|449:109,1,70,2|0,0:0|0:0,0:0:0:0:
452,132,405910,1,8,0:0:0:0:
363,201,406160,2,0,L|368:131,2,70,2|0|0,0:0|0:0|0:0,0:0:0:0:
308,73,406910,2,0,P|240:80|180:64,1,105,2|0,0:0|0:0,0:0:0:0:
169,51,407410,2,0,P|104:57|63:109,1,70,2|0,0:0|0:0,0:0:0:0:
60,132,407910,1,8,0:0:0:0:
149,201,408160,2,0,L|144:131,2,70,2|0|0,0:0|0:0|0:0,0:0:0:0:
209,324,408910,6,0,L|214:254,1,70,2|0,0:0|0:0,0:0:0:0:
298,254,409410,2,0,L|303:324,1,70,2|0,0:0|0:0,0:0:0:0:
256,181,409910,1,8,0:0:0:0:
315,122,410160,2,0,P|364:105|425:108,2,70,2|0|0,0:0|0:0|0:0,0:0:0:0:
197,122,410910,2,0,P|147:105|87:108,1,105,2|0,0:0|0:0,0:0:0:0:
63,133,411410,2,0,L|69:227,1,70,2|0,0:0|0:0,0:0:0:0:
76,339,411910,1,8,0:0:0:0:
188,255,412160,2,0,P|153:257|119:268,2,70,2|0|0,0:0|0:0|0:0,0:0:0:0:
256,108,412910,6,0,B|224:157|256:206|256:206|288:255|256:304,1,210,2|0,0:0|0:0,0:0:0:0:
324,157,413910,2,0,L|434:164,2,105,10|0|0,0:0|0:0|0:0,0:0:0:0:
90,83,414910,6,0,P|147:41|214:35,1,140,6|0,0:0|0:0,0:0:0:0:
256,108,415660,1,2,0:0:0:0:
422,83,415910,2,0,P|365:41|298:35,2,140,10|0|0,0:0|0:0|0:0,0:0:0:0:
256,178,417160,2,0,L|256:108,1,70,2|0,0:0|0:0,0:0:0:0:
325,227,417660,1,2,0:0:0:0:
187,227,417910,2,0,P|118:220|65:183,2,105,10|0|0,0:0|0:0|0:0,0:0:0:0:
324,227,418910,6,0,P|342:185|346:58,1,140,2|0,0:0|0:0,0:0:0:0:
256,178,419660,1,2,0:0:0:0:
160,92,419910,2,0,P|164:161|188:227,2,140,10|0|0,0:0|0:0|0:0,0:0:0:0:
256,178,421160,1,2,0:0:0:0:
291,34,421410,2,0,L|195:34,1,70,2|0,0:0|0:0,0:0:0:0:
256,178,421910,2,0,L|256:285,1,105,10|0,0:0|0:0,0:0:0:0:
291,306,422410,2,0,L|195:306,1,70,2|0,0:0|0:0,0:0:0:0:
90,153,422910,6,0,P|147:111|214:105,1,140,6|0,0:0|0:0,0:0:0:0:
256,178,423660,1,2,0:0:0:0:
422,153,423910,2,0,P|365:111|298:105,2,140,10|0|0,0:0|0:0|0:0,0:0:0:0:
256,178,425160,1,2,0:0:0:0:
221,21,425410,2,0,L|317:21,1,70,2|0,0:0|0:0,0:0:0:0:
256,178,425910,2,0,L|256:285,2,105,10|0|0,0:0|0:0|0:0,0:0:0:0:
133,45,426910,6,0,B|171:94|171:94|142:123|138:163,1,140,6|0,0:0|0:0,0:0:0:0:
256,94,427660,1,2,0:0:0:0:
379,45,427910,2,0,B|341:94|341:94|370:123|374:163,1,140,10|0,0:0|0:0,0:0:0:0:
256,248,428660,2,0,L|256:178,1,70,2|0,0:0|0:0,0:0:0:0:
153,70,429160,2,0,L|214:105,1,70,2|0,0:0|0:0,0:0:0:0:
359,70,429660,2,0,L|298:105,1,70,2|8,0:0|0:0,0:0:0:0:
256,32,430160,1,2,0:0:0:0:
256,178,430410,2,0,L|256:248,1,70,2|0,0:0|0:0,0:0:0:0:
65,350,430910,6,0,P|116:302|183:290,1,140,6|0,0:0|0:0,0:0:0:0:
256,332,431660,1,0,3:0:0:0:
447,350,431910,2,0,P|396:302|329:290,1,140,10|0,0:0|0:0,0:0:0:0:
256,332,432660,1,0,3:0:0:0:
358,209,432910,2,0,P|346:142|298:91,1,140,2|0,0:0|0:0,0:0:0:0:
256,164,433660,1,0,3:0:0:0:
154,209,433910,2,0,P|166:142|214:91,1,140,10|0,0:0|0:0,0:0:0:0:
256,164,434660,1,0,3:0:0:0:
183,290,434910,6,0,P|106:284|38:256,1,140,2|0,0:0|0:0,0:0:0:0:
256,248,435660,1,0,3:0:0:0:
329,290,435910,2,0,P|406:284|474:256,1,140,10|0,0:0|0:0,0:0:0:0:
256,248,436660,1,0,3:0:0:0:
221,365,436910,2,0,L|349:365,1,70,2|0,0:0|0:0,0:0:0:0:
256,248,437410,1,2,3:2:0:0:
256,248,437910,2,0,P|292:205|285:130,2,105,10|0|0,0:0|0:0|0:0,0:0:0:0:
256,41,438910,6,0,P|220:84|227:159,2,105,6|0|0,0:0|0:0|0:0,0:0:0:0:
437,102,439910,2,0,L|251:118,1,140,10|0,0:0|0:0,0:0:0:0:
256,41,440660,1,0,3:0:0:0:
144,108,440910,2,0,L|237:116,2,70,2|0|0,0:0|0:0|0:0,0:0:0:0:
256,41,441660,1,0,3:0:0:0:
256,187,441910,2,0,L|256:285,1,70,10|0,0:0|0:0,0:0:0:0:
214,114,442410,5,2,0:0:0:0:
298,114,442660,1,0,0:0:0:0:
172,187,442910,6,0,P|127:185|67:146,1,70,6|0,0:0|0:0,0:0:0:0:
340,187,443410,2,0,P|385:185|445:146,1,70,2|0,0:0|0:0,0:0:0:0:
256,107,443910,1,10,0:0:0:0:
256,187,444160,2,0,L|256:285,2,70,0|0|0,3:0|0:0|0:0,0:0:0:0:
194,314,444910,6,0,P|295:332|339:272,1,140,2|0,0:0|0:0,0:0:0:0:
256,257,445581,1,0,3:0:0:0:
117,279,445805,2,0,P|121:357|210:397,1,70,10|0,0:0|0:0,0:0:0:0:
256,257,446253,2,0,L|256:187,1,70,2|0,0:0|0:0,0:0:0:0:
395,279,446701,6,0,P|391:357|302:397,1,119.000002269745,6|0,0:0|0:0,0:0:0:0:
256,187,447596,1,0,3:0:0:0:
117,279,448044,2,0,P|121:357|210:397,1,119.000002269745,2|0,0:0|0:0,0:0:0:0:
256,187,448939,1,0,3:0:0:0:
256,103,449163,1,0,3:0:0:0:
177,214,449387,2,0,P|190:238|214:259,1,59.5000011348725,10|0,0:0|0:0,0:0:0:0:
298,259,449835,2,0,P|322:238|335:214,1,59.5000011348725,2|0,0:0|0:0,0:0:0:0:
256,68,450283,6,0,L|256:187,1,119.000002269745,2|0,0:0|0:0,0:0:0:0:
256,354,451178,1,0,3:0:0:0:
176,164,451626,1,0,3:0:0:0:
256,187,451850,1,0,3:0:0:0:
336,164,452074,2,0,P|421:225|392:314,2,178.500003404617,2|2|2,0:0|0:0|0:0,0:0:0:0:
56,228,453865,6,0,P|113:244|172:248,2,119.000002269745,6|0|0,0:0|0:0|0:0,0:0:0:0:
340,248,455208,2,0,P|399:244|478:219,1,119.000002269745,2|0,0:0|0:0,0:0:0:0:
328,61,456103,1,0,3:0:0:0:
184,61,456327,1,0,3:0:0:0:
256,163,456551,2,0,L|256:67,1,59.5000011348725,10|0,0:0|0:0,0:0:0:0:
256,19,456999,1,0,3:0:0:0:
256,19,457223,1,0,3:0:0:0:
112,103,457447,6,0,P|113:167|135:260,1,119.000002269745,6|0,0:0|0:0,0:0:0:0:
256,19,458342,1,10,0:0:0:0:
389,221,458790,2,0,P|399:162|400:103,1,119.000002269745,6|0,0:0|0:0,0:0:0:0:
256,19,459686,2,0,L|256:179,2,119.000002269745,2|0|0,0:0|0:0|0:0,0:0:0:0:
119,254,461029,6,0,P|137:153|77:109,1,140,6|0,0:0|0:0,0:0:0:0:
62,192,461701,1,2,0:0:0:0:
222,244,461924,2,0,P|256:251|320:222,1,70,10|0,0:0|0:0,0:0:0:0:
256,167,462372,1,2,3:2:0:0:
256,167,462596,1,0,3:0:0:0:
393,254,462820,2,0,P|375:153|435:109,1,140,6|0,0:0|0:0,0:0:0:0:
450,192,463492,1,2,0:0:0:0:
290,244,463715,2,0,P|256:251|192:222,1,70,10|0,0:0|0:0,0:0:0:0:
256,167,464163,1,2,0:0:0:0:
36,43,464611,6,0,P|137:25|181:85,1,140,2|0,0:0|0:0,0:0:0:0:
222,100,465283,1,2,0:0:0:0:
98,100,465506,1,10,0:0:0:0:
160,157,465730,2,0,L|160:285,1,70,0|0,3:0|0:0,0:0:0:0:
98,284,466178,1,0,3:0:0:0:
19,130,466402,2,0,P|1:231|61:275,1,140,2|0,0:0|0:0,0:0:0:0:
98,284,467074,1,2,0:0:0:0:
160,157,467298,2,0,L|160:285,1,70,10|0,0:0|0:0,0:0:0:0:
222,100,467745,2,0,P|256:93|320:122,1,70,2|0,0:0|0:0,0:0:0:0:
476,43,468193,6,0,P|375:25|331:85,1,140,2|0,0:0|0:0,0:0:0:0:
290,100,468865,1,2,0:0:0:0:
414,100,469089,1,10,0:0:0:0:
352,157,469312,2,0,L|352:285,1,70,0|0,3:0|0:0,0:0:0:0:
414,284,469760,1,0,3:0:0:0:
493,130,469984,2,0,P|511:231|451:275,1,140,2|0,0:0|0:0,0:0:0:0:
414,284,470656,1,2,0:0:0:0:
352,157,470880,2,0,L|352:285,1,70,10|0,0:0|0:0,0:0:0:0:
290,100,471327,2,0,P|256:93|192:122,1,70,2|0,0:0|0:0,0:0:0:0:
36,43,471775,6,0,P|137:25|181:85,1,140,2|0,0:0|0:0,0:0:0:0:
222,100,472447,1,2,0:0:0:0:
98,100,472671,1,10,0:0:0:0:
160,157,472895,2,0,L|160:285,1,70,0|0,3:0|0:0,0:0:0:0:
98,284,473342,1,0,3:0:0:0:
19,130,473566,2,0,P|1:231|61:275,1,140,2|0,0:0|0:0,0:0:0:0:
98,284,474238,1,2,0:0:0:0:
160,157,474462,2,0,L|160:285,1,70,10|0,0:0|0:0,0:0:0:0:
222,100,474909,2,0,P|256:93|320:122,1,70,2|0,0:0|0:0,0:0:0:0:
256,317,475357,6,0,L|256:177,1,140,6|0,0:0|0:0,0:0:0:0:
183,359,476029,2,0,P|149:371|114:372,1,70,2|8,0:0|0:0,0:0:0:0:
329,359,476477,2,0,P|363:371|398:372,1,70,2|0,0:0|0:0,0:0:0:0:
256,317,476924,1,2,0:0:0:0:
256,163,477148,2,0,L|256:233,1,70,6|0,0:0|0:0,0:0:0:0:
324,114,477596,1,10,0:0:0:0:
188,114,477820,1,0,3:0:0:0:
298,35,478044,2,0,P|363:0|406:-8,1,70,2|0,0:0|0:0,0:0:0:0:
214,35,478492,2,0,P|149:0|106:-8,1,70,10|0,0:0|0:0,0:0:0:0:
298,150,478939,6,0,B|350:150|350:150|375:109|423:108,1,140,6|0,0:0|0:0,0:0:0:0:
423,192,479611,1,2,0:0:0:0:
298,234,479835,2,0,B|350:234|350:234|375:275|423:276,1,140,10|0,0:0|0:0,0:0:0:0:
423,192,480506,1,2,0:0:0:0:
218,124,480730,2,0,B|208:159|225:192|225:192|208:225|218:260,1,140,2|0,0:0|0:0,0:0:0:0:
135,192,481402,1,2,0:0:0:0:
298,150,481626,2,0,P|348:142|394:147,1,70,10|0,0:0|0:0,0:0:0:0:
367,241,482074,2,0,P|332:241|298:234,1,70,2|0,0:0|0:0,0:0:0:0:
214,150,482521,6,0,B|162:150|162:150|137:109|89:108,1,140,2|0,0:0|0:0,0:0:0:0:
89,192,483193,1,2,0:0:0:0:
214,234,483417,2,0,B|162:234|162:234|137:275|89:276,1,140,10|0,0:0|0:0,0:0:0:0:
89,192,484089,1,2,0:0:0:0:
294,124,484312,2,0,B|304:159|287:192|287:192|304:225|294:260,1,140,2|0,0:0|0:0,0:0:0:0:
377,192,484984,1,2,0:0:0:0:
214,150,485208,2,0,P|164:142|118:147,1,70,10|0,0:0|0:0,0:0:0:0:
145,241,485656,2,0,P|180:241|214:234,1,70,2|0,0:0|0:0,0:0:0:0:
367,241,486103,6,0,P|332:241|298:234,1,70,6|0,0:0|0:0,0:0:0:0:
256,161,486551,1,2,0:0:0:0:
256,307,486775,1,0,3:0:0:0:
172,161,486999,2,0,P|164:111|169:65,1,70,10|0,0:0|0:0,0:0:0:0:
347,92,487447,2,0,P|347:127|340:161,1,70,2|0,0:0|0:0,0:0:0:0:
214,23,487895,2,0,P|101:37|82:108,1,140,2|0,0:0|0:0,0:0:0:0:
50,122,488566,1,2,0:0:0:0:
172,161,488790,2,0,P|172:126|165:92,1,70,10|0,0:0|0:0,0:0:0:0:
256,161,489238,2,0,L|256:231,1,70,2|0,0:0|0:0,0:0:0:0:
298,23,489686,6,0,P|411:37|430:108,1,140,2|0,0:0|0:0,0:0:0:0:
462,122,490357,1,2,0:0:0:0:
340,161,490581,2,0,P|340:126|347:92,1,70,10|0,0:0|0:0,0:0:0:0:
256,161,491029,2,0,L|256:231,1,70,2|0,0:0|0:0,0:0:0:0:
329,273,491477,1,10,0:0:0:0:
183,273,491701,1,10,0:0:0:0:
88,335,507596,6,0,P|125:303|171:288,1,97.9999970092774,2|0,0:0|0:0,0:0:0:0:
341,288,508492,2,0,P|387:303|424:335,1,97.9999970092774,2|0,0:0|0:0,0:0:0:0:
256,381,509387,2,0,L|256:212,1,146.999995513916,6|0,0:0|0:0,0:0:0:0:
391,165,510283,6,0,P|363:185|329:192,1,70,2|0,0:0|0:0,0:0:0:0:
183,192,510730,2,0,P|145:183|99:108,1,70,2|0,0:0|0:0,0:0:0:0:
256,234,511178,6,0,L|256:374,1,140,6|0,0:0|0:0,0:0:0:0:
99,192,512074,2,0,P|61:201|15:276,1,70,10|0,0:0|0:0,0:0:0:0:
172,234,512521,1,0,0:0:0:0:
172,150,512745,1,0,0:0:0:0:
99,276,512969,2,0,L|99:362,2,70,2|0|0,0:0|3:0|0:0,0:0:0:0:
256,150,513865,2,0,L|256:80,1,70,10|0,0:0|0:0,0:0:0:0:
214,7,514312,1,0,0:0:0:0:
298,7,514536,1,0,0:0:0:0:
172,80,514760,6,0,P|138:87|74:58,1,70,2|0,0:0|0:0,0:0:0:0:
340,80,515208,2,0,P|374:87|438:58,1,70,2|0,0:0|0:0,0:0:0:0:
256,10,515656,2,0,L|256:150,1,140,10|0,0:0|0:0,0:0:0:0:
183,192,516327,1,2,0:0:0:0:
329,192,516551,1,2,0:0:0:0:
256,304,516775,2,0,L|256:218,1,70,10|0,0:0|0:0,0:0:0:0:
256,150,517223,1,2,0:0:0:0:
391,165,517447,2,0,P|363:185|329:192,1,70,10|0,0:0|0:0,0:0:0:0:
183,192,517895,2,0,P|145:183|99:108,1,70,2|0,0:0|0:0,0:0:0:0:
256,234,518342,6,0,L|256:374,1,140,6|0,0:0|0:0,0:0:0:0:
413,192,519238,2,0,P|451:201|497:276,1,70,10|0,0:0|0:0,0:0:0:0:
340,234,519686,1,0,0:0:0:0:
340,150,519909,1,0,0:0:0:0:
413,276,520133,2,0,L|413:362,2,70,2|0|0,0:0|3:0|0:0,0:0:0:0:
256,150,521029,2,0,L|256:80,1,70,10|0,0:0|0:0,0:0:0:0:
298,7,521477,1,0,0:0:0:0:
214,7,521700,1,0,0:0:0:0:
340,80,521924,6,0,L|340:220,1,140,2|0,0:0|0:0,0:0:0:0:
256,220,522596,1,2,0:0:0:0:
172,80,522820,2,0,L|172:220,2,140,10|0|0,0:0|0:0|0:0,0:0:0:0:
256,220,523939,1,2,0:0:0:0:
172,304,524163,2,0,P|134:295|88:220,1,70,2|0,3:2|0:0,0:0:0:0:
256,220,524611,2,0,L|256:150,1,70,10|0,0:0|0:0,0:0:0:0:
340,304,525059,2,0,P|378:295|424:220,1,70,2|0,3:2|0:0,0:0:0:0:
324,59,525506,6,0,B|289:49|256:66|256:66|223:49|188:59,2,140,6|0|8,0:0|0:0|0:0,0:0:0:0:
256,282,526850,2,0,L|256:212,1,70,2|0,0:0|0:0,0:0:0:0:
298,139,527298,1,2,0:0:0:0:
214,139,527521,1,10,0:0:0:0:
340,212,527745,2,0,L|442:198,1,70,2|0,0:0|0:0,0:0:0:0:
172,212,528193,2,0,L|70:198,1,70,10|0,0:0|0:0,0:0:0:0:
256,66,528641,2,0,L|256:136,1,70,2|0,0:0|0:0,0:0:0:0:
316,301,529089,6,0,P|351:300|384:290,1,70,6|0,0:0|0:0,0:0:0:0:
196,301,529536,2,0,P|161:300|128:290,1,70,2|0,0:0|0:0,0:0:0:0:
329,384,529984,2,0,P|364:383|397:373,1,70,2|0,0:0|0:0,0:0:0:0:
183,384,530432,2,0,P|148:383|115:373,1,70,2|0,0:0|0:0,0:0:0:0:
256,258,530880,1,2,3:2:0:0:
256,258,531103,1,0,3:0:0:0:
256,342,531327,1,2,3:2:0:0:
256,342,531551,1,0,3:0:0:0:
207,190,531775,6,0,P|282:178|323:207,2,105,2|0|0,0:0|0:0|0:0,0:0:0:0:
65,324,532671,6,0,P|116:372|183:384,1,140,6|0,0:0|0:0,0:0:0:0:
256,342,533342,1,2,0:0:0:0:
447,324,533566,2,0,P|396:372|329:384,1,140,10|0,0:0|0:0,0:0:0:0:
256,202,534238,2,0,L|256:342,1,140,6|0,0:0|0:0,0:0:0:0:
214,129,534909,2,0,P|183:98|183:14,1,70,2|0,0:0|0:0,0:0:0:0:
338,74,535357,2,0,P|324:105|298:129,1,70,10|0,0:0|0:0,0:0:0:0:
256,56,535805,1,0,0:0:0:0:
256,56,536029,1,0,0:0:0:0:
256,202,536253,6,0,L|256:272,1,70,2|0,0:0|0:0,0:0:0:0:
256,356,536701,1,0,0:0:0:0:
118,336,536924,2,0,P|149:319|183:314,1,70,2|8,0:0|0:0,0:0:0:0:
329,314,537372,2,0,P|363:319|394:336,1,70,2|0,0:0|0:0,0:0:0:0:
256,356,537820,1,0,0:0:0:0:
329,230,538044,2,0,P|360:213|394:208,2,70,2|0|0,0:0|0:0|0:0,0:0:0:0:
256,356,538715,1,2,0:0:0:0:
183,230,538939,2,0,P|152:213|31:255,1,140,10|0,0:0|0:0,0:0:0:0:
326,334,539835,6,0,L|332:264,1,70,6|0,0:0|0:0,0:0:0:0:
374,192,540283,1,0,0:0:0:0:
326,50,540506,2,0,L|332:120,1,70,2|8,0:0|0:0,0:0:0:0:
256,227,540954,2,0,L|256:122,2,70,2|0|0,0:0|0:0|0:0,0:0:0:0:
186,334,541626,2,0,L|180:264,1,70,2|0,0:0|0:0,0:0:0:0:
138,192,542074,1,0,0:0:0:0:
186,50,542298,2,0,L|180:120,1,70,2|8,0:0|0:0,0:0:0:0:
256,227,542745,2,0,L|256:122,2,70,2|0|0,0:0|0:0|0:0,0:0:0:0:
459,310,543417,6,0,P|387:273|299:274,1,140,2|0,0:0|0:0,0:0:0:0:
256,311,544089,1,2,0:0:0:0:
53,310,544312,2,0,P|126:273|213:274,1,140,10|0,0:0|0:0,0:0:0:0:
329,353,544984,2,0,P|372:365|416:366,1,70,6|0,0:0|0:0,0:0:0:0:
256,311,545432,1,2,0:0:0:0:
183,353,545656,2,0,P|140:365|96:366,1,70,2|0,0:0|0:0,0:0:0:0:
256,206,546103,2,0,L|256:311,2,105,10|0|0,0:0|0:0|0:0,0:0:0:0:
438,133,546999,6,0,L|298:133,1,140,6|0,0:0|0:0,0:0:0:0:
256,60,547671,1,2,0:0:0:0:
256,206,547895,1,10,0:0:0:0:
256,206,548118,2,0,L|256:276,1,70,0|0,0:0|0:0,0:0:0:0:
214,133,548566,2,0,L|74:133,1,140,2|0,0:0|0:0,0:0:0:0:
298,133,549238,2,0,P|329:102|329:18,1,70,2|0,0:0|0:0,0:0:0:0:
174,78,549686,2,0,P|188:109|214:133,1,70,10|0,0:0|0:0,0:0:0:0:
256,60,550133,1,0,0:0:0:0:
256,60,550357,1,0,0:0:0:0:
256,206,550581,6,0,L|256:276,1,70,2|0,0:0|0:0,0:0:0:0:
256,360,551029,1,0,0:0:0:0:
394,340,551253,2,0,P|363:323|329:318,1,70,2|8,0:0|0:0,0:0:0:0:
183,318,551701,2,0,P|149:323|118:340,1,70,2|0,0:0|0:0,0:0:0:0:
256,360,552148,1,0,0:0:0:0:
183,234,552372,2,0,P|152:217|118:212,2,70,2|0|0,0:0|0:0|0:0,0:0:0:0:
256,360,553044,1,2,0:0:0:0:
329,234,553268,2,0,P|360:217|481:259,1,140,10|0,0:0|0:0,0:0:0:0:
186,334,554163,6,0,L|180:264,1,70,6|0,0:0|0:0,0:0:0:0:
138,192,554611,1,0,0:0:0:0:
186,50,554835,2,0,L|180:120,1,70,2|8,0:0|0:0,0:0:0:0:
256,227,555283,2,0,L|256:122,2,70,2|0|0,0:0|0:0|0:0,0:0:0:0:
326,334,555954,2,0,L|332:264,1,70,2|0,0:0|0:0,0:0:0:0:
374,192,556402,1,0,0:0:0:0:
326,50,556626,2,0,L|332:120,1,70,2|8,0:0|0:0,0:0:0:0:
256,227,557074,2,0,L|256:122,1,70,2|0,0:0|0:0,0:0:0:0:
256,311,557521,1,0,0:0:0:0:
65,329,557745,6,0,P|116:281|183:269,1,140,6|0,0:0|0:0,0:0:0:0:
256,311,558417,1,2,0:0:0:0:
447,329,558641,2,0,P|396:281|329:269,1,140,10|0,0:0|0:0,0:0:0:0:
256,311,559312,1,0,0:0:0:0:
329,185,559536,2,0,P|370:186|433:212,1,70,2|0,0:0|0:0,0:0:0:0:
183,185,559984,2,0,P|142:186|79:212,1,70,2|0,0:0|0:0,0:0:0:0:
222,111,560432,1,10,0:0:0:0:
222,111,560656,2,0,P|256:118|320:89,1,70,0|0,0:0|0:0,0:0:0:0:
256,34,561103,1,0,0:0:0:0:
256,202,561327,6,0,L|256:362,1,140,6|0,0:0|0:0,0:0:0:0:
172,272,561999,1,10,0:0:0:0:
340,272,562223,2,0,P|404:260|447:202,1,70,10|0,0:0|0:0,0:0:0:0:
256,202,562671,1,2,0:0:0:0:
65,202,562895,2,0,P|108:260|172:272,1,140,6|0,0:0|0:0,0:0:0:0:
256,202,563566,1,2,0:0:0:0:
214,1,564014,6,0,P|183:32|183:116,1,70,10|0,0:0|0:0,0:0:0:0:
338,56,564462,2,0,P|324:25|298:1,1,70,2|0,0:0|0:0,0:0:0:0:
92,73,564909,6,0,P|131:128|199:136,1,140,6|0,0:0|0:0,0:0:0:0:
256,74,565581,1,2,0:0:0:0:
420,73,565805,2,0,P|381:128|313:136,1,140,10|0,0:0|0:0,0:0:0:0:
298,1,566477,2,0,P|329:32|329:116,1,70,2|0,0:0|0:0,0:0:0:0:
256,74,566924,1,0,0:0:0:0:
174,56,567148,2,0,P|188:25|214:1,1,70,2|0,0:0|0:0,0:0:0:0:
214,195,567596,2,0,P|183:164|183:80,1,70,10|0,0:0|0:0,0:0:0:0:
338,140,568044,2,0,P|324:171|298:195,1,70,2|0,0:0|0:0,0:0:0:0:
92,123,568492,6,0,P|131:68|199:60,1,140,2|0,0:0|0:0,0:0:0:0:
256,122,569163,1,2,0:0:0:0:
420,123,569387,2,0,P|381:68|313:60,1,140,10|0,0:0|0:0,0:0:0:0:
298,195,570059,2,0,P|329:164|329:80,1,70,2|0,0:0|0:0,0:0:0:0:
256,122,570506,1,0,0:0:0:0:
174,140,570730,2,0,P|188:171|214:195,1,70,2|0,0:0|0:0,0:0:0:0:
340,268,571178,1,10,0:0:0:0:
172,268,571402,2,0,L|74:268,1,70,10|0,0:0|0:0,0:0:0:0:
256,338,571850,6,0,L|256:198,1,140,6|0,0:0|0:0,0:0:0:0:
329,156,572521,1,0,0:0:0:0:
183,156,572745,1,2,0:0:0:0:
256,44,572969,2,0,L|256:114,2,70,10|0|0,0:0|0:0|0:0,0:0:0:0:
121,129,573641,2,0,P|148:149|183:156,1,70,2|0,0:0|0:0,0:0:0:0:
256,114,574089,1,0,0:0:0:0:
391,129,574312,2,0,P|364:149|329:156,1,70,2|0,0:0|0:0,0:0:0:0:
183,72,574760,2,0,L|188:2,1,70,10|0,0:0|0:0,0:0:0:0:
324,2,575208,2,0,L|329:72,1,70,2|0,0:0|0:0,0:0:0:0:
417,204,575656,6,0,P|365:159|298:166,1,140,6|0,0:0|0:0,0:0:0:0:
256,239,576327,1,2,0:0:0:0:
95,204,576551,2,0,P|147:159|214:166,1,140,10|0,0:0|0:0,0:0:0:0:
256,239,577223,1,0,0:0:0:0:
169,309,577447,2,0,L|172:239,1,70,2|0,0:0|0:0,0:0:0:0:
340,239,577895,2,0,L|343:309,1,70,2|0,0:0|0:0,0:0:0:0:
214,166,578342,2,0,P|183:135|183:51,1,70,10|0,0:0|0:0,0:0:0:0:
338,111,578790,2,0,P|324:142|298:166,1,70,2|0,0:0|0:0,0:0:0:0:
92,94,579238,6,0,P|131:39|199:31,1,140,6|0,0:0|0:0,0:0:0:0:
256,93,579909,1,2,0:0:0:0:
420,94,580133,2,0,P|381:39|313:31,1,140,10|0,0:0|0:0,0:0:0:0:
222,170,580805,2,0,P|256:177|320:148,1,70,2|0,0:0|0:0,0:0:0:0:
256,93,581253,1,0,0:0:0:0:
188,247,581477,2,0,P|256:261|384:203,1,140,2|8,0:0|0:0,0:0:0:0:
290,16,582372,2,0,P|256:9|192:38,1,70,2|0,0:0|0:0,0:0:0:0:
92,92,582820,6,0,P|131:147|199:155,1,140,2|0,0:0|0:0,0:0:0:0:
256,93,583492,1,2,0:0:0:0:
420,92,583715,2,0,P|381:147|313:155,1,140,10|0,0:0|0:0,0:0:0:0:
298,20,584387,2,0,P|329:51|329:135,1,70,2|0,0:0|0:0,0:0:0:0:
256,93,584835,1,0,0:0:0:0:
174,75,585059,2,0,P|188:44|214:20,1,70,2|0,0:0|0:0,0:0:0:0:
314,195,585506,2,0,B|290:170|290:170|256:184|222:170|222:170|198:195,1,140,10|0,0:0|0:0,0:0:0:0:
256,93,586178,1,0,0:0:0:0:
256,261,586402,6,0,L|256:357,1,70,6|0,0:0|0:0,0:0:0:0:
256,177,586850,1,0,0:0:0:0:
122,188,587074,2,0,P|151:210|183:219,1,70,2|8,0:0|0:0,0:0:0:0:
390,188,587521,2,0,P|361:210|329:219,1,70,2|0,0:0|0:0,0:0:0:0:
194,120,587969,2,0,P|295:102|339:162,1,140,6|0,0:0|0:0,0:0:0:0:
291,12,588641,2,0,P|256:9|195:20,2,70,2|0|0,0:0|0:0|0:0,0:0:0:0:
304,261,589984,6,0,P|263:269|208:261,1,97.9999970092774,2|0,0:0|0:0,0:0:0:0:
208,123,590880,2,0,P|249:115|304:123,1,97.9999970092774,2|0,0:0|0:0,0:0:0:0:
439,287,591775,2,0,B|447:237|423:192|423:192|447:147|439:97,1,195.999994018555,2|0,0:0|0:0,0:0:0:0:
73,97,593407,6,0,B|65:147|89:192|89:192|65:237|73:287,1,195.999994018555,2|2,0:0|0:0,0:0:0:0:
304,123,595039,2,0,P|263:131|208:123,1,97.9999970092774,2|0,0:0|0:0,0:0:0:0:
208,261,595855,2,0,P|249:253|304:261,1,97.9999970092774,2|0,0:0|0:0,0:0:0:0:
364,312,596468,1,0,0:0:0:0:
439,287,596672,6,0,B|447:237|423:192|423:192|447:147|439:97,2,195.999994018555,2|2|2,0:0|0:0|0:0,0:0:0:0:
208,123,599121,2,0,P|249:131|304:123,1,97.9999970092774,2|0,0:0|0:0,0:0:0:0:
48,7,599937,6,0,B|86:60|86:60|56:123|86:186,1,195.999994018555,2|0,0:0|0:0,0:0:0:0:
246,302,601162,2,0,B|208:249|208:249|238:186|208:123,1,195.999994018555,2|0,0:0|0:0,0:0:0:0:
304,123,602386,2,0,P|263:131|208:123,1,97.9999970092774,2|0,0:0|0:0,0:0:0:0:
266,302,603202,6,0,B|304:249|304:249|274:186|304:123,1,195.999994018555,2|0,0:0|0:0,0:0:0:0:
464,7,604427,2,0,B|426:60|426:60|456:123|426:186,2,195.999994018555,2|2|0,0:0|0:0|0:0,0:0:0:0:
304,123,606468,6,0,P|263:191|208:123,2,195.999994018555,2|2|2,0:0|0:0|0:0,0:0:0:0:
187,21,608509,1,0,0:0:0:0:
325,21,608917,2,0,P|401:86|426:158,1,97.9999970092774,2|0,0:0|0:0,0:0:0:0:
304,195,609733,6,0,P|263:127|208:195,1,195.999994018555,2|0,0:0|0:0,0:0:0:0:
349,34,610958,2,0,P|187:21|111:86,1,195.999994018555,2|0,0:0|0:0,0:0:0:0:
256,178,612182,2,0,L|256:276,1,97.9999970092774,2|0,0:0|0:0,0:0:0:0:
38,98,612998,6,0,B|136:109|136:109|161:65|209:48,1,195.999994018555,2|0,0:0|0:0,0:0:0:0:
38,258,614223,2,0,B|136:247|136:247|161:291|209:308,1,195.999994018555,2|0,0:0|0:0,0:0:0:0:
474,98,616264,6,0,B|376:109|376:109|351:65|303:48,1,195.999994018555,2|0,0:0|0:0,0:0:0:0:
474,258,617488,2,0,B|376:247|376:247|351:291|303:308,1,195.999994018555,2|0,0:0|0:0,0:0:0:0:
256,178,618713,1,2,0:0:0:0:
71,379,619529,6,0,P|117:275|187:242,1,195.999994018555,2|0,0:0|0:0,0:0:0:0:
441,379,620753,2,0,P|395:275|325:242,1,195.999994018555,2|0,0:0|0:0,0:0:0:0:
208,378,621978,2,0,P|317:372|363:335,1,97.9999970092774,2|0,0:0|0:0,0:0:0:0:
346,217,622794,6,0,B|295:215|256:249|256:249|217:215|166:217,2,195.999994018555,2|2|2,0:0|0:0|0:0,0:0:0:0:
256,15,624835,2,0,L|256:113,2,97.9999970092774,0|0|0,0:0|0:0|0:0,0:0:0:0:
81,212,626060,6,0,B|144:194|144:194|186:249|256:251,1,195.999994018555,2|0,0:0|0:0,0:0:0:0:
431,212,627284,2,0,B|368:194|368:194|326:249|256:251,1,195.999994018555,2|0,0:0|0:0,0:0:0:0:
256,15,628509,2,0,L|256:113,1,97.9999970092774,2|0,0:0|0:0,0:0:0:0:
256,349,629325,6,0,L|256:251,1,97.9999970092774,2|0,0:0|0:0,0:0:0:0:
256,192,629937,12,2,632590,0:0:0:0:
145,279,633790,6,0,P|130:211|131:100,1,167.999994873047,2|2,0:0|0:0,0:0:0:0:
367,279,634990,2,0,P|382:211|381:100,2,167.999994873047,2|0|2,0:0|0:0|0:0,0:0:0:0:
256,241,636490,2,0,L|256:143,2,97.9999970092774,0|0|0,0:0|0:0|0:0,0:0:0:0:
89,335,637390,6,0,P|124:302|171:290,1,97.9999970092774,2|0,0:0|0:0,0:0:0:0:
341,290,637990,2,0,P|421:331|439:388,1,97.9999970092774,10|0,0:0|0:0,0:0:0:0:
256,339,638590,1,2,0:0:0:0:
256,241,638890,2,0,L|256:143,1,97.9999970092774,0|8,0:0|0:0,0:0:0:0:
171,94,639490,1,0,0:0:0:0:
341,94,639790,6,0,P|421:53|439:-4,2,97.9999970092774,2|0|8,0:0|0:0|0:0,0:0:0:0:
171,94,640690,2,0,P|91:53|73:-4,1,97.9999970092774,2|0,0:0|0:0,0:0:0:0:
256,45,641290,1,0,0:0:0:0:
341,192,641590,1,10,0:0:0:0:
171,192,641890,1,0,0:0:0:0:
341,290,642190,6,0,P|421:249|439:192,1,97.9999970092774,2|0,0:0|0:0,0:0:0:0:
256,143,642790,1,10,0:0:0:0:
256,241,643090,1,0,0:0:0:0:
171,290,643390,2,0,P|91:249|73:192,1,97.9999970092774,2|0,0:0|0:0,0:0:0:0:
256,143,643990,1,10,0:0:0:0:
256,241,644290,1,0,0:0:0:0:
341,94,644590,6,0,P|376:61|423:49,2,97.9999970092774,2|0|8,0:0|0:0|0:0,0:0:0:0:
341,290,645490,2,0,P|376:323|423:335,1,97.9999970092774,2|0,0:0|0:0,0:0:0:0:
341,192,646090,1,0,0:0:0:0:
171,192,646390,2,0,L|73:192,1,97.9999970092774,10|0,0:0|0:0,0:0:0:0:
256,143,646990,6,0,P|291:110|338:98,1,97.9999970092774,2|0,0:0|0:0,0:0:0:0:
171,192,647590,1,10,0:0:0:0:
171,94,647890,1,0,0:0:0:0:
256,241,648190,2,0,P|291:274|338:286,1,97.9999970092774,2|0,0:0|0:0,0:0:0:0:
171,192,648790,1,10,0:0:0:0:
171,290,649090,1,0,0:0:0:0:
171,94,649390,6,0,P|136:61|89:49,2,97.9999970092774,2|0|8,0:0|0:0|0:0,0:0:0:0:
171,290,650290,2,0,P|136:323|89:335,1,97.9999970092774,2|0,0:0|0:0,0:0:0:0:
171,192,650890,1,0,0:0:0:0:
341,192,651190,2,0,L|439:192,1,97.9999970092774,10|0,0:0|0:0,0:0:0:0:
256,143,651790,6,0,P|221:110|174:98,1,97.9999970092774,2|0,0:0|0:0,0:0:0:0:
341,192,652390,1,10,0:0:0:0:
341,94,652690,1,0,0:0:0:0:
256,241,652990,2,0,P|221:274|174:286,1,97.9999970092774,2|0,0:0|0:0,0:0:0:0:
341,192,653590,1,10,0:0:0:0:
341,290,653890,1,0,0:0:0:0:
171,192,654190,6,0,P|91:233|73:290,1,97.9999970092774,2|0,0:0|0:0,0:0:0:0:
256,241,654790,1,8,0:0:0:0:
341,192,655090,2,0,P|421:233|439:290,1,97.9999970092774,2|0,0:0|0:0,0:0:0:0:
256,241,655690,1,0,0:0:0:0:
171,94,655990,1,10,0:0:0:0:
341,94,656290,1,0,0:0:0:0:
171,192,656590,6,0,P|91:151|73:94,1,97.9999970092774,2|0,0:0|0:0,0:0:0:0:
256,45,657190,1,10,0:0:0:0:
256,143,657490,1,0,0:0:0:0:
171,94,657790,1,0,0:0:0:0:
171,192,658090,2,0,L|171:256,2,48.9999985046387,2|0|8,0:0|0:0|0:0,0:0:0:0:
86,143,658690,1,0,0:0:0:0:
256,143,658990,6,0,P|336:102|354:45,1,97.9999970092774,2|0,0:0|0:0,0:0:0:0:
171,94,659590,1,8,0:0:0:0:
256,241,659890,2,0,P|331:289|389:276,1,97.9999970092774,2|0,0:0|0:0,0:0:0:0:
256,143,660490,1,0,0:0:0:0:
171,290,660790,2,0,P|166:379|206:423,1,97.9999970092774,10|0,0:0|0:0,0:0:0:0:
341,192,661390,6,0,P|421:151|439:94,1,97.9999970092774,2|0,0:0|0:0,0:0:0:0:
256,45,661990,1,10,0:0:0:0:
256,143,662290,1,0,0:0:0:0:
341,94,662590,1,0,0:0:0:0:
341,192,662890,2,0,L|341:256,2,48.9999985046387,2|0|8,0:0|0:0|0:0,0:0:0:0:
426,143,663490,1,0,0:0:0:0:
256,143,663790,6,0,P|176:102|158:45,1,97.9999970092774,2|0,0:0|0:0,0:0:0:0:
341,94,664390,1,8,0:0:0:0:
256,241,664690,2,0,P|181:289|123:276,1,97.9999970092774,2|0,0:0|0:0,0:0:0:0:
256,143,665290,1,0,0:0:0:0:
341,290,665590,2,0,P|346:379|306:423,1,97.9999970092774,10|0,0:0|0:0,0:0:0:0:
171,192,666190,6,0,P|91:151|73:94,1,97.9999970092774,2|0,0:0|0:0,0:0:0:0:
256,45,666790,1,10,0:0:0:0:
256,143,667090,1,0,0:0:0:0:
341,192,667390,2,0,P|421:151|439:94,1,97.9999970092774,2|0,0:0|0:0,0:0:0:0:
256,45,667990,1,10,0:0:0:0:
256,143,668290,1,0,0:0:0:0:
171,290,668590,6,0,L|171:192,1,97.9999970092774,2|0,0:0|0:0,0:0:0:0:
256,143,669190,1,8,0:0:0:0:
341,290,669490,2,0,L|341:192,1,97.9999970092774,2|0,0:0|0:0,0:0:0:0:
256,143,670090,1,0,0:0:0:0:
256,339,670390,2,0,L|256:241,1,97.9999970092774,10|0,0:0|0:0,0:0:0:0:
171,94,670990,6,0,P|91:135|73:192,1,97.9999970092774,2|0,0:0|0:0,0:0:0:0:
341,94,671590,2,0,P|421:135|439:192,1,97.9999970092774,10|0,0:0|0:0,0:0:0:0:
256,143,672190,2,0,L|256:45,1,97.9999970092774,2|0,0:0|0:0,0:0:0:0:
171,192,672790,1,10,0:0:0:0:
341,192,673090,1,0,0:0:0:0:
256,45,673390,5,2,0:0:0:0:
256,143,673690,2,0,L|256:241,1,97.9999970092774,2|8,0:0|0:0,0:0:0:0:
171,94,674290,1,0,0:0:0:0:
341,94,674590,2,0,P|421:135|439:192,1,97.9999970092774,2|0,0:0|0:0,0:0:0:0:
256,241,675190,1,10,0:0:0:0:
256,143,675490,1,0,0:0:0:0:
171,290,675790,6,0,P|91:249|73:192,2,97.9999970092774,2|0|8,0:0|0:0|0:0,0:0:0:0:
341,290,676690,2,0,P|421:249|439:192,1,97.9999970092774,2|0,0:0|0:0,0:0:0:0:
256,241,677290,1,0,0:0:0:0:
89,245,677590,2,0,P|124:278|171:290,1,97.9999970092774,10|0,0:0|0:0,0:0:0:0:
256,143,678190,5,2,0:0:0:0:
256,241,678490,1,0,0:0:0:0:
341,192,678790,1,0,0:0:0:0:
171,192,679090,2,0,L|73:192,1,97.9999970092774,2|0,0:0|0:0,0:0:0:0:
256,143,679690,5,0,0:0:0:0:
256,339,679990,1,10,0:0:0:0:
256,241,680290,1,0,0:0:0:0:
89,245,680590,6,0,P|124:278|171:290,1,97.9999970092774,2|0,0:0|0:0,0:0:0:0:
256,241,681190,1,8,0:0:0:0:
158,97,681490,2,0,P|156:152|171:192,1,97.9999970092774,2|0,0:0|0:0,0:0:0:0:
256,241,682090,1,0,0:0:0:0:
256,45,682390,2,0,L|256:143,1,97.9999970092774,10|0,0:0|0:0,0:0:0:0:
423,245,682990,6,0,P|388:278|341:290,1,97.9999970092774,2|0,0:0|0:0,0:0:0:0:
256,241,683590,1,8,0:0:0:0:
354,97,683890,2,0,P|356:152|341:192,1,97.9999970092774,2|0,0:0|0:0,0:0:0:0:
256,241,684490,1,0,0:0:0:0:
256,45,684790,2,0,L|256:143,1,97.9999970092774,10|0,0:0|0:0,0:0:0:0:
90,337,685390,6,0,P|78:286|84:241,1,97.9999970092774,2|0,0:0|0:0,0:0:0:0:
169,192,685990,1,8,0:0:0:0:
90,47,686290,2,0,P|78:98|84:143,1,97.9999970092774,2|0,0:0|0:0,0:0:0:0:
169,192,686890,1,0,0:0:0:0:
305,102,687190,1,10,0:0:0:0:
207,102,687490,1,0,0:0:0:0:
422,47,687790,6,0,P|434:98|428:143,1,97.9999970092774,2|0,0:0|0:0,0:0:0:0:
343,192,688390,1,8,0:0:0:0:
422,337,688690,2,0,P|434:286|428:241,1,97.9999970092774,2|0,0:0|0:0,0:0:0:0:
343,192,689290,1,0,0:0:0:0:
207,282,689590,1,10,0:0:0:0:
305,282,689890,1,0,0:0:0:0:
171,98,690190,6,0,P|171:196|207:232,1,97.9999970092774,2|0,0:0|0:0,0:0:0:0:
256,49,690790,1,8,0:0:0:0:
86,49,691090,2,0,P|-3:8|-20:-39,1,97.9999970092774,2|0,0:0|0:0,0:0:0:0:
171,0,691690,1,0,0:0:0:0:
256,147,691990,1,10,0:0:0:0:
171,98,692290,1,0,0:0:0:0:
341,98,692590,6,0,P|341:196|305:232,1,97.9999970092774,2|0,0:0|0:0,0:0:0:0:
256,49,693190,1,8,0:0:0:0:
426,49,693490,2,0,P|515:8|532:-39,1,97.9999970092774,2|0,0:0|0:0,0:0:0:0:
341,0,694090,1,0,0:0:0:0:
256,147,694390,1,10,0:0:0:0:
341,98,694690,1,0,0:0:0:0:
171,98,694990,6,0,P|99:154|102:242,1,146.999995513916,2|0,0:0|0:0,0:0:0:0:
108,251,695590,1,10,0:0:0:0:
188,195,695890,1,0,0:0:0:0:
341,98,696190,2,0,P|413:154|410:242,1,146.999995513916,2|0,0:0|0:0,0:0:0:0:
404,251,696790,2,0,P|402:296|420:355,1,97.9999970092774,10|0,0:0|0:0,0:0:0:0:
188,195,697390,6,0,B|223:185|256:202|256:202|289:185|324:195,1,140,6|0,0:0|0:0,0:0:0:0:
256,112,698206,1,2,0:0:0:0:
214,275,698479,2,0,P|206:325|211:371,1,70,6|0,0:0|0:0,0:0:0:0:
305,344,698994,2,0,P|305:309|298:275,1,70,2|0,0:0|0:0,0:0:0:0:
147,224,699510,6,0,P|127:291|127:360,1,140,6|0,0:0|0:0,0:0:0:0:
256,202,700260,2,0,L|256:106,1,70,2|0,0:0|0:0,0:0:0:0:
365,224,700760,2,0,P|385:291|385:360,1,140,6|0,0:0|0:0,0:0:0:0:
340,143,701510,6,0,P|446:199|390:305,2,140,6|0|8,0:0|0:0|0:0,0:0:0:0:
259,168,702760,1,0,0:0:0:0:
365,224,703010,2,0,P|385:291|385:360,1,70,2|0,0:0|0:0,0:0:0:0:
340,143,703510,2,0,P|441:80|504:181,1,140,2|0,0:0|0:0,0:0:0:0:
422,162,704260,1,2,0:0:0:0:
283,205,704510,1,10,0:0:0:0:
283,205,704760,2,0,P|264:180|256:143,2,70,0|0|0,0:0|0:0|0:0,0:0:0:0:
172,143,705510,6,0,P|66:199|122:305,2,140,2|0|8,0:0|0:0|0:0,0:0:0:0:
253,168,706760,1,0,0:0:0:0:
147,224,707010,2,0,P|127:291|127:360,1,70,2|0,0:0|0:0,0:0:0:0:
172,143,707510,2,0,P|71:80|8:181,1,140,2|0,0:0|0:0,0:0:0:0:
90,162,708260,1,2,0:0:0:0:
229,205,708510,2,0,P|248:180|256:143,1,70,10|0,0:0|0:0,0:0:0:0:
147,224,709010,2,0,P|128:249|120:286,1,70,2|0,0:0|0:0,0:0:0:0:
256,143,709510,6,0,P|340:59|256:-25,1,140,6|0,0:0|0:0,0:0:0:0:
256,59,710260,1,2,0:0:0:0:
381,172,710510,2,0,L|451:172,1,70,10|0,0:0|0:0,0:0:0:0:
478,88,711010,2,0,L|408:88,1,70,2|0,0:0|0:0,0:0:0:0:
256,143,711510,2,0,P|172:59|256:-25,1,140,2|0,0:0|0:0,0:0:0:0:
256,59,712260,1,2,0:0:0:0:
131,172,712510,2,0,L|61:172,1,70,10|0,0:0|0:0,0:0:0:0:
34,88,713010,2,0,L|104:88,1,70,2|0,0:0|0:0,0:0:0:0:
324,88,713510,6,0,B|289:78|256:95|256:95|223:78|188:88,1,140,6|0,0:0|0:0,0:0:0:0:
256,5,714260,1,2,0:0:0:0:
298,168,714510,2,0,P|306:218|301:264,1,70,10|0,0:0|0:0,0:0:0:0:
207,237,715010,2,0,P|207:202|214:168,1,70,2|0,0:0|0:0,0:0:0:0:
365,117,715510,2,0,P|385:184|385:253,1,140,6|0,0:0|0:0,0:0:0:0:
256,95,716260,2,0,L|256:-1,1,70,2|0,0:0|0:0,0:0:0:0:
147,117,716760,2,0,P|127:184|127:253,1,140,6|0,0:0|0:0,0:0:0:0:
380,220,717510,6,0,P|481:202|525:262,2,140,6|0|8,0:0|0:0|0:0,0:0:0:0:
318,277,718760,1,0,0:0:0:0:
442,277,719010,2,0,L|442:347,1,70,2|0,0:0|0:0,0:0:0:0:
318,277,719510,2,0,P|217:259|173:319,1,140,2|0,0:0|0:0,0:0:0:0:
256,334,720260,1,2,0:0:0:0:
202,174,720510,2,0,P|203:140|214:106,1,70,10|0,0:0|0:0,0:0:0:0:
298,106,721010,2,0,P|309:140|310:174,1,70,2|0,0:0|0:0,0:0:0:0:
132,220,721510,6,0,P|31:202|-13:262,2,140,2|0|8,0:0|0:0|0:0,0:0:0:0:
194,277,722760,1,0,0:0:0:0:
70,277,723010,2,0,L|70:347,1,70,2|0,0:0|0:0,0:0:0:0:
194,277,723510,2,0,P|295:259|339:319,1,140,2|0,0:0|0:0,0:0:0:0:
256,334,724260,1,2,0:0:0:0:
132,220,724510,2,0,P|101:92|122:21,1,140,10|0,0:0|0:0,0:0:0:0:
410,86,725510,6,0,P|407:155|380:220,1,140,6|0,0:0|0:0,0:0:0:0:
214,112,726510,1,10,3:2:0:0:
214,112,726760,1,0,3:0:0:0:
298,112,727010,1,2,3:2:0:0:
298,112,727260,1,0,3:0:0:0:
188,32,727510,2,0,B|223:22|256:39|256:39|289:22|324:32,1,140,6|0,0:0|0:0,0:0:0:0:
214,112,728260,2,0,P|217:199|298:112,1,280,2|0,0:0|0:0,0:0:0:0:
214,291,729510,6,0,P|156:257|125:211,1,70,2|0,0:0|0:0,0:0:0:0:
298,291,730010,2,0,P|356:257|387:211,1,70,2|0,0:0|0:0,0:0:0:0:
172,363,730510,2,0,P|114:329|83:283,1,70,2|0,0:0|0:0,0:0:0:0:
340,363,731010,2,0,P|398:329|429:283,1,70,10|0,0:0|0:0,0:0:0:0:
256,223,731510,2,0,L|256:363,1,140,6|0,0:0|0:0,0:0:0:0:
194,166,732260,2,0,P|183:132|182:98,1,70,6|0,0:0|0:0,0:0:0:0:
330,98,732760,2,0,P|329:132|318:166,2,70,6|8|0,0:0|0:0|0:0,0:0:0:0:
380,223,733510,6,0,P|481:241|525:181,2,140,6|0|8,0:0|0:0|0:0,0:0:0:0:
318,166,734760,1,0,0:0:0:0:
442,166,735010,2,0,L|442:96,1,70,2|0,0:0|0:0,0:0:0:0:
318,166,735510,2,0,P|217:184|173:124,1,140,2|0,0:0|0:0,0:0:0:0:
256,109,736260,1,2,0:0:0:0:
202,269,736510,2,0,P|203:303|214:337,1,70,10|0,0:0|0:0,0:0:0:0:
298,337,737010,2,0,P|309:303|310:269,1,70,2|0,0:0|0:0,0:0:0:0:
132,223,737510,6,0,P|31:241|-13:181,2,140,2|0|8,0:0|0:0|0:0,0:0:0:0:
194,166,738760,1,0,0:0:0:0:
70,166,739010,2,0,L|70:96,1,70,2|0,0:0|0:0,0:0:0:0:
194,166,739510,2,0,P|295:184|339:124,1,140,2|0,0:0|0:0,0:0:0:0:
256,109,740260,1,2,0:0:0:0:
310,269,740510,2,0,P|309:303|298:337,1,70,10|0,0:0|0:0,0:0:0:0:
214,337,741010,2,0,P|203:303|202:269,1,70,2|0,0:0|0:0,0:0:0:0:
325,116,741510,6,0,B|289:113|256:125|256:125|223:113|187:116,1,140,6|0,0:0|0:0,0:0:0:0:
221,33,742285,1,0,0:0:0:0:
221,33,742544,2,0,L|291:33,2,70,2|0|0,0:0|0:0|0:0,0:0:0:0:
214,191,743697,6,0,B|176:132|104:228|148:308|212:256|256:365|256:365|300:256|364:308|408:228|336:132|298:191,1,560,6|0,0:0|0:0,0:0:0:0:
256,192,746347,12,0,750993,0:0:0:0:
