osu file format v14

[General]
AudioFilename: audio.mp3
AudioLeadIn: 0
PreviewTime: 58973
Countdown: 0
SampleSet: Soft
StackLeniency: 0.7
Mode: 2
LetterboxInBreaks: 0
WidescreenStoryboard: 1

[Editor]
Bookmarks: 4084,6751,9418,10751,12084,14751,17418,20084,22751,23918,25418,28084,30751,33418,34584,35918,38584,41251,43918,46751,52084,54751,56084,57418,58584,60084,61418,62751,63918,65418,66751,68084,68584,69418,70751,72084,73418,74584,76084,77418,78751,80084,81418,84084,85418,86751
DistanceSpacing: 1
BeatDivisor: 8
GridSize: 4
TimelineZoom: 1.2

[Metadata]
Title:Nounai (TV Size)
TitleUnicode:脳内 (TV Size)
Artist:Lenny code fiction
ArtistUnicode:Lenny code fiction
Creator:rew0825
Version:Salad
Source:炎炎ノ消防隊
Tags:Fire Force Brigade of Flames Enen no Shouboutai Enn David Production ed ending anime In My Head japanese
BeatmapID:2252183
BeatmapSetID:1070214

[Difficulty]
HPDrainRate:4
CircleSize:2.8
OverallDifficulty:7
ApproachRate:7
SliderMultiplier:1.32
SliderTickRate:1

[Events]
//Background and Video events
0,0,"BG.jpg",0,0
//Break Periods
//Storyboard Layer 0 (Background)
//Storyboard Layer 1 (Fail)
//Storyboard Layer 2 (Pass)
//Storyboard Layer 3 (Foreground)
//Storyboard Layer 4 (Overlay)
//Storyboard Sound Samples

[TimingPoints]
140,333.333333333333,4,2,1,30,1,0
1639,-100,4,2,1,40,0,0
2139,-100,4,2,1,50,0,0
2639,-100,4,2,1,60,0,0
3389,-100,4,2,1,5,0,0
3473,-100,4,2,1,60,0,0
3723,-100,4,2,1,5,0,0
3806,-100,4,2,1,60,0,0
4056,-100,4,2,1,5,0,0
4139,-100,4,2,1,70,0,0
4973,-100,4,2,1,50,0,0
5139,-100,4,2,1,60,0,0
5306,-100,4,2,1,70,0,0
12223,-100,4,2,1,40,0,0
12473,-100,4,2,1,70,0,0
12556,-100,4,2,1,40,0,0
12806,-100,4,2,1,70,0,0
12889,-100,4,2,1,40,0,0
13139,-100,4,2,1,70,0,0
13473,-100,4,2,1,60,0,0
20139,-100,4,2,1,70,0,0
24223,-100,4,2,1,5,0,0
24306,-100,4,2,1,70,0,0
24556,-100,4,2,1,5,0,0
24639,-100,4,2,1,70,0,0
25473,-100,4,2,1,60,0,0
35973,-100,4,2,1,70,0,0
46806,-100,4,2,1,60,0,0
52139,-100,4,2,1,70,0,0
55223,-100,4,2,1,50,0,0
55473,-100,4,2,1,70,0,0
55556,-100,4,2,1,50,0,0
55639,-100,4,2,1,70,0,0
55723,-100,4,2,1,50,0,0
55806,-100,4,2,1,70,0,0
55889,-100,4,2,1,50,0,0
56139,-100,4,2,1,70,0,0
56223,-100,4,2,1,50,0,0
56473,-100,4,2,1,70,0,0
56556,-100,4,2,1,50,0,0
56639,-100,4,2,1,70,0,0
56723,-100,4,2,1,50,0,0
56806,-100,4,2,1,70,0,0
56889,-100,4,2,1,50,0,0
56973,-100,4,2,1,70,0,0
57056,-100,4,2,1,50,0,0
57139,-100,4,2,1,70,0,0
57223,-100,4,2,1,50,0,0
57473,-100,4,2,1,70,0,0
59389,-100,4,2,1,5,0,0
59473,-100,4,2,1,70,0,0
59723,-100,4,2,1,5,0,0
59806,-100,4,2,1,70,0,0
60056,-100,4,2,1,5,0,0
60139,-100,4,2,1,80,0,1
70306,-100,4,2,1,50,0,1
70389,-100,4,2,1,55,0,1
70473,-100,4,2,1,60,0,1
70556,-100,4,2,1,65,0,1
70639,-100,4,2,1,70,0,1
70723,-100,4,2,1,75,0,0
70806,-100,4,2,1,80,0,1
76139,-100,4,2,1,70,0,1
81473,-100,4,2,1,60,0,0
86806,-100,4,2,1,40,0,0

[Colours]
Combo1 : 78,217,241
Combo2 : 249,24,13
Combo3 : 249,73,15
Combo4 : 238,255,21

[HitObjects]
256,192,973,12,0,2806,0:0:0:0:
108,192,3139,5,2,0:0:0:0:
256,192,3473,1,2,0:0:0:0:
108,192,3806,1,2,0:0:0:0:
388,192,4139,5,4,0:0:0:0:
124,192,4806,1,2,0:0:0:0:
44,192,4973,1,8,0:0:0:0:
56,128,5139,1,8,0:0:0:0:
136,128,5306,1,8,0:0:0:0:
316,128,5473,6,0,P|376:128|400:188,1,132,6|2,1:2|0:0,0:0:0:0:
316,188,5973,1,2,0:0:0:0:
264,188,6139,1,0,1:0:0:0:
316,188,6306,1,0,1:0:0:0:
400,188,6473,1,2,1:2:0:0:
120,188,6806,6,0,P|76:164|120:120,1,132,14|10,0:0|0:0,0:0:0:0:
300,120,7306,2,0,P|336:148|284:188,1,132,14|10,0:0|0:0,0:0:0:0:
200,188,7806,1,10,0:0:0:0:
128,188,7973,1,0,1:0:0:0:
200,256,8139,5,8,0:0:0:0:
364,256,8473,2,0,P|440:256|480:212,2,132,10|2|10,0:0|0:0|0:0,0:0:0:0:
84,256,9473,6,0,P|40:232|84:188,1,132,14|0,0:0|1:0,0:0:0:0:
168,188,9973,1,8,0:0:0:0:
252,188,10139,1,2,1:2:0:0:
84,188,10473,1,8,0:0:0:0:
364,188,10806,6,0,P|408:164|364:120,1,132,14|2,0:0|1:2,0:0:0:0:
280,120,11306,2,0,P|236:144|280:188,1,132,8|0,0:0|1:0,0:0:0:0:
364,188,11806,1,8,0:0:0:0:
84,188,12139,5,4,1:2:0:0:
32,188,12306,1,2,0:0:0:0:
84,188,12473,1,0,1:0:0:0:
168,188,12639,1,2,0:2:0:0:
252,188,12806,1,0,1:0:0:0:
304,188,12973,1,0,0:0:0:0:
252,188,13139,1,0,1:0:0:0:
152,188,13306,6,0,P|84:188|84:136,1,132,2|2,0:0|0:0,0:0:0:0:
248,136,13973,1,2,0:0:0:0:
412,68,14306,2,0,B|480:68|480:68|412:68,1,132,2|0,0:0|0:0,0:0:0:0:
232,68,14806,6,0,L|164:68,2,66,8|8|8,0:0|0:0|0:0,0:0:0:0:
396,68,15473,2,0,L|400:136,1,66,2|2,0:0|0:0,0:0:0:0:
236,132,15973,6,0,L|232:200,1,66,2|2,0:0|0:0,0:0:0:0:
396,200,16473,1,2,0:0:0:0:
464,200,16639,1,2,0:0:0:0:
312,200,16973,1,2,0:0:0:0:
164,200,17306,1,2,0:0:0:0:
348,200,17473,6,0,L|424:200,2,66,8|8|8,0:0|0:0|0:0,0:0:0:0:
184,200,18139,2,0,L|180:132,1,66,2|2,0:0|0:0,0:0:0:0:
344,136,18639,6,0,L|348:68,1,66,2|2,0:0|0:0,0:0:0:0:
180,68,19139,1,2,0:0:0:0:
96,68,19306,2,0,P|48:88|88:136,1,132,8|8,0:0|3:0,0:0:0:0:
168,136,19806,1,8,3:0:0:0:
448,136,20139,6,0,L|452:208,1,66,8|8,1:2|0:0,0:0:0:0:
368,200,20473,1,8,1:2:0:0:
204,200,20806,1,0,1:0:0:0:
120,200,20973,2,0,P|76:176|120:132,1,132,10|8,0:0|0:0,0:0:0:0:
204,132,21473,5,0,1:0:0:0:
288,132,21639,1,8,0:0:0:0:
120,132,21973,1,8,0:0:0:0:
400,132,22306,1,12,0:0:0:0:
404,200,22473,1,12,0:0:0:0:
100,132,22806,6,0,L|96:200,1,66,8|8,1:2|0:0,0:0:0:0:
180,200,23139,1,8,1:2:0:0:
344,200,23473,1,0,1:0:0:0:
424,200,23639,1,8,0:0:0:0:
344,200,23806,1,0,1:0:0:0:
160,200,23973,6,0,L|88:200,1,66,4|0,0:0|0:0,0:0:0:0:
180,200,24306,1,4,0:0:0:0:
344,200,24639,1,4,0:0:0:0:
416,192,24806,1,0,1:0:0:0:
448,132,24973,1,8,1:2:0:0:
416,76,25139,1,0,1:0:0:0:
343,68,25306,1,8,1:2:0:0:
160,68,25473,6,0,L|80:68,2,66,4|2|2,1:2|0:0|1:2,0:0:0:0:
308,68,26139,2,0,L|384:68,2,66,2|2|2,1:2|0:0|1:2,0:0:0:0:
224,68,26639,1,0,0:0:0:0:
124,68,26806,6,0,P|80:88|124:132,1,132,2|2,1:2|1:2,0:0:0:0:
208,132,27306,2,0,P|112:136|100:224,1,198,2|0,0:0|1:0,0:0:0:0:
184,224,27973,1,8,0:0:0:0:
368,224,28139,5,0,1:0:0:0:
452,224,28306,1,2,0:0:0:0:
368,224,28473,2,0,L|236:224,1,132,2|2,1:2|1:2,0:0:0:0:
160,224,28973,1,2,0:0:0:0:
236,224,29139,1,2,1:2:0:0:
399,152,29473,6,0,P|443:176|399:220,1,132,2|2,1:2|1:2,0:0:0:0:
315,220,29973,2,0,P|271:244|315:288,1,132,2|8,0:0|0:0,0:0:0:0:
399,288,30473,1,0,1:0:0:0:
315,288,30639,1,8,0:0:0:0:
135,288,30806,6,0,L|59:288,2,66,4|2|2,1:2|0:0|1:2,0:0:0:0:
284,288,31473,1,2,1:2:0:0:
136,288,31806,2,0,L|132:220,1,66,2|2,1:2|0:0,0:0:0:0:
232,224,32139,5,2,1:2:0:0:
312,224,32306,1,8,0:0:0:0:
232,224,32473,1,2,1:2:0:0:
148,224,32639,2,0,P|104:200|148:156,1,132,8|8,3:0|3:0,0:0:0:0:
216,156,33139,1,8,3:0:0:0:
300,156,33306,1,2,1:2:0:0:
480,156,33473,6,0,L|484:88,1,66,10|2,0:0|1:2,0:0:0:0:
400,88,33806,2,0,L|396:16,1,66,8|2,0:0|1:2,0:0:0:0:
480,20,34139,2,0,L|336:20,1,132,8|8,0:0|0:0,0:0:0:0:
176,20,34639,6,0,P|132:44|176:88,1,132,6|0,1:2|1:2,0:0:0:0:
324,88,35306,1,2,1:2:0:0:
404,88,35473,1,10,0:0:0:0:
392,156,35639,1,8,0:0:0:0:
312,156,35806,1,10,0:0:0:0:
132,156,35973,6,0,P|88:180|132:224,1,132,4|0,1:2|1:0,0:0:0:0:
216,224,36473,1,10,0:0:0:0:
364,224,36806,2,0,L|440:224,2,66,2|2|10,1:2|1:2|0:0,0:0:0:0:
264,224,37306,6,0,L|128:224,1,132,2|2,1:2|1:2,0:0:0:0:
216,224,37806,1,8,0:0:0:0:
364,224,38139,2,0,L|432:224,2,66,0|0|8,1:0|1:0|0:0,0:0:0:0:
184,224,38639,6,0,L|44:224,2,132,2|2|2,1:2|1:2|0:0,0:0:0:0:
332,224,39639,2,0,L|408:224,1,66,2|8,1:2|0:0,0:0:0:0:
296,224,39973,6,0,P|228:224|212:172,1,132,2|2,1:2|1:2,0:0:0:0:
360,172,40639,1,2,0:0:0:0:
440,172,40806,1,2,1:2:0:0:
428,108,40973,1,8,0:0:0:0:
348,108,41139,1,8,0:0:0:0:
168,108,41306,6,0,P|124:132|168:176,1,132,4|0,1:2|1:0,0:0:0:0:
252,176,41806,1,10,0:0:0:0:
400,176,42139,1,2,1:2:0:0:
252,176,42473,1,8,0:0:0:0:
152,176,42639,6,0,P|108:200|152:244,1,132,2|2,1:2|1:2,0:0:0:0:
236,244,43139,1,8,0:0:0:0:
384,244,43473,2,0,L|464:244,2,66,0|2|8,1:0|1:2|0:0,0:0:0:0:
200,244,43973,6,0,P|156:220|200:176,1,132,2|2,1:2|1:2,0:0:0:0:
284,176,44473,1,8,0:0:0:0:
368,176,44639,2,0,P|412:152|368:108,1,132,2|2,0:0|1:2,0:0:0:0:
284,108,45139,1,8,0:0:0:0:
184,108,45306,6,0,L|320:108,1,132,2|0,1:2|1:0,0:0:0:0:
400,108,45806,1,8,0:0:0:0:
235,108,46139,1,8,0:0:0:0:
152,108,46306,1,10,0:0:0:0:
96,108,46473,1,10,0:0:0:0:
152,108,46639,1,10,0:0:0:0:
336,108,46806,6,0,P|380:128|336:176,1,132,6|2,1:2|0:0,0:0:0:0:
256,176,47306,1,2,0:0:0:0:
108,176,47639,2,0,L|104:248,1,66,2|2,0:0|0:0,0:0:0:0:
188,244,47973,1,2,0:0:0:0:
336,244,48306,6,0,L|408:244,2,66,2|2|2,0:0|0:0|0:0,0:0:0:0:
188,244,48973,2,0,L|120:244,2,66,2|2|2,0:0|0:0|0:0,0:0:0:0:
352,244,49639,6,0,L|356:176,1,66,2|2,0:0|0:0,0:0:0:0:
272,180,49973,1,2,0:0:0:0:
124,180,50306,1,2,0:0:0:0:
288,180,50639,6,0,L|420:180,1,132,2|2,0:0|0:0,0:0:0:0:
354,180,51139,1,2,0:0:0:0:
272,180,51306,1,2,0:0:0:0:
124,180,51639,2,0,L|56:180,2,66,2|2|2,0:0|0:0|0:0,0:0:0:0:
308,180,52139,6,0,L|384:180,2,66,12|10|10,1:2|0:0|0:0,0:0:0:0:
224,180,52639,1,2,0:0:0:0:
76,180,52973,1,2,0:0:0:0:
240,180,53306,6,0,L|108:180,1,132,8|10,0:0|0:0,0:0:0:0:
252,180,53973,2,0,L|331:180,2,66,2|0|2,0:0|1:0|0:0,0:0:0:0:
171,180,54473,2,0,L|176:112,1,66,0|8,1:0|0:0,0:0:0:0:
348,112,54806,5,4,1:2:0:0:
216,180,55139,2,0,P|176:156|224:112,1,132,2|2,1:2|1:2,0:0:0:0:
308,112,55639,2,0,L|176:112,1,132,10|2,0:0|1:2,0:0:0:0:
360,112,56139,5,2,1:2:0:0:
444,112,56306,2,0,P|488:136|444:180,1,132,2|10,1:2|0:0,0:0:0:0:
360,180,56806,1,2,1:2:0:0:
276,180,56973,2,0,L|412:180,1,132,2|0,1:2|1:0,0:0:0:0:
228,180,57473,5,0,1:0:0:0:
148,180,57639,1,8,0:0:0:0:
100,180,57806,1,8,0:0:0:0:
148,180,57973,1,0,1:0:0:0:
228,180,58139,2,0,L|96:180,1,132,8|0,0:0|1:0,0:0:0:0:
284,180,58639,5,4,1:2:0:0:
482,180,59139,1,2,0:0:0:0:
334,180,59473,1,2,0:0:0:0:
482,180,59806,1,2,0:0:0:0:
202,180,60139,6,0,P|136:180|120:124,1,132,6|8,1:2|0:0,0:0:0:0:
268,127,60806,2,0,L|404:127,1,132,2|8,1:2|0:0,0:0:0:0:
320,127,61306,1,0,1:0:0:0:
140,128,61473,6,0,P|96:104|140:60,1,132,6|10,1:2|0:0,0:0:0:0:
224,60,61973,2,0,L|360:60,1,132,2|0,0:0|1:0,0:0:0:0:
375,125,62473,1,10,0:0:0:0:
96,128,62806,6,0,P|88:176|156:192,1,132,6|10,1:2|0:0,0:0:0:0:
240,192,63306,2,0,P|248:236|176:260,1,132,2|0,0:0|1:0,0:0:0:0:
95,261,63806,1,10,0:0:0:0:
276,264,63973,6,0,P|320:240|276:196,1,132,4|0,1:2|1:0,0:0:0:0:
192,196,64473,2,0,L|56:196,2,132,10|2|10,0:0|0:0|0:0,0:0:0:0:
472,196,65473,6,0,L|332:196,1,132,6|8,1:2|0:0,0:0:0:0:
424,196,65973,2,0,P|468:172|424:128,1,132,2|0,0:0|1:0,0:0:0:0:
340,128,66473,1,10,0:0:0:0:
60,128,66806,6,0,L|200:128,1,132,6|8,1:2|0:0,0:0:0:0:
276,128,67306,1,2,0:0:0:0:
192,128,67473,2,0,L|56:128,1,132,0|8,1:0|0:0,0:0:0:0:
340,128,68139,6,0,L|416:128,2,66,14|2|2,0:0|0:0|1:2,0:0:0:0:
160,128,68639,2,0,P|92:128|76:180,1,132,14|0,0:0|1:0,0:0:0:0:
144,184,69139,1,14,0:0:0:0:
228,184,69306,1,2,1:2:0:0:
408,188,69473,6,0,L|475:188,1,66,14|0,0:0|1:0,0:0:0:0:
408,264,69806,1,12,0:0:0:0:
328,264,69973,1,2,0:0:0:0:
180,264,70306,1,8,0:0:0:0:
100,264,70473,1,8,1:2:0:0:
180,264,70639,1,8,0:0:0:0:
360,264,70806,6,0,P|404:240|360:196,1,132,6|8,1:2|0:0,0:0:0:0:
212,196,71473,2,0,L|80:196,1,132,2|8,1:2|0:0,0:0:0:0:
164,196,71973,1,2,1:2:0:0:
348,196,72139,6,0,P|392:172|348:128,1,132,6|10,1:2|0:0,0:0:0:0:
264,128,72639,2,0,L|124:128,1,132,2|0,0:0|1:0,0:0:0:0:
212,128,73139,1,10,0:0:0:0:
492,128,73473,6,0,P|480:180|412:180,1,132,6|10,1:2|0:0,0:0:0:0:
328,184,73973,2,0,P|284:208|328:252,1,132,2|0,0:0|1:0,0:0:0:0:
412,252,74473,1,8,0:0:0:0:
232,252,74639,6,0,L|100:252,1,132,4|0,1:2|1:0,0:0:0:0:
184,252,75139,1,10,0:0:0:0:
364,252,75306,2,0,P|424:252|448:192,1,132,6|0,1:2|1:0,0:0:0:0:
364,188,75806,1,8,0:0:0:0:
84,148,76139,6,0,P|68:208|116:252,1,132,14|8,0:0|0:0,0:0:0:0:
264,252,76806,2,0,L|120:252,1,132,10|8,0:0|0:0,0:0:0:0:
216,252,77306,1,0,1:0:0:0:
396,252,77473,6,0,P|440:228|396:184,1,132,10|8,0:0|0:0,0:0:0:0:
248,184,78139,2,0,L|384:184,1,132,10|8,0:0|0:0,0:0:0:0:
384,116,78639,1,0,1:0:0:0:
204,116,78806,6,0,L|64:116,2,132,8|8|8,0:0|0:0|0:0,0:0:0:0:
352,116,79806,2,0,L|356:188,1,66,8|0,0:0|1:0,0:0:0:0:
176,184,80139,6,0,P|132:204|176:252,1,132,8|8,0:0|0:0,0:0:0:0:
256,252,80639,2,0,L|396:252,1,132,2|2,1:2|1:2,0:0:0:0:
392,172,81139,1,8,0:0:0:0:
112,208,81473,6,0,P|60:180|72:116,1,132,6|0,1:2|1:0,0:0:0:0:
220,120,82139,2,0,L|352:120,1,132,10|0,0:0|1:0,0:0:0:0:
268,120,82639,1,8,0:0:0:0:
184,120,82806,6,0,P|140:144|184:188,1,132,2|0,1:2|1:0,0:0:0:0:
268,188,83306,1,0,1:0:0:0:
352,188,83473,1,10,0:0:0:0:
268,188,83639,2,0,L|128:188,1,132,0|0,1:0|1:0,0:0:0:0:
316,188,84139,6,0,P|384:188|400:136,1,132,6|0,1:2|1:0,0:0:0:0:
232,136,84806,2,0,L|96:136,1,132,10|0,0:2|1:0,0:0:0:0:
184,136,85306,1,8,0:0:0:0:
368,136,85473,6,0,P|412:112|368:68,1,132,2|0,1:2|1:0,0:0:0:0:
284,68,85973,1,8,0:0:0:0:
232,68,86139,1,0,1:0:0:0:
284,68,86306,1,8,0:0:0:0:
368,68,86473,1,0,1:0:0:0:
204,68,86806,5,2,0:0:0:0:
