osu file format v14

[General]
AudioFilename: audio.mp3
AudioLeadIn: 0
PreviewTime: 58973
Countdown: 0
SampleSet: Soft
StackLeniency: 0.7
Mode: 2
LetterboxInBreaks: 0
WidescreenStoryboard: 1

[Editor]
Bookmarks: 4084,5418,6751,7251,8084,9418,10751,12084,13251,14751,17418,19251,20084,22751,23918,25418,28084,30751,33418,34584,35918,38584,41251,43918,46751,52084,54751,56084,57418,58584,60084,61418,62751,63918,65418,66751,68084,68584,69418,70751,72084,73418,74584,76084,77418,78751,80084,81418,82751,84084,84751,85418,86084,86751
DistanceSpacing: 1
BeatDivisor: 16
GridSize: 4
TimelineZoom: 1.8

[Metadata]
Title:Nounai (TV Size)
TitleUnicode:脳内 (TV Size)
Artist:Lenny code fiction
ArtistUnicode:Lenny code fiction
Creator:rew0825
Version:Rain
Source:炎炎ノ消防隊
Tags:Fire Force Brigade of Flames Enen no Shouboutai Enn David Production ed ending anime In My Head japanese
BeatmapID:2249359
BeatmapSetID:1070214

[Difficulty]
HPDrainRate:6
CircleSize:3.6
OverallDifficulty:9
ApproachRate:9
SliderMultiplier:1.82
SliderTickRate:2

[Events]
//Background and Video events
0,0,"BG.jpg",0,0
//Break Periods
//Storyboard Layer 0 (Background)
//Storyboard Layer 1 (Fail)
//Storyboard Layer 2 (Pass)
//Storyboard Layer 3 (Foreground)
//Storyboard Layer 4 (Overlay)
//Storyboard Sound Samples

[TimingPoints]
140,333.333333333333,4,2,1,30,1,0
1639,-100,4,2,1,40,0,0
2139,-100,4,2,1,50,0,0
2639,-100,4,2,1,60,0,0
3389,-100,4,2,1,5,0,0
3473,-100,4,2,1,60,0,0
3723,-100,4,2,1,5,0,0
3806,-100,4,2,1,60,0,0
4056,-100,4,2,1,5,0,0
4139,-100,4,2,1,70,0,0
4973,-100,4,2,1,50,0,0
5139,-100,4,2,1,60,0,0
5306,-100,4,2,1,70,0,0
12223,-100,4,2,1,40,0,0
12473,-100,4,2,1,70,0,0
12556,-100,4,2,1,40,0,0
12806,-100,4,2,1,70,0,0
12889,-100,4,2,1,40,0,0
13139,-100,4,2,1,70,0,0
13473,-100,4,2,1,60,0,0
20139,-100,4,2,1,70,0,0
24223,-100,4,2,1,5,0,0
24306,-100,4,2,1,70,0,0
24556,-100,4,2,1,5,0,0
24639,-100,4,2,1,70,0,0
25473,-100,4,2,1,60,0,0
35973,-100,4,2,1,70,0,0
46806,-100,4,2,1,60,0,0
52139,-100,4,2,1,70,0,0
55223,-100,4,2,1,50,0,0
55473,-100,4,2,1,70,0,0
55556,-100,4,2,1,50,0,0
55639,-100,4,2,1,70,0,0
55723,-100,4,2,1,50,0,0
55806,-100,4,2,1,70,0,0
55889,-100,4,2,1,50,0,0
56139,-100,4,2,1,70,0,0
56223,-100,4,2,1,50,0,0
56473,-100,4,2,1,70,0,0
56556,-100,4,2,1,50,0,0
56639,-100,4,2,1,70,0,0
56723,-100,4,2,1,50,0,0
56806,-100,4,2,1,70,0,0
56889,-100,4,2,1,50,0,0
56973,-100,4,2,1,70,0,0
57056,-100,4,2,1,50,0,0
57139,-100,4,2,1,70,0,0
57223,-100,4,2,1,50,0,0
57473,-100,4,2,1,70,0,0
59389,-100,4,2,1,5,0,0
59473,-100,4,2,1,70,0,0
59723,-100,4,2,1,5,0,0
59806,-100,4,2,1,70,0,0
60056,-100,4,2,1,5,0,0
60139,-100,4,2,1,80,0,1
70306,-100,4,2,1,50,0,1
70389,-100,4,2,1,55,0,1
70473,-100,4,2,1,60,0,1
70556,-100,4,2,1,65,0,1
70639,-100,4,2,1,70,0,1
70723,-100,4,2,1,75,0,0
70806,-100,4,2,1,80,0,1
76139,-100,4,2,1,70,0,1
81473,-100,4,2,1,60,0,0
86806,-100,4,2,1,40,0,0

[Colours]
Combo1 : 78,217,241
Combo2 : 249,24,13
Combo3 : 249,73,15
Combo4 : 238,255,21

[HitObjects]
256,192,973,12,0,2806,0:0:0:0:
52,192,3139,5,2,0:0:0:0:
324,192,3473,1,2,0:0:0:0:
52,192,3806,1,2,0:0:0:0:
460,192,4139,6,0,P|440:264|344:264,1,182,4|0,0:0|0:0,0:0:0:0:
72,264,4806,1,2,0:0:0:0:
184,264,4973,1,8,0:0:0:0:
204,216,5056,1,8,0:0:0:0:
176,264,5139,1,8,0:0:0:0:
132,264,5223,1,8,0:0:0:0:
72,264,5306,1,8,0:0:0:0:
300,264,5473,6,0,P|396:264|416:192,1,182,6|2,1:2|0:0,0:0:0:0:
300,192,5973,1,2,0:0:0:0:
140,192,6139,1,0,1:0:0:0:
80,192,6223,1,0,1:0:0:0:
92,140,6306,1,0,1:0:0:0:
152,140,6389,1,0,1:0:0:0:
264,140,6473,2,0,L|356:140,1,91,2|0,1:2|1:0,0:0:0:0:
300,140,6723,1,0,1:0:0:0:
140,192,6806,6,0,L|40:192,2,91,14|0|10,0:0|1:0|0:0,0:0:0:0:
368,192,7306,2,0,L|460:192,2,91,14|0|10,0:0|1:0|0:0,0:0:0:0:
208,192,7806,2,0,L|116:192,1,91,10|0,0:0|1:0,0:0:0:0:
380,192,8139,6,0,L|476:192,1,91,8|0,0:0|1:0,0:0:0:0:
312,192,8473,2,0,L|308:100,1,91,10|0,0:0|1:0,0:0:0:0:
148,100,8806,2,0,L|152:192,1,91,2|0,0:0|1:0,0:0:0:0:
232,192,9056,1,0,1:0:0:0:
312,192,9139,2,0,L|420:192,1,91,10|0,0:0|1:0,0:0:0:0:
128,192,9473,6,0,L|32:192,2,91,14|0|0,0:0|1:0|1:0,0:0:0:0:
288,192,9973,1,8,0:0:0:0:
128,192,10139,2,0,P|40:192|20:112,1,182,2|8,1:2|0:0,0:0:0:0:
128,112,10639,1,0,1:0:0:0:
400,112,10806,6,0,L|404:204,1,91,14|0,0:0|1:0,0:0:0:0:
244,204,11139,1,2,1:2:0:0:
404,204,11306,2,0,P|380:284|292:284,1,182,8|0,0:0|1:0,0:0:0:0:
136,284,11806,2,0,L|132:188,1,91,8|2,0:0|1:2,0:0:0:0:
404,192,12139,5,4,1:2:0:0:
428,172,12223,1,0,0:0:0:0:
404,192,12306,1,2,0:0:0:0:
244,192,12473,1,0,1:0:0:0:
404,192,12639,1,2,0:2:0:0:
288,192,12806,5,0,1:0:0:0:
308,240,12889,1,0,0:0:0:0:
352,264,12973,1,0,0:0:0:0:
403,263,13056,1,0,0:0:0:0:
292,264,13139,2,0,L|240:264,1,45.5,0|0,1:0|0:0,0:0:0:0:
88,264,13306,6,0,L|84:172,1,91,2|0,0:0|0:0,0:0:0:0:
244,172,13639,2,0,L|240:80,1,91,2|0,0:0|0:0,0:0:0:0:
400,80,13973,2,0,P|448:112|400:148,1,136.5,2|0,0:0|0:0,0:0:0:0:
284,148,14306,2,0,P|380:148|424:216,1,182,2|0,0:0|0:0,0:0:0:0:
172,104,14806,5,8,0:0:0:0:
36,104,14973,1,8,0:0:0:0:
196,104,15139,2,0,L|288:104,2,91,8|0|2,0:0|0:0|0:0,0:0:0:0:
36,104,15639,2,0,P|56:176|152:176,1,182,2|2,0:0|0:0,0:0:0:0:
308,176,16139,6,0,L|400:176,2,91,2|0|2,0:0|0:0|0:0,0:0:0:0:
152,176,16639,2,0,L|148:268,1,91,2|0,0:0|0:0,0:0:0:0:
260,268,16973,2,0,L|256:360,1,91,2|0,0:0|0:0,0:0:0:0:
96,360,17306,1,2,0:0:0:0:
352,360,17473,5,8,0:0:0:0:
488,360,17639,1,8,0:0:0:0:
328,360,17806,2,0,L|236:360,2,91,8|0|2,0:0|0:0|0:0,0:0:0:0:
488,360,18306,2,0,P|464:284|372:284,1,182,2|2,0:0|0:0,0:0:0:0:
192,284,18806,6,0,L|100:284,2,91,2|0|2,0:0|0:0|0:0,0:0:0:0:
420,284,19306,2,0,L|424:192,1,91,8|0,0:0|0:0,0:0:0:0:
264,192,19639,1,8,3:0:0:0:
424,192,19806,2,0,L|428:96,1,91,8|2,3:0|0:0,0:0:0:0:
156,100,20139,5,8,1:2:0:0:
100,100,20223,1,8,0:0:0:0:
100,100,20306,1,8,0:0:0:0:
156,100,20389,1,8,0:0:0:0:
268,176,20473,2,0,L|324:100,1,91,8|0,1:2|0:0,0:0:0:0:
156,100,20806,1,0,1:0:0:0:
384,100,20973,2,0,L|388:196,1,91,10|0,0:0|1:0,0:0:0:0:
228,192,21306,6,0,L|328:192,1,91,8|0,0:0|1:0,0:0:0:0:
136,192,21639,2,0,L|132:284,1,91,8|0,0:0|1:0,0:0:0:0:
292,284,21973,2,0,L|200:284,1,91,8|0,0:0|1:0,0:0:0:0:
428,284,22306,1,12,0:0:0:0:
268,284,22473,2,0,L|364:284,1,91,12|0,0:0|0:0,0:0:0:0:
88,284,22806,5,8,1:2:0:0:
32,284,22889,1,8,0:0:0:0:
32,284,22973,1,8,0:0:0:0:
88,284,23056,1,8,0:0:0:0:
200,216,23139,2,0,L|260:284,1,91,8|0,1:2|0:0,0:0:0:0:
88,284,23473,1,0,1:0:0:0:
316,284,23639,2,0,L|320:192,1,91,8|0,0:0|1:0,0:0:0:0:
48,192,23973,6,0,L|148:192,1,91,4|0,0:0|0:0,0:0:0:0:
368,192,24306,2,0,L|468:192,1,91,4|0,0:0|0:0,0:0:0:0:
232,192,24639,1,4,0:0:0:0:
368,192,24806,5,0,1:0:0:0:
424,192,24889,1,0,1:0:0:0:
368,192,24973,1,8,1:2:0:0:
312,192,25056,1,0,1:0:0:0:
152,192,25139,1,0,1:0:0:0:
88,192,25223,1,0,1:0:0:0:
92,192,25306,1,8,1:2:0:0:
156,192,25389,1,0,1:0:0:0:
380,192,25473,6,0,L|472:192,1,91,4|2,1:2|0:0,0:0:0:0:
356,192,25806,1,2,1:2:0:0:
84,192,26139,1,2,1:2:0:0:
196,192,26306,1,2,0:0:0:0:
84,192,26473,2,0,L|80:100,1,91,2|0,1:2|0:0,0:0:0:0:
264,100,26806,6,0,P|360:100|380:172,1,182,2|2,1:2|1:2,0:0:0:0:
220,172,27306,2,0,P|124:172|104:244,1,182,2|0,0:0|0:0,0:0:0:0:
220,244,27806,1,0,1:0:0:0:
104,244,27973,1,8,0:0:0:0:
152,244,28056,1,8,0:0:0:0:
380,244,28139,5,0,1:0:0:0:
484,244,28306,1,2,0:0:0:0:
460,164,28473,1,2,1:2:0:0:
356,164,28639,1,2,0:0:0:0:
196,164,28806,1,2,1:2:0:0:
92,164,28973,1,2,0:0:0:0:
208,164,29139,1,2,1:2:0:0:
104,164,29306,1,2,0:0:0:0:
288,164,29473,6,0,L|472:164,1,182,2|2,1:2|1:2,0:0:0:0:
308,164,29973,2,0,P|244:120|308:72,1,182,2|8,0:0|0:0,0:0:0:0:
420,72,30473,1,0,1:0:0:0:
308,72,30639,1,8,0:0:0:0:
260,72,30723,1,8,0:0:0:0:
32,72,30806,6,0,L|28:168,1,91,4|2,1:2|0:0,0:0:0:0:
140,164,31139,1,2,1:2:0:0:
412,164,31473,1,2,1:2:0:0:
208,164,31806,1,2,1:2:0:0:
320,164,31973,1,2,0:0:0:0:
140,164,32139,6,0,L|44:164,2,91,2|8|2,1:2|0:0|1:2,0:0:0:0:
300,164,32639,2,0,L|304:256,1,91,8|0,3:0|0:0,0:0:0:0:
144,256,32973,1,8,3:0:0:0:
256,256,33139,1,8,3:0:0:0:
144,256,33306,1,2,1:2:0:0:
416,256,33473,6,0,L|420:164,1,91,10|2,0:0|1:2,0:0:0:0:
260,164,33806,2,0,L|264:72,1,91,8|2,0:0|1:2,0:0:0:0:
424,72,34139,1,8,0:0:0:0:
368,72,34223,1,0,1:0:0:0:
312,72,34306,1,0,1:0:0:0:
472,72,34473,1,8,0:0:0:0:
200,72,34639,6,0,P|140:100|200:164,1,182,6|0,1:2|1:2,0:0:0:0:
360,164,35139,2,0,L|364:256,1,91,8|2,0:0|1:2,0:0:0:0:
136,256,35473,1,10,0:0:0:0:
295,256,35639,1,8,0:0:0:0:
136,256,35806,1,10,0:0:0:0:
408,256,35973,6,0,P|472:212|408:164,1,182,4|0,1:2|1:0,0:0:0:0:
180,164,36473,2,0,P|144:96|224:72,1,182,10|2,0:0|1:2,0:0:0:0:
384,72,36973,2,0,L|476:72,1,91,2|10,1:2|0:0,0:0:0:0:
248,72,37306,6,0,L|156:72,1,91,2|0,1:2|0:0,0:0:0:0:
272,72,37639,1,2,1:2:0:0:
432,160,37806,2,0,P|488:184|424:244,1,182,8|0,0:0|1:0,0:0:0:0:
264,244,38306,2,0,L|356:244,1,91,0|8,1:0|0:0,0:0:0:0:
80,244,38639,6,0,L|76:152,1,91,2|0,1:2|0:0,0:0:0:0:
236,152,38973,2,0,L|144:152,1,91,2|8,1:2|0:0,0:0:0:0:
328,152,39306,2,0,P|308:80|212:80,1,182,2|2,0:0|1:2,0:0:0:0:
328,152,39806,1,8,0:0:0:0:
100,152,39973,6,0,L|96:248,1,91,2|0,1:2|0:0,0:0:0:0:
256,244,40306,2,0,L|160:244,1,91,2|8,1:2|0:0,0:0:0:0:
348,244,40639,2,0,L|452:244,2,91,2|2|8,0:0|1:2|0:0,0:0:0:0:
188,244,41139,1,8,0:0:0:0:
460,244,41306,6,0,P|480:172|396:164,1,182,4|0,1:2|1:0,0:0:0:0:
168,164,41806,2,0,L|172:72,1,91,10|0,0:0|0:0,0:0:0:0:
288,72,42139,2,0,L|292:164,1,91,2|0,1:2|1:0,0:0:0:0:
132,163,42473,1,8,0:0:0:0:
360,164,42639,6,0,L|364:256,1,91,2|0,1:2|0:0,0:0:0:0:
252,256,42973,1,2,1:2:0:0:
72,256,43139,2,0,P|96:176|184:176,1,182,8|0,0:0|1:0,0:0:0:0:
340,176,43639,2,0,L|436:176,1,91,2|8,1:2|0:0,0:0:0:0:
160,176,43973,6,0,P|64:176|44:248,1,182,2|2,1:2|1:2,0:0:0:0:
204,248,44473,1,8,0:0:0:0:
364,248,44639,2,0,P|428:208|364:160,1,182,2|2,0:0|1:2,0:0:0:0:
204,160,45139,1,8,0:0:0:0:
432,160,45306,6,0,L|232:160,1,182,2|0,1:2|1:0,0:0:0:0:
412,160,45806,2,0,L|416:64,1,91,8|0,0:0|1:0,0:0:0:0:
188,68,46139,1,8,0:0:0:0:
28,68,46306,1,10,0:0:0:0:
188,68,46473,1,10,0:0:0:0:
28,68,46639,1,10,0:0:0:0:
300,68,46806,6,0,P|396:68|416:140,1,182,6|2,1:2|0:0,0:0:0:0:
256,140,47306,2,0,L|68:140,1,182,2|2,0:0|0:0,0:0:0:0:
188,140,47806,1,2,0:0:0:0:
372,140,47973,6,0,P|432:168|372:232,1,182,2|2,0:0|0:0,0:0:0:0:
256,232,48473,1,2,0:0:0:0:
96,232,48639,2,0,L|296:232,1,182,2|2,0:0|0:0,0:0:0:0:
392,232,49139,1,2,0:0:0:0:
208,232,49306,6,0,P|144:188|208:140,1,182,2|2,0:0|0:0,0:0:0:0:
320,140,49806,1,2,0:0:0:0:
160,140,49973,1,2,0:0:0:0:
364,140,50306,1,2,0:0:0:0:
68,140,50639,6,0,L|256:140,1,182,2|2,0:0|0:0,0:0:0:0:
136,140,51139,1,2,0:0:0:0:
296,140,51306,2,0,P|356:168|296:232,1,182,2|2,0:0|0:0,0:0:0:0:
136,232,51806,2,0,L|132:136,1,91,2|2,0:0|0:0,0:0:0:0:
412,140,52139,5,12,1:2:0:0:
296,140,52306,1,10,0:0:0:0:
412,140,52473,1,10,0:0:0:0:
228,140,52639,2,0,P|168:168|228:232,1,182,2|2,0:0|0:0,0:0:0:0:
388,228,53139,1,0,1:0:0:0:
160,232,53306,6,0,L|156:136,1,91,8|0,0:0|1:0,0:0:0:0:
316,140,53639,2,0,L|224:140,1,91,10|0,0:0|1:0,0:0:0:0:
408,140,53973,2,0,L|412:236,1,91,2|0,0:0|1:0,0:0:0:0:
252,232,54306,1,2,0:0:0:0:
140,232,54473,1,0,1:0:0:0:
252,232,54639,1,8,0:0:0:0:
296,232,54723,1,8,0:0:0:0:
68,232,54806,6,0,L|64:140,1,91,4|2,1:2|0:0,0:0:0:0:
292,140,55139,1,2,1:2:0:0:
348,128,55223,1,0,1:0:0:0:
348,84,55306,1,0,1:0:0:0:
292,71,55389,1,0,1:0:0:0:
200,72,55473,2,0,L|192:120,1,45.5,2|0,1:2|1:0,0:0:0:0:
368,116,55639,5,10,0:0:0:0:
412,148,55723,1,0,1:0:0:0:
368,184,55806,1,0,1:0:0:0:
312,184,55889,1,0,1:0:0:0:
412,184,55973,2,0,L|420:228,1,45.5,2|0,1:2|1:0,0:0:0:0:
236,228,56139,6,0,L|176:228,1,45.5,2|0,1:2|1:0,0:0:0:0:
280,228,56306,1,2,1:2:0:0:
336,216,56389,1,0,1:0:0:0:
328,172,56473,1,0,1:0:0:0:
272,159,56556,1,0,1:0:0:0:
92,160,56639,6,0,L|88:112,1,45.5,10|0,0:0|1:0,0:0:0:0:
172,112,56806,2,0,L|168:60,1,45.5,2|0,1:2|1:0,0:0:0:0:
92,160,56973,2,0,L|88:112,1,45.5,2|0,1:2|1:0,0:0:0:0:
272,116,57139,1,8,1:2:0:0:
328,116,57223,1,8,1:2:0:0:
300,116,57306,1,0,1:0:0:0:
244,116,57389,1,0,1:0:0:0:
72,116,57473,5,0,1:0:0:0:
208,116,57639,2,0,L|308:116,2,91,8|8|0,0:0|0:0|1:0,0:0:0:0:
436,116,58139,1,8,0:0:0:0:
336,116,58306,1,0,1:0:0:0:
484,116,58473,1,0,1:0:0:0:
208,116,58639,6,0,P|148:144|208:208,1,182,4|0,1:2|0:0,0:0:0:0:
368,208,59139,1,2,0:0:0:0:
96,208,59473,1,2,0:0:0:0:
368,208,59806,2,0,L|460:208,1,91,2|0,0:0|0:0,0:0:0:0:
184,208,60139,6,0,L|180:116,1,91,6|0,1:2|0:0,0:0:0:0:
340,116,60473,2,0,B|408:116|408:116|336:116,1,136.5,8|8,0:0|0:0,0:0:0:0:
160,184,60806,2,0,L|68:184,1,91,2|0,1:2|1:0,0:0:0:0:
216,184,61139,1,8,0:0:0:0:
68,184,61306,1,0,1:0:0:0:
340,184,61473,6,0,P|404:136|340:92,1,182,6|10,1:2|0:0,0:0:0:0:
112,88,61973,1,2,0:0:0:0:
80,88,62056,1,8,0:0:0:0:
112,88,62139,1,0,1:0:0:0:
224,88,62306,1,0,1:0:0:0:
408,88,62473,2,0,L|412:180,1,91,10|0,0:0|1:0,0:0:0:0:
140,180,62806,6,0,P|80:208|140:272,1,182,6|10,1:2|0:0,0:0:0:0:
368,272,63306,1,2,0:0:0:0:
400,272,63389,1,8,0:0:0:0:
368,272,63473,1,0,1:0:0:0:
256,272,63639,1,0,1:0:0:0:
96,272,63806,1,10,0:0:0:0:
368,272,63973,6,0,P|432:228|368:180,1,182,4|0,1:2|1:0,0:0:0:0:
140,180,64473,2,0,L|136:88,1,91,10|0,0:0|1:0,0:0:0:0:
296,88,64806,2,0,L|196:88,1,91,2|0,0:0|1:0,0:0:0:0:
388,88,65139,2,0,L|392:180,1,91,10|0,0:0|1:0,0:0:0:0:
120,180,65473,6,0,P|56:216|120:272,1,182,6|8,1:2|0:0,0:0:0:0:
344,272,65973,1,2,0:0:0:0:
389,272,66056,1,8,0:0:0:0:
412,272,66139,1,0,1:0:0:0:
300,272,66306,1,0,1:0:0:0:
116,272,66473,2,0,L|112:176,1,91,10|0,0:0|1:0,0:0:0:0:
384,184,66806,6,0,P|448:132|384:96,1,182,6|8,1:2|0:0,0:0:0:0:
156,92,67306,1,2,0:0:0:0:
111,92,67389,1,8,0:0:0:0:
88,92,67473,1,0,1:0:0:0:
200,92,67639,1,0,1:0:0:0:
312,92,67806,1,8,0:0:0:0:
156,92,67973,1,2,1:2:0:0:
428,92,68139,5,14,0:0:0:0:
312,92,68306,1,2,0:0:0:0:
156,92,68473,1,2,1:2:0:0:
428,92,68639,2,0,P|408:164|312:164,1,182,14|0,0:0|1:0,0:0:0:0:
40,164,69139,5,14,0:0:0:0:
200,164,69306,1,2,1:2:0:0:
464,160,69473,2,0,L|468:252,1,91,14|0,0:0|1:0,0:0:0:0:
308,252,69806,1,12,0:0:0:0:
80,252,69973,1,2,0:0:0:0:
216,252,70139,5,0,1:0:0:0:
280,252,70223,1,0,1:0:0:0:
272,200,70306,1,8,0:0:0:0:
208,200,70389,1,8,0:0:0:0:
24,200,70473,1,8,1:2:0:0:
36,148,70556,1,8,0:0:0:0:
80,112,70639,1,8,0:0:0:0:
136,112,70723,1,8,0:0:0:0:
364,112,70806,6,0,L|368:204,1,91,6|0,1:2|0:0,0:0:0:0:
208,200,71139,2,0,L|344:200,1,136.5,8|8,0:0|0:0,0:0:0:0:
164,200,71473,2,0,L|160:108,1,91,2|0,1:2|1:0,0:0:0:0:
308,108,71806,1,8,0:0:0:0:
160,108,71973,1,2,1:2:0:0:
432,108,72139,6,0,P|496:148|432:192,1,182,6|10,1:2|0:0,0:0:0:0:
204,200,72639,1,2,0:0:0:0:
148,200,72723,1,8,0:0:0:0:
124,200,72806,1,0,1:0:0:0:
216,200,72973,1,0,1:0:0:0:
400,200,73139,2,0,L|500:200,1,91,10|0,0:0|1:0,0:0:0:0:
216,200,73473,6,0,P|120:200|100:128,1,182,6|10,1:2|0:0,0:0:0:0:
328,128,73973,1,2,0:0:0:0:
372,128,74056,1,8,0:0:0:0:
328,128,74139,1,2,1:2:0:0:
216,128,74306,1,0,1:0:0:0:
372,128,74473,1,8,0:0:0:0:
100,128,74639,6,0,L|292:128,1,182,4|0,1:2|1:0,0:0:0:0:
120,128,75139,1,10,0:0:0:0:
392,128,75306,2,0,P|456:172|392:216,1,182,6|0,1:2|1:0,0:0:0:0:
160,228,75806,1,8,0:0:0:0:
104,228,75889,1,0,1:0:0:0:
105,180,75973,1,0,1:0:0:0:
161,180,76056,1,0,1:0:0:0:
392,184,76139,6,0,P|452:156|392:92,1,182,14|8,0:0|0:0,0:0:0:0:
280,92,76639,1,2,0:0:0:0:
100,92,76806,2,0,L|96:184,1,91,10|0,0:0|1:0,0:0:0:0:
208,184,77139,1,8,0:0:0:0:
48,184,77306,1,0,1:0:0:0:
320,184,77473,6,0,P|416:184|432:112,1,182,10|8,0:0|0:0,0:0:0:0:
320,112,77973,1,2,1:2:0:0:
136,112,78139,2,0,L|36:112,1,91,10|0,0:0|1:0,0:0:0:0:
160,112,78473,1,8,0:0:0:0:
44,112,78639,1,0,1:0:0:0:
320,112,78806,6,0,P|416:112|436:184,1,182,8|8,0:0|0:0,0:0:0:0:
164,184,79473,2,0,L|256:184,1,91,8|0,0:0|1:0,0:0:0:0:
144,184,79806,1,8,0:0:0:0:
304,184,79973,1,0,1:0:0:0:
32,184,80139,6,0,P|56:264|144:264,1,182,8|8,0:0|0:0,0:0:0:0:
324,264,80639,2,0,L|320:172,1,91,2|8,1:2|0:0,0:0:0:0:
160,172,80973,1,2,1:2:0:0:
340,172,81139,2,0,L|432:172,1,91,8|0,0:0|1:0,0:0:0:0:
160,172,81473,6,0,P|64:172|44:100,1,182,6|0,1:2|1:0,0:0:0:0:
316,104,82139,2,0,L|320:200,1,91,10|0,0:0|1:0,0:0:0:0:
160,196,82473,2,0,L|156:296,1,91,0|8,1:0|0:0,0:0:0:0:
384,288,82806,5,2,1:2:0:0:
484,288,82973,1,8,0:0:0:0:
384,288,83139,1,0,1:0:0:0:
272,288,83306,1,0,1:0:0:0:
420,288,83473,1,10,0:0:0:0:
272,288,83639,2,0,P|292:216|388:216,1,182,0|0,1:0|1:0,0:0:0:0:
76,212,84139,6,0,L|72:120,1,91,6|0,1:2|0:0,0:0:0:0:
188,120,84473,1,0,1:0:0:0:
68,120,84639,1,0,1:0:0:0:
252,120,84806,2,0,L|352:120,1,91,10|8,0:2|0:0,0:0:0:0:
184,120,85139,2,0,L|92:120,1,91,0|8,1:0|0:0,0:0:0:0:
364,120,85473,6,0,L|368:212,1,91,2|8,1:2|0:0,0:0:0:0:
252,212,85806,1,0,1:0:0:0:
368,212,85973,1,8,0:0:0:0:
140,212,86139,2,0,L|44:212,1,91,0|8,1:0|0:0,0:0:0:0:
208,212,86473,2,0,L|108:212,1,91,0|8,1:0|0:0,0:0:0:0:
388,212,86806,5,2,0:0:0:0:
