osu file format v14

[General]
AudioFilename: audio.mp3
AudioLeadIn: 0
PreviewTime: 58973
Countdown: 0
SampleSet: Soft
StackLeniency: 0.7
Mode: 2
LetterboxInBreaks: 0
WidescreenStoryboard: 0

[Editor]
Bookmarks: 4084,6751,9418,10751,12084,14751,17418,20084,22751,23918,25418,28084,30751,33418,34584,35918,38584,41251,43918,46751,52084,54751,56084,57418,58584,60084,61418,62751,63918,65418,66751,68084,68584,69418,70751,72084,73418,74584,76084,77418,78751,80084,81418,84084,85418,86751
DistanceSpacing: 1
BeatDivisor: 8
GridSize: 4
TimelineZoom: 1.7

[Metadata]
Title:Nounai (TV Size)
TitleUnicode:脳内 (TV Size)
Artist:Lenny code fiction
ArtistUnicode:Lenny code fiction
Creator:rew0825
Version:Platter
Source:炎炎ノ消防隊
Tags:Fire Force Brigade of Flames Enen no Shouboutai Enn David Production ed ending anime In My Head japanese
BeatmapID:2240208
BeatmapSetID:1070214

[Difficulty]
HPDrainRate:5
CircleSize:3.2
OverallDifficulty:8
ApproachRate:8
SliderMultiplier:1.54
SliderTickRate:2

[Events]
//Background and Video events
0,0,"BG.jpg",0,0
//Break Periods
//Storyboard Layer 0 (Background)
//Storyboard Layer 1 (Fail)
//Storyboard Layer 2 (Pass)
//Storyboard Layer 3 (Foreground)
//Storyboard Layer 4 (Overlay)
//Storyboard Sound Samples

[TimingPoints]
140,333.333333333333,4,2,1,30,1,0
1639,-100,4,2,1,40,0,0
2139,-100,4,2,1,50,0,0
2639,-100,4,2,1,60,0,0
3389,-100,4,2,1,5,0,0
3473,-100,4,2,1,60,0,0
3723,-100,4,2,1,5,0,0
3806,-100,4,2,1,60,0,0
4056,-100,4,2,1,5,0,0
4139,-100,4,2,1,70,0,0
4973,-100,4,2,1,50,0,0
5139,-100,4,2,1,60,0,0
5306,-100,4,2,1,70,0,0
12223,-100,4,2,1,40,0,0
12473,-100,4,2,1,70,0,0
12556,-100,4,2,1,40,0,0
12806,-100,4,2,1,70,0,0
12889,-100,4,2,1,40,0,0
13139,-100,4,2,1,70,0,0
13473,-100,4,2,1,60,0,0
20139,-100,4,2,1,70,0,0
24223,-100,4,2,1,5,0,0
24306,-100,4,2,1,70,0,0
24556,-100,4,2,1,5,0,0
24639,-100,4,2,1,70,0,0
25473,-100,4,2,1,60,0,0
35973,-100,4,2,1,70,0,0
46806,-100,4,2,1,60,0,0
52139,-100,4,2,1,70,0,0
55223,-100,4,2,1,50,0,0
55473,-100,4,2,1,70,0,0
55556,-100,4,2,1,50,0,0
55639,-100,4,2,1,70,0,0
55723,-100,4,2,1,50,0,0
55806,-100,4,2,1,70,0,0
55889,-100,4,2,1,50,0,0
56139,-100,4,2,1,70,0,0
56223,-100,4,2,1,50,0,0
56473,-100,4,2,1,70,0,0
56556,-100,4,2,1,50,0,0
56639,-100,4,2,1,70,0,0
56723,-100,4,2,1,50,0,0
56806,-100,4,2,1,70,0,0
56889,-100,4,2,1,50,0,0
56973,-100,4,2,1,70,0,0
57056,-100,4,2,1,50,0,0
57139,-100,4,2,1,70,0,0
57223,-100,4,2,1,50,0,0
57473,-100,4,2,1,70,0,0
59389,-100,4,2,1,5,0,0
59473,-100,4,2,1,70,0,0
59723,-100,4,2,1,5,0,0
59806,-100,4,2,1,70,0,0
60056,-100,4,2,1,5,0,0
60139,-100,4,2,1,80,0,1
70306,-100,4,2,1,50,0,1
70389,-100,4,2,1,55,0,1
70473,-100,4,2,1,60,0,1
70556,-100,4,2,1,65,0,1
70639,-100,4,2,1,70,0,1
70723,-100,4,2,1,75,0,0
70806,-100,4,2,1,80,0,1
76139,-100,4,2,1,70,0,1
81473,-100,4,2,1,60,0,0
86806,-100,4,2,1,40,0,0

[Colours]
Combo1 : 78,217,241
Combo2 : 249,24,13
Combo3 : 249,73,15
Combo4 : 238,255,21

[HitObjects]
256,192,973,12,0,2806,0:0:0:0:
56,192,3139,5,2,0:0:0:0:
228,192,3473,1,2,0:0:0:0:
56,192,3806,1,2,0:0:0:0:
456,192,4139,5,4,0:0:0:0:
188,192,4806,1,2,0:0:0:0:
92,192,4973,1,8,0:0:0:0:
72,144,5056,1,8,0:0:0:0:
92,192,5139,1,8,0:0:0:0:
188,192,5306,1,8,0:0:0:0:
420,192,5473,6,0,P|472:168|420:116,1,154,6|2,1:2|0:0,0:0:0:0:
324,116,5973,1,2,0:0:0:0:
228,116,6139,1,0,1:0:0:0:
208,116,6223,1,0,1:0:0:0:
228,116,6306,1,0,1:0:0:0:
324,116,6473,2,0,L|400:116,1,77,2|0,1:2|1:0,0:0:0:0:
168,116,6806,6,0,P|88:116|68:176,1,154,14|10,0:0|0:0,0:0:0:0:
300,176,7306,2,0,P|320:228|244:256,1,154,14|10,0:0|0:0,0:0:0:0:
148,256,7806,1,10,0:0:0:0:
244,256,7973,1,0,1:0:0:0:
416,252,8139,6,0,L|420:176,1,77,8|0,0:0|1:0,0:0:0:0:
248,176,8473,2,0,L|88:176,2,154,10|2|10,0:0|0:0|0:0,0:0:0:0:
344,176,9306,1,0,1:0:0:0:
112,176,9473,6,0,P|60:200|112:252,1,154,14|0,0:0|1:0,0:0:0:0:
204,252,9973,1,8,0:0:0:0:
376,252,10139,2,0,P|428:228|376:176,1,154,2|8,1:2|0:0,0:0:0:0:
284,176,10639,1,0,1:0:0:0:
52,176,10806,6,0,P|72:112|148:112,1,154,14|2,0:0|1:2,0:0:0:0:
320,112,11306,2,0,P|300:48|224:48,1,154,8|0,0:0|1:0,0:0:0:0:
128,48,11806,2,0,L|124:124,1,77,8|2,0:0|1:2,0:0:0:0:
356,124,12139,5,4,1:2:0:0:
448,124,12306,1,2,0:0:0:0:
356,124,12473,1,0,1:0:0:0:
184,124,12639,1,2,0:2:0:0:
88,124,12806,1,0,1:0:0:0:
88,160,12889,1,0,0:0:0:0:
108,192,12973,1,0,0:0:0:0:
140,204,13056,1,0,0:0:0:0:
176,204,13139,1,0,1:0:0:0:
356,200,13306,6,0,P|408:176|356:124,1,154,2|2,0:0|0:0,0:0:0:0:
188,124,13973,2,0,L|112:124,1,77,2|0,0:0|0:0,0:0:0:0:
284,124,14306,2,0,P|360:124|380:60,1,154,2|0,0:0|0:0,0:0:0:0:
148,64,14806,6,0,L|72:64,2,77,8|8|8,0:0|0:0|0:0,0:0:0:0:
320,64,15473,1,2,0:0:0:0:
416,64,15639,2,0,P|396:128|320:128,1,154,2|2,0:0|0:0,0:0:0:0:
144,128,16139,6,0,L|68:128,2,77,2|0|2,0:0|0:0|0:0,0:0:0:0:
240,128,16639,1,2,0:0:0:0:
64,128,16973,2,0,P|84:192|160:192,1,154,2|2,0:0|0:0,0:0:0:0:
392,192,17473,6,0,L|476:192,2,77,8|8|8,0:0|0:0|0:0,0:0:0:0:
220,192,18139,1,2,0:0:0:0:
124,192,18306,2,0,P|144:128|220:128,1,154,2|2,0:0|0:0,0:0:0:0:
392,128,18806,6,0,L|468:128,2,77,2|0|2,0:0|0:0|0:0,0:0:0:0:
220,144,19306,1,8,0:0:0:0:
176,144,19473,1,0,0:0:0:0:
272,144,19639,1,8,3:0:0:0:
176,144,19806,1,8,3:0:0:0:
220,144,19973,1,2,0:0:0:0:
452,144,20139,5,8,1:2:0:0:
356,144,20306,1,8,0:0:0:0:
452,144,20473,1,8,1:2:0:0:
296,144,20806,1,0,1:0:0:0:
124,144,20973,2,0,L|120:220,1,77,10|0,0:0|1:0,0:0:0:0:
28,220,21306,2,0,L|108:220,1,77,8|0,0:0|1:0,0:0:0:0:
276,220,21639,6,0,L|272:144,1,77,8|0,0:0|1:0,0:0:0:0:
180,144,21973,2,0,L|96:144,1,77,8|0,0:0|1:0,0:0:0:0:
336,144,22306,1,12,0:0:0:0:
432,144,22473,1,12,0:0:0:0:
336,144,22639,1,0,0:0:0:0:
104,144,22806,5,8,1:2:0:0:
200,144,22973,1,8,0:0:0:0:
104,144,23139,1,8,1:2:0:0:
284,232,23473,1,0,1:0:0:0:
456,212,23639,2,0,L|404:156,1,77,8|0,0:0|1:0,0:0:0:0:
172,152,23973,5,4,0:0:0:0:
84,152,24139,1,0,0:0:0:0:
256,152,24306,1,4,0:0:0:0:
344,152,24473,1,0,0:0:0:0:
172,152,24639,1,4,0:0:0:0:
76,152,24806,1,0,1:0:0:0:
32,140,24889,1,0,1:0:0:0:
20,96,24973,1,8,1:2:0:0:
32,140,25056,1,0,1:0:0:0:
76,152,25139,1,0,1:0:0:0:
172,152,25306,1,8,1:2:0:0:
404,152,25473,6,0,L|480:152,1,77,4|2,1:2|0:0,0:0:0:0:
384,152,25806,1,2,1:2:0:0:
212,152,26139,1,2,1:2:0:0:
116,152,26306,1,2,0:0:0:0:
212,152,26473,2,0,L|292:152,1,77,2|0,1:2|0:0,0:0:0:0:
116,152,26806,6,0,P|64:176|116:228,1,154,2|2,1:2|1:2,0:0:0:0:
212,228,27306,2,0,P|264:204|212:152,1,154,2|0,0:0|0:0,0:0:0:0:
116,152,27806,2,0,L|40:152,1,77,0|8,1:0|0:0,0:0:0:0:
272,152,28139,5,0,1:0:0:0:
368,152,28306,1,2,0:0:0:0:
416,152,28473,1,2,1:2:0:0:
368,152,28639,1,2,0:0:0:0:
272,152,28806,2,0,L|195:152,1,77,2|2,1:2|0:0,0:0:0:0:
100,152,29139,2,0,L|96:76,1,77,2|2,1:2|0:0,0:0:0:0:
272,76,29473,6,0,P|348:76|368:140,1,154,2|2,1:2|1:2,0:0:0:0:
272,140,29973,2,0,P|196:140|176:204,1,154,2|8,0:0|0:0,0:0:0:0:
272,204,30473,2,0,L|356:204,1,77,0|8,1:0|0:0,0:0:0:0:
116,204,30806,6,0,L|40:204,1,77,4|2,1:2|0:0,0:0:0:0:
136,204,31139,1,2,1:2:0:0:
312,204,31473,1,2,1:2:0:0:
136,204,31806,2,0,L|56:204,1,77,2|2,1:2|0:0,0:0:0:0:
232,204,32139,6,0,L|316:204,2,77,2|8|2,1:2|0:0|1:2,0:0:0:0:
136,204,32639,2,0,P|84:180|136:128,1,154,8|8,3:0|3:0,0:0:0:0:
232,128,33139,1,8,3:0:0:0:
136,128,33306,1,2,1:2:0:0:
368,128,33473,6,0,L|372:208,1,77,10|2,0:0|1:2,0:0:0:0:
276,204,33806,2,0,L|272:280,1,77,8|2,0:0|1:2,0:0:0:0:
444,280,34139,1,8,0:0:0:0:
464,280,34223,1,0,1:0:0:0:
444,280,34306,1,0,1:0:0:0:
348,280,34473,1,8,0:0:0:0:
116,280,34639,6,0,P|64:256|116:204,1,154,6|0,1:2|1:2,0:0:0:0:
212,204,35139,2,0,L|216:128,1,77,8|2,0:0|1:2,0:0:0:0:
44,128,35473,1,10,0:0:0:0:
140,128,35639,1,8,0:0:0:0:
44,128,35806,1,10,0:0:0:0:
276,128,35973,6,0,P|328:152|276:204,1,154,4|0,1:2|1:0,0:0:0:0:
104,204,36473,2,0,P|52:228|104:280,1,154,10|2,0:0|1:2,0:0:0:0:
200,280,36973,1,2,1:2:0:0:
104,280,37139,1,10,0:0:0:0:
276,280,37306,6,0,L|352:280,1,77,2|0,1:2|0:0,0:0:0:0:
256,280,37639,1,2,1:2:0:0:
84,280,37806,2,0,P|108:212|180:212,1,154,8|0,0:0|1:0,0:0:0:0:
276,212,38306,1,0,1:0:0:0:
180,212,38473,1,8,0:0:0:0:
412,212,38639,6,0,L|416:136,1,77,2|0,1:2|0:0,0:0:0:0:
320,136,38973,2,0,L|324:56,1,77,2|8,1:2|0:0,0:0:0:0:
152,60,39306,2,0,P|76:60|56:124,1,154,2|2,0:0|1:2,0:0:0:0:
152,124,39806,1,8,0:0:0:0:
324,124,39973,6,0,L|328:200,1,77,2|0,1:2|0:0,0:0:0:0:
232,200,40306,2,0,L|228:276,1,77,2|8,1:2|0:0,0:0:0:0:
400,276,40639,2,0,L|492:276,2,77,2|2|8,0:0|1:2|0:0,0:0:0:0:
304,276,41139,1,8,0:0:0:0:
72,276,41306,6,0,P|20:224|72:200,1,154,4|0,1:2|1:0,0:0:0:0:
244,196,41806,2,0,L|404:196,2,154,10|2|8,0:0|1:2|0:0,0:0:0:0:
68,196,42639,6,0,L|64:116,1,77,2|0,1:2|0:0,0:0:0:0:
156,116,42973,1,2,1:2:0:0:
336,116,43139,2,0,P|384:132|336:192,1,154,8|0,0:0|1:0,0:0:0:0:
240,192,43639,2,0,L|160:192,1,77,2|8,1:2|0:0,0:0:0:0:
396,192,43973,6,0,P|448:168|396:116,1,154,2|2,1:2|1:2,0:0:0:0:
300,116,44473,1,8,0:0:0:0:
128,116,44639,2,0,P|76:140|128:192,1,154,2|2,0:0|1:2,0:0:0:0:
224,192,45139,1,8,0:0:0:0:
396,192,45306,6,0,P|376:256|300:256,1,154,2|0,1:2|1:0,0:0:0:0:
204,256,45806,2,0,L|200:180,1,77,8|0,0:0|1:0,0:0:0:0:
372,180,46139,1,8,0:0:0:0:
464,180,46306,1,10,0:0:0:0:
464,100,46473,1,10,0:0:0:0:
372,100,46639,1,10,0:0:0:0:
140,56,46806,6,0,P|64:56|44:120,1,154,6|2,1:2|0:0,0:0:0:0:
140,120,47306,2,0,P|192:144|140:196,1,154,2|2,0:0|0:0,0:0:0:0:
44,196,47806,1,2,0:0:0:0:
216,196,47973,6,0,L|376:196,1,154,2|2,0:0|0:0,0:0:0:0:
464,196,48473,1,2,0:0:0:0:
368,196,48639,2,0,L|212:196,1,154,2|2,0:0|0:0,0:0:0:0:
116,196,49139,1,2,0:0:0:0:
288,196,49306,6,0,P|368:196|384:132,1,154,2|2,0:0|0:0,0:0:0:0:
288,136,49806,1,2,0:0:0:0:
192,135,49973,1,2,0:0:0:0:
364,135,50306,1,2,0:0:0:0:
96,136,50639,6,0,P|44:160|96:212,1,154,2|2,0:0|0:0,0:0:0:0:
192,212,51139,1,2,0:0:0:0:
288,212,51306,2,0,L|132:212,1,154,2|2,0:0|0:0,0:0:0:0:
40,212,51806,1,2,0:0:0:0:
136,212,51973,1,2,0:0:0:0:
368,216,52139,5,12,1:2:0:0:
464,216,52306,1,10,0:0:0:0:
368,216,52473,1,10,0:0:0:0:
196,216,52639,2,0,L|40:216,1,154,2|2,0:0|0:0,0:0:0:0:
136,216,53139,1,0,1:0:0:0:
308,216,53306,6,0,L|312:136,1,77,8|0,0:0|1:0,0:0:0:0:
216,136,53639,2,0,L|212:60,1,77,10|0,0:0|1:0,0:0:0:0:
384,64,53973,2,0,L|472:64,2,77,2|0|2,0:0|1:0|0:0,0:0:0:0:
288,64,54473,1,0,1:0:0:0:
384,64,54639,1,8,0:0:0:0:
152,64,54806,6,0,L|72:64,1,77,4|2,1:2|0:0,0:0:0:0:
248,64,55139,1,2,1:2:0:0:
344,64,55306,1,0,1:0:0:0:
364,64,55389,1,0,1:0:0:0:
344,64,55473,1,2,1:2:0:0:
172,64,55639,1,10,0:0:0:0:
96,64,55806,1,0,1:0:0:0:
84,64,55889,1,0,1:0:0:0:
112,64,55973,1,2,1:2:0:0:
344,64,56139,5,2,1:2:0:0:
420,64,56306,1,2,1:2:0:0:
392,64,56389,1,0,1:0:0:0:
344,64,56473,1,0,1:0:0:0:
172,64,56639,1,10,0:0:0:0:
76,64,56806,1,2,1:2:0:0:
172,64,56973,1,2,1:2:0:0:
344,64,57139,1,8,1:2:0:0:
392,64,57223,1,8,1:2:0:0:
420,64,57306,1,0,1:0:0:0:
188,64,57473,5,0,1:0:0:0:
92,64,57639,1,8,0:0:0:0:
188,64,57806,1,8,0:0:0:0:
92,64,57973,1,0,1:0:0:0:
264,64,58139,2,0,L|268:144,1,77,8|0,0:0|1:0,0:0:0:0:
172,140,58473,1,0,1:0:0:0:
404,140,58639,6,0,P|496:164|444:256,1,231,4|2,1:2|0:0,0:0:0:0:
272,256,59473,1,2,0:0:0:0:
444,256,59806,1,2,0:0:0:0:
40,256,60139,6,0,P|60:192|136:192,1,154,6|8,1:2|0:0,0:0:0:0:
408,192,60806,2,0,L|328:192,1,77,2|0,1:2|1:0,0:0:0:0:
236,192,61139,1,8,0:0:0:0:
332,192,61306,1,0,1:0:0:0:
100,192,61473,6,0,P|48:168|100:116,1,154,6|10,1:2|0:0,0:0:0:0:
272,116,61973,2,0,P|316:104|272:40,1,154,2|0,0:0|1:0,0:0:0:0:
100,40,62473,2,0,L|96:120,1,77,10|0,0:0|1:0,0:0:0:0:
328,120,62806,6,0,P|400:120|424:188,1,154,6|10,1:2|0:0,0:0:0:0:
252,188,63306,2,0,L|408:188,1,154,2|0,0:0|1:0,0:0:0:0:
308,188,63806,1,10,0:0:0:0:
76,188,63973,6,0,P|24:164|76:112,1,154,4|0,1:2|1:0,0:0:0:0:
248,112,64473,2,0,L|328:112,1,77,10|0,0:0|1:0,0:0:0:0:
228,112,64806,2,0,L|152:112,1,77,2|0,0:0|1:0,0:0:0:0:
332,112,65139,2,0,L|412:112,1,77,10|0,0:0|1:0,0:0:0:0:
168,112,65473,6,0,P|116:136|168:188,1,154,6|8,1:2|0:0,0:0:0:0:
340,188,65973,2,0,P|392:212|340:264,1,154,2|0,0:0|1:0,0:0:0:0:
168,264,66473,2,0,L|88:264,1,77,10|0,0:0|1:0,0:0:0:0:
324,264,66806,6,0,P|400:264|420:200,1,154,6|8,1:2|0:0,0:0:0:0:
324,200,67306,1,2,0:0:0:0:
152,200,67473,2,0,P|76:200|56:136,1,154,0|8,1:0|0:0,0:0:0:0:
152,136,67973,1,2,1:2:0:0:
384,136,68139,5,14,0:0:0:0:
480,136,68306,1,2,0:0:0:0:
384,136,68473,1,2,1:2:0:0:
152,136,68639,2,0,P|100:160|152:212,1,154,14|0,0:0|1:0,0:0:0:0:
384,212,69139,6,0,L|388:288,1,77,14|2,0:0|1:2,0:0:0:0:
156,288,69473,2,0,L|80:288,2,77,14|0|12,0:0|1:0|0:0,0:0:0:0:
328,288,69973,2,0,L|332:212,1,77,2|0,0:0|1:0,0:0:0:0:
160,212,70306,5,8,0:0:0:0:
108,212,70389,1,8,0:0:0:0:
80,180,70473,1,8,1:2:0:0:
108,152,70556,1,8,0:0:0:0:
160,152,70639,1,8,0:0:0:0:
392,152,70806,6,0,P|440:168|392:228,1,154,6|8,1:2|0:0,0:0:0:0:
124,228,71473,2,0,L|216:228,1,77,2|0,1:2|1:0,0:0:0:0:
296,228,71806,1,8,0:0:0:0:
200,228,71973,1,2,1:2:0:0:
432,228,72139,6,0,P|480:212|432:152,1,154,6|10,1:2|0:0,0:0:0:0:
260,152,72639,2,0,P|212:136|260:76,1,154,2|0,0:0|1:0,0:0:0:0:
432,76,73139,2,0,L|436:152,1,77,10|0,0:0|1:0,0:0:0:0:
204,152,73473,6,0,L|40:152,1,154,6|10,1:2|0:0,0:0:0:0:
224,152,73973,2,0,P|276:176|224:228,1,154,2|0,0:0|1:0,0:0:0:0:
128,228,74473,1,8,0:0:0:0:
360,228,74639,6,0,P|436:228|456:164,1,154,4|0,1:2|1:0,0:0:0:0:
360,160,75139,1,10,0:0:0:0:
128,160,75306,2,0,P|76:136|128:84,1,154,6|0,1:2|1:0,0:0:0:0:
224,84,75806,1,8,0:0:0:0:
176,84,75889,1,0,1:0:0:0:
128,84,75973,1,0,1:0:0:0:
360,188,76139,6,0,P|436:188|456:124,1,154,14|8,0:0|0:0,0:0:0:0:
184,188,76806,2,0,L|180:108,1,77,10|0,0:0|1:0,0:0:0:0:
276,112,77139,2,0,L|356:112,1,77,8|0,0:0|1:0,0:0:0:0:
120,112,77473,6,0,P|72:128|120:188,1,154,10|8,0:0|0:0,0:0:0:0:
216,188,77973,1,2,1:2:0:0:
388,188,78139,2,0,L|304:188,1,77,10|0,0:0|1:0,0:0:0:0:
216,188,78473,2,0,L|140:188,1,77,8|0,0:0|1:0,0:0:0:0:
372,188,78806,6,0,P|424:164|372:112,1,154,8|8,0:0|0:0,0:0:0:0:
196,112,79473,1,8,0:0:0:0:
100,112,79639,1,0,1:0:0:0:
196,112,79806,1,8,0:0:0:0:
100,112,79973,1,0,1:0:0:0:
332,112,80139,6,0,P|384:136|332:188,1,154,8|8,0:0|0:0,0:0:0:0:
160,188,80639,2,0,P|108:212|160:264,1,154,2|2,1:2|1:2,0:0:0:0:
332,264,81139,2,0,L|412:264,1,77,8|0,0:0|1:0,0:0:0:0:
176,188,81473,5,6,1:2:0:0:
22,188,81806,1,0,1:0:0:0:
292,188,82139,1,10,0:0:0:0:
380,188,82306,1,0,1:0:0:0:
292,188,82473,1,0,1:0:0:0:
196,188,82639,1,8,0:0:0:0:
368,188,82806,5,2,1:2:0:0:
464,188,82973,1,8,0:0:0:0:
452,108,83139,1,0,1:0:0:0:
356,108,83306,1,0,1:0:0:0:
180,108,83473,1,10,0:0:0:0:
84,108,83639,2,0,P|104:172|180:172,1,154,0|0,1:0|1:0,0:0:0:0:
412,112,84139,6,0,P|464:136|412:188,1,154,6|0,1:2|1:0,0:0:0:0:
316,188,84639,1,0,1:0:0:0:
140,188,84806,1,10,0:2:0:0:
44,188,84973,1,8,0:0:0:0:
56,112,85139,1,0,1:0:0:0:
152,112,85306,1,8,0:0:0:0:
384,112,85473,5,2,1:2:0:0:
480,112,85639,1,8,0:0:0:0:
368,188,85806,1,0,1:0:0:0:
464,188,85973,1,8,0:0:0:0:
232,188,86139,2,0,L|156:188,1,77,0|8,1:0|0:0,0:0:0:0:
252,188,86473,2,0,L|344:188,1,77,0|8,1:0|0:0,0:0:0:0:
136,188,86806,5,2,0:0:0:0:
