osu file format v14

[General]
AudioFilename: audio.mp3
AudioLeadIn: 0
PreviewTime: 58973
Countdown: 0
SampleSet: Soft
StackLeniency: 0.7
Mode: 2
LetterboxInBreaks: 0
WidescreenStoryboard: 0

[Editor]
Bookmarks: 4084,5418,6751,7251,8084,9418,10751,12084,13251,14751,17418,19251,20084,22751,23918,25418,28084,30751,33418,34584,35918,38584,41251,43918,46751,52084,54751,56084,57418,58584,60084,61418,62751,63918,65418,66751,68084,68584,69418,70751,72084,73418,74584,76084,77418,78751,80084,81418,82751,84084,84751,85418,86084,86751
DistanceSpacing: 1
BeatDivisor: 16
GridSize: 4
TimelineZoom: 2.5

[Metadata]
Title:Nounai (TV Size)
TitleUnicode:脳内 (TV Size)
Artist:Lenny code fiction
ArtistUnicode:Lenny code fiction
Creator:rew0825
Version:Infernal
Source:炎炎ノ消防隊
Tags:Fire Force Brigade of Flames Enen no Shouboutai Enn David Production ed ending anime In My Head japanese
BeatmapID:2249460
BeatmapSetID:1070214

[Difficulty]
HPDrainRate:6
CircleSize:4
OverallDifficulty:9.3
ApproachRate:9.3
SliderMultiplier:2.23999999999999
SliderTickRate:2

[Events]
//Background and Video events
0,0,"BG.jpg",0,0
//Break Periods
//Storyboard Layer 0 (Background)
//Storyboard Layer 1 (Fail)
//Storyboard Layer 2 (Pass)
//Storyboard Layer 3 (Foreground)
//Storyboard Layer 4 (Overlay)
//Storyboard Sound Samples

[TimingPoints]
140,333.333333333333,4,2,1,30,1,0
1639,-100,4,2,1,40,0,0
2139,-100,4,2,1,50,0,0
2639,-100,4,2,1,60,0,0
3389,-100,4,2,1,5,0,0
3473,-100,4,2,1,60,0,0
3723,-100,4,2,1,5,0,0
3806,-100,4,2,1,60,0,0
4056,-100,4,2,1,5,0,0
4139,-100,4,2,1,70,0,0
4973,-100,4,2,1,50,0,0
5139,-100,4,2,1,60,0,0
5306,-100,4,2,1,70,0,0
12223,-100,4,2,1,40,0,0
12473,-100,4,2,1,70,0,0
12556,-100,4,2,1,40,0,0
12806,-100,4,2,1,70,0,0
12889,-100,4,2,1,40,0,0
13139,-100,4,2,1,70,0,0
13473,-100,4,2,1,60,0,0
20139,-100,4,2,1,70,0,0
24223,-100,4,2,1,5,0,0
24306,-100,4,2,1,70,0,0
24556,-100,4,2,1,5,0,0
24639,-100,4,2,1,70,0,0
25473,-100,4,2,1,60,0,0
35973,-100,4,2,1,70,0,0
46806,-100,4,2,1,60,0,0
52139,-100,4,2,1,70,0,0
55223,-100,4,2,1,50,0,0
55473,-100,4,2,1,70,0,0
55556,-100,4,2,1,50,0,0
55639,-100,4,2,1,70,0,0
55723,-100,4,2,1,50,0,0
55806,-100,4,2,1,70,0,0
55889,-100,4,2,1,50,0,0
56139,-100,4,2,1,70,0,0
56223,-100,4,2,1,50,0,0
56473,-100,4,2,1,70,0,0
56556,-100,4,2,1,50,0,0
56639,-100,4,2,1,70,0,0
56723,-100,4,2,1,50,0,0
56806,-100,4,2,1,70,0,0
56889,-100,4,2,1,50,0,0
56973,-100,4,2,1,70,0,0
57056,-100,4,2,1,50,0,0
57139,-100,4,2,1,70,0,0
57223,-100,4,2,1,50,0,0
57473,-100,4,2,1,70,0,0
59389,-100,4,2,1,5,0,0
59473,-100,4,2,1,70,0,0
59723,-100,4,2,1,5,0,0
59806,-100,4,2,1,70,0,0
60056,-100,4,2,1,5,0,0
60139,-100,4,2,1,80,0,1
70306,-100,4,2,1,50,0,1
70389,-100,4,2,1,55,0,1
70473,-100,4,2,1,60,0,1
70556,-100,4,2,1,65,0,1
70639,-100,4,2,1,70,0,1
70723,-100,4,2,1,75,0,0
70806,-100,4,2,1,80,0,1
76139,-100,4,2,1,70,0,1
81473,-100,4,2,1,60,0,0
86806,-100,4,2,1,40,0,0

[Colours]
Combo1 : 78,217,241
Combo2 : 249,24,13
Combo3 : 249,73,15
Combo4 : 238,255,21

[HitObjects]
256,192,973,12,0,2806,0:0:0:0:
143,275,3139,6,0,P|87:247|143:191,1,167.999999999999,2|0,0:0|0:0,0:0:0:0:
256,192,3473,2,0,P|312:164|256:108,1,167.999999999999,2|0,0:0|0:0,0:0:0:0:
144,192,3806,2,0,P|88:164|144:108,1,167.999999999999,2|0,0:0|0:0,0:0:0:0:
424,108,4139,6,0,L|76:108,1,335.999999999999,4|0,0:0|0:0,0:0:0:0:
312,108,4806,1,2,0:0:0:0:
172,108,4973,2,8,L|176:168,1,55.9999999999998,8|8,0:0|0:0,0:0:0:0:
260,164,5139,2,8,L|288:212,1,55.9999999999998,8|8,0:0|0:0,0:0:0:0:
372,212,5306,2,8,L|436:212,1,55.9999999999998
148,212,5473,6,0,L|144:96,1,112,6|0,1:2|0:0,0:0:0:0:
284,100,5806,1,2,0:0:0:0:
116,100,5973,1,2,0:0:0:0:
340,100,6139,2,0,L|336:160,1,55.9999999999998,0|0,1:0|1:0,1:0:0:0:
252,156,6306,2,0,L|256:212,1,55.9999999999998,0|0,1:0|1:0,1:0:0:0:
424,212,6473,2,0,L|428:272,1,55.9999999999998,2|0,1:2|0:0,1:0:0:0:
356,268,6639,1,0,1:0:0:0:
427,267,6723,1,0,1:0:0:0:
148,268,6806,6,0,L|268:268,1,112,14|0,0:0|1:0,0:0:0:0:
120,268,7139,1,10,0:0:0:0:
456,268,7306,2,0,L|344:268,1,112,14|0,0:0|1:0,0:0:0:0:
484,268,7639,1,10,0:0:0:0:
260,268,7806,1,10,0:0:0:0:
400,268,7973,1,0,1:0:0:0:
64,268,8139,6,0,L|60:156,1,112,8|0,0:0|1:0,0:0:0:0:
228,156,8473,2,0,L|116:156,1,112,10|0,0:0|1:0,0:0:0:0:
340,156,8806,2,0,L|456:156,1,112,2|0,0:0|1:0,0:0:0:0:
380,156,9056,1,0,1:0:0:0:
240,156,9139,1,10,0:0:0:0:
380,156,9306,1,0,1:0:0:0:
44,156,9473,5,14,0:0:0:0:
184,156,9639,1,0,1:0:0:0:
324,156,9806,1,0,1:0:0:0:
156,156,9973,1,8,0:0:0:0:
380,156,10139,2,0,L|384:268,1,112,2|0,1:2|1:0,0:0:0:0:
244,268,10473,1,8,0:0:0:0:
412,268,10639,1,0,1:0:0:0:
76,268,10806,5,14,0:0:0:0:
216,268,10973,1,0,1:0:0:0:
48,268,11139,1,2,1:2:0:0:
272,268,11306,2,0,L|44:268,1,223.999999999999,8|0,0:0|1:0,0:0:0:0:
272,268,11806,1,8,0:0:0:0:
412,268,11973,1,2,1:2:0:0:
76,268,12139,6,0,L|72:212,1,55.9999999999998,4|0,1:2|0:0,1:0:0:0:
140,212,12306,1,2,0:0:0:0:
72,212,12389,1,0,0:0:0:0:
240,212,12473,2,0,L|296:212,1,55.9999999999998,0|0,1:0|0:0,0:0:0:0:
380,212,12639,2,0,L|384:156,1,55.9999999999998,2|0,0:2|0:0,0:0:0:0:
216,160,12806,5,0,1:0:0:0:
204,120,12889,1,0,0:0:0:0:
244,100,12973,1,0,0:0:0:0:
312,100,13056,1,0,0:0:0:0:
144,100,13139,2,0,L|140:156,1,55.9999999999998,0|0,1:0|0:0,0:0:0:0:
336,156,13306,5,2,0:0:0:0:
404,156,13389,1,0,0:0:0:0:
336,156,13473,1,0,0:0:0:0:
196,155,13639,1,2,0:0:0:0:
336,156,13806,1,0,0:0:0:0:
112,240,13973,2,0,P|112:172|196:156,1,167.999999999999,2|0,0:0|0:0,0:0:0:0:
364,156,14306,2,0,L|140:156,1,223.999999999999,2|0,0:0|0:0,0:0:0:0:
476,156,14806,5,8,0:0:0:0:
336,156,14973,1,8,0:0:0:0:
112,156,15139,1,8,0:0:0:0:
252,156,15306,1,0,0:0:0:0:
112,156,15473,1,2,0:0:0:0:
280,156,15639,2,0,P|352:184|280:268,1,223.999999999999,2|2,0:0|0:0,0:0:0:0:
112,268,16139,5,2,0:0:0:0:
252,268,16306,1,0,0:0:0:0:
112,268,16473,1,2,0:0:0:0:
284,268,16639,2,0,L|288:156,1,112,2|0,0:0|0:0,0:0:0:0:
148,156,16973,2,0,L|260:156,1,112,2|0,0:0|0:0,0:0:0:0:
428,156,17306,1,2,0:0:0:0:
92,156,17473,5,8,0:0:0:0:
232,156,17639,1,8,0:0:0:0:
456,156,17806,1,8,0:0:0:0:
316,156,17973,1,0,0:0:0:0:
456,156,18139,1,2,0:0:0:0:
288,156,18306,2,0,P|212:196|288:268,1,223.999999999999,2|2,0:0|0:0,0:0:0:0:
456,268,18806,5,2,0:0:0:0:
316,268,18973,1,0,0:0:0:0:
456,268,19139,1,2,0:0:0:0:
176,268,19306,2,0,L|172:152,1,112,8|0,0:0|0:0,0:0:0:0:
396,156,19639,1,8,3:0:0:0:
256,156,19806,1,8,3:0:0:0:
424,156,19973,1,2,0:0:0:0:
88,156,20139,5,8,1:2:0:0:
172,156,20223,1,8,0:0:0:0:
88,156,20306,1,8,0:0:0:0:
172,156,20389,1,8,0:0:0:0:
340,156,20473,2,0,L|344:272,1,112,8|0,1:2|0:0,0:0:0:0:
176,268,20806,1,0,1:0:0:0:
456,268,20973,2,0,L|460:156,1,112,10|0,0:0|1:0,0:0:0:0:
292,156,21306,1,8,0:0:0:0:
432,156,21473,5,0,1:0:0:0:
208,156,21639,2,0,L|84:156,1,112,8|0,0:0|1:0,0:0:0:0:
264,156,21973,1,8,0:0:0:0:
124,156,22139,1,0,1:0:0:0:
404,156,22306,1,12,0:0:0:0:
180,156,22473,1,12,0:0:0:0:
320,156,22639,1,0,0:0:0:0:
40,156,22806,5,8,1:2:0:0:
124,156,22889,1,8,0:0:0:0:
40,156,22973,1,8,0:0:0:0:
124,156,23056,1,8,0:0:0:0:
292,156,23139,2,0,L|180:156,1,112,8|0,1:2|0:0,0:0:0:0:
348,156,23473,1,0,1:0:0:0:
64,156,23639,2,0,L|60:272,1,112,8|0,0:0|1:0,0:0:0:0:
396,268,23973,6,0,P|452:240|396:184,1,167.999999999999,4|0,0:0|0:0,0:0:0:0:
172,184,24306,2,0,L|340:184,1,167.999999999999,4|0,0:0|0:0,0:0:0:0:
116,184,24639,1,4,0:0:0:0:
256,184,24806,2,0,L|260:128,1,55.9999999999998,0|0,1:0|1:0,1:0:0:0:
176,128,24973,2,0,L|172:72,1,55.9999999999998,8|0,1:2|1:0,1:0:0:0:
396,72,25139,2,0,L|328:72,1,55.9999999999998,0|0,1:0|1:0,1:0:0:0:
172,72,25306,2,0,L|96:72,1,55.9999999999998,8|0,1:2|1:0,1:0:0:0:
396,72,25473,6,0,L|400:188,1,112,4|2,1:2|0:0,0:0:0:0:
259,183,25806,2,0,L|372:184,1,112,2|0,1:2|0:0,0:0:0:0:
204,184,26139,1,2,1:2:0:0:
64,184,26306,1,2,0:0:0:0:
204,184,26473,2,0,L|320:184,1,112,2|0,1:2|0:0,0:0:0:0:
92,184,26806,6,0,L|88:296,1,112,2|0,1:2|0:0,0:0:0:0:
228,296,27139,1,2,1:2:0:0:
396,296,27306,2,0,P|464:224|380:196,1,223.999999999999,2|0,0:0|0:0,0:0:0:0:
232,196,27806,1,0,1:0:0:0:
380,196,27973,1,8,0:0:0:0:
324,196,28056,1,8,0:0:0:0:
100,296,28139,6,0,L|96:184,1,112,0|2,1:0|0:0,0:0:0:0:
236,184,28473,2,0,L|124:184,1,112,2|2,1:2|0:0,0:0:0:0:
292,184,28806,1,2,1:2:0:0:
432,184,28973,1,2,0:0:0:0:
292,184,29139,1,2,1:2:0:0:
432,184,29306,1,2,0:0:0:0:
208,184,29473,6,0,P|96:184|68:92,1,223.999999999999,2|2,1:2|1:2,0:0:0:0:
236,92,29973,2,0,L|120:92,1,112,2|0,0:0|1:0,0:0:0:0:
264,92,30306,1,8,0:0:0:0:
404,92,30473,1,0,1:0:0:0:
264,92,30639,1,8,0:0:0:0:
208,92,30723,1,8,0:0:0:0:
476,316,30806,6,0,L|480:204,1,112,4|2,1:2|0:0,0:0:0:0:
340,204,31139,2,0,L|456:204,1,112,2|0,1:2|0:0,0:0:0:0:
284,204,31473,2,0,L|172:204,1,112,2|0,1:2|0:0,0:0:0:0:
312,204,31806,1,2,1:2:0:0:
172,204,31973,1,2,0:0:0:0:
396,204,32139,5,2,1:2:0:0:
256,204,32306,1,8,0:0:0:0:
396,204,32473,1,2,1:2:0:0:
172,204,32639,2,0,L|56:204,1,112,8|0,3:0|0:0,0:0:0:0:
288,204,32973,1,8,3:0:0:0:
148,204,33139,1,8,3:0:0:0:
8,204,33306,1,2,1:2:0:0:
344,204,33473,6,0,L|460:204,1,112,10|2,0:0|1:2,0:0:0:0:
232,204,33806,2,0,L|112:204,1,112,8|2,0:0|1:2,0:0:0:0:
344,204,34139,1,8,0:0:0:0:
276,204,34223,1,0,1:0:0:0:
208,204,34306,1,0,1:0:0:0:
276,204,34389,1,0,1:0:0:0:
444,204,34473,1,8,0:0:0:0:
108,204,34639,6,0,P|32:164|108:92,1,223.999999999999,6|0,1:2|1:2,0:0:0:0:
332,92,35139,2,0,L|336:204,1,112,8|2,0:0|1:2,0:0:0:0:
108,204,35473,1,10,0:0:0:0:
264,204,35639,1,8,0:0:0:0:
108,204,35806,1,10,0:0:0:0:
444,204,35973,6,0,L|220:204,1,223.999999999999,4|0,1:2|1:0,0:0:0:0:
444,204,36473,2,0,L|448:92,1,112,10|0,0:0|0:0,0:0:0:0:
308,92,36806,1,2,1:2:0:0:
140,92,36973,1,2,1:2:0:0:
280,92,37139,1,10,0:0:0:0:
28,92,37306,6,0,L|24:208,1,112,2|0,1:2|0:0,0:0:0:0:
164,204,37639,1,2,1:2:0:0:
388,204,37806,2,0,P|448:240|360:312,1,223.999999999999,8|0,0:0|1:0,0:0:0:0:
222,313,38306,1,0,1:0:0:0:
362,313,38473,1,8,0:0:0:0:
80,204,38639,6,0,L|192:204,1,112,2|0,1:2|0:0,0:0:0:0:
360,204,38973,2,0,L|476:204,1,112,2|8,1:2|0:0,0:0:0:0:
248,204,39306,2,0,P|172:164|248:92,1,223.999999999999,2|2,0:0|1:2,0:0:0:0:
388,92,39806,1,8,0:0:0:0:
108,92,39973,6,0,L|104:204,1,112,2|0,1:2|0:0,0:0:0:0:
272,203,40306,2,0,L|388:204,1,112,2|8,1:2|0:0,0:0:0:0:
160,204,40639,1,2,0:0:0:0:
20,204,40806,1,2,1:2:0:0:
160,204,40973,1,8,0:0:0:0:
328,204,41139,1,8,0:0:0:0:
20,204,41306,6,0,P|44:296|156:296,1,223.999999999999,4|0,1:2|1:0,0:0:0:0:
384,204,41806,2,0,L|264:204,1,112,10|0,0:0|0:0,0:0:0:0:
104,204,42139,2,0,L|216:204,1,112,2|0,1:2|1:0,0:0:0:0:
146,204,42389,1,0,1:0:0:0:
76,204,42473,1,8,0:0:0:0:
356,204,42639,6,0,L|244:204,1,112,2|0,1:2|0:0,0:0:0:0:
384,204,42973,1,2,1:2:0:0:
160,204,43139,2,0,P|48:184|44:92,1,223.999999999999,8|0,0:0|1:0,0:0:0:0:
216,92,43639,1,2,1:2:0:0:
76,92,43806,1,8,0:0:0:0:
412,92,43973,6,0,P|488:132|412:204,1,223.999999999999,2|2,1:2|1:2,0:0:0:0:
272,204,44473,1,8,0:0:0:0:
48,204,44639,2,0,L|272:204,1,223.999999999999,2|2,0:0|1:2,0:0:0:0:
412,204,45139,1,8,0:0:0:0:
132,204,45306,6,0,P|56:164|132:92,1,223.999999999999,2|0,1:2|1:0,0:0:0:0:
356,92,45806,2,0,L|472:92,1,112,8|0,0:0|1:0,0:0:0:0:
188,92,46139,1,8,0:0:0:0:
20,92,46306,1,10,0:0:0:0:
300,92,46473,1,10,0:0:0:0:
132,92,46639,1,10,0:0:0:0:
456,92,46806,6,0,L|460:208,1,112,6|0,1:2|0:0,0:0:0:0:
320,204,47139,1,2,0:0:0:0:
460,204,47306,2,0,L|228:204,1,223.999999999999,2|2,0:0|0:0,0:0:0:0:
376,204,47806,1,2,0:0:0:0:
224,204,47973,6,0,P|148:164|224:92,1,223.999999999999,2|2,0:0|0:0,0:0:0:0:
364,92,48473,1,2,0:0:0:0:
224,92,48639,2,0,L|452:92,1,223.999999999999,2|2,0:0|0:0,0:0:0:0:
308,92,49139,1,2,0:0:0:0:
460,92,49306,6,0,L|464:324,1,223.999999999999,2|2,0:0|0:0,0:0:0:0:
324,316,49806,1,2,0:0:0:0:
464,316,49973,2,0,L|348:316,1,112,2|0,0:0|0:0,0:0:0:0:
212,316,50306,2,0,L|208:200,1,112,2|0,0:0|0:0,0:0:0:0:
360,316,50639,6,0,P|436:276|360:204,1,223.999999999999,2|2,0:0|0:0,0:0:0:0:
220,204,51139,1,2,0:0:0:0:
360,204,51306,2,0,L|136:204,1,223.999999999999,2|2,0:0|0:0,0:0:0:0:
304,204,51806,2,0,L|416:204,1,112,2|2,0:0|0:0,0:0:0:0:
100,204,52139,5,12,1:2:0:0:
268,204,52306,1,10,0:0:0:0:
100,204,52473,1,10,0:0:0:0:
324,204,52639,2,0,L|328:92,1,112,2|0,0:0|1:0,0:0:0:0:
188,92,52973,1,2,0:0:0:0:
356,92,53139,1,0,1:0:0:0:
76,92,53306,6,0,L|72:204,1,112,8|0,0:0|1:0,0:0:0:0:
240,204,53639,2,0,L|124:204,1,112,10|0,0:0|1:0,0:0:0:0:
356,204,53973,2,0,L|468:204,1,112,2|0,0:0|1:0,0:0:0:0:
244,204,54306,2,0,L|240:88,1,112,2|0,0:0|1:0,0:0:0:0:
380,92,54639,1,8,0:0:0:0:
436,92,54723,1,8,0:0:0:0:
156,92,54806,5,4,1:2:0:0:
296,92,54973,1,2,0:0:0:0:
72,92,55139,2,0,L|68:152,1,55.9999999999998,2|0,1:2|1:0,0:0:0:0:
136,148,55306,1,0,1:0:0:0:
68,147,55389,1,0,1:0:0:0:
236,148,55473,2,0,L|296:148,1,55.9999999999998,2|0,1:2|1:0,0:0:0:0:
96,148,55639,6,0,L|44:168,1,55.9999999999998,10|0,0:0|1:0,0:0:0:0:
128,204,55806,2,0,L|184:204,1,55.9999999999998,0|0,1:0|1:0,0:0:0:0:
352,204,55973,2,0,L|356:148,1,55.9999999999998,2|0,1:2|1:0,0:0:0:0:
160,148,56139,6,0,L|104:148,1,55.9999999999998,2|0,1:2|1:0,0:0:0:0:
272,148,56306,2,0,L|276:88,1,55.9999999999998,2|0,1:2|1:0,0:0:0:0:
192,92,56473,2,0,L|188:152,1,55.9999999999998,0|0,1:0|1:0,0:0:0:0:
384,148,56639,6,0,L|460:149,1,55.9999999999998,10|0,0:0|1:0,0:0:0:0:
271,148,56806,2,0,L|268:209,1,55.9999999999998,2|0,1:2|1:0,0:0:0:0:
436,205,56973,2,0,L|368:205,1,55.9999999999998,2|0,1:2|1:0,0:0:0:0:
184,204,57139,1,8,1:2:0:0:
240,204,57223,1,8,1:2:0:0:
184,204,57306,1,0,1:0:0:0:
240,204,57389,1,0,1:0:0:0:
436,260,57473,5,0,1:0:0:0:
296,260,57639,1,8,0:0:0:0:
436,260,57806,1,8,0:0:0:0:
296,260,57973,1,0,1:0:0:0:
72,260,58139,1,8,0:0:0:0:
212,260,58306,1,0,1:0:0:0:
140,260,58389,1,0,1:0:0:0:
72,260,58473,1,0,1:0:0:0:
408,260,58639,6,0,P|480:232|408:152,1,223.999999999999,4|0,1:2|0:0,0:0:0:0:
183,152,59139,2,0,P|127:180|183:236,1,167.999999999999,2|0,0:0|0:0,0:0:0:0:
296,236,59473,2,0,P|352:264|296:320,1,167.999999999999,2|0,0:0|0:0,0:0:0:0:
183,236,59806,2,2,P|127:264|183:320,1,167.999999999999
464,320,60139,6,0,L|348:320,1,112,6|0,1:2|0:0,0:0:0:0:
124,320,60473,2,0,L|120:208,1,112,8|0,0:0|0:0,0:0:0:0:
192,208,60723,1,8,0:0:0:0:
360,208,60806,2,0,L|364:96,1,112,2|0,1:2|1:0,0:0:0:0:
140,96,61139,1,8,0:0:0:0:
308,96,61306,1,0,1:0:0:0:
28,96,61473,6,0,L|24:212,1,112,6|0,1:2|0:0,0:0:0:0:
164,208,61806,1,10,0:0:0:0:
444,208,61973,1,2,0:0:0:0:
372,208,62056,1,8,0:0:0:0:
300,208,62139,1,0,1:0:0:0:
444,208,62306,1,0,1:0:0:0:
220,208,62473,1,10,0:0:0:0:
80,208,62639,1,0,1:0:0:0:
416,208,62806,6,0,L|420:96,1,112,6|0,1:2|0:0,0:0:0:0:
280,96,63139,1,10,0:0:0:0:
56,96,63306,1,2,0:0:0:0:
124,96,63389,1,8,0:0:0:0:
196,96,63473,1,0,1:0:0:0:
364,96,63639,1,0,1:0:0:0:
140,96,63806,1,10,0:0:0:0:
420,96,63973,6,0,L|196:96,1,223.999999999999,4|0,1:2|1:0,0:0:0:0:
420,96,64473,2,0,L|424:208,1,112,10|0,0:0|1:0,0:0:0:0:
256,208,64806,1,2,0:0:0:0:
396,208,64973,1,0,1:0:0:0:
172,208,65139,2,0,L|48:208,1,112,10|0,0:0|1:0,0:0:0:0:
396,208,65473,6,0,P|284:208|256:116,1,223.999999999999,6|8,1:2|0:0,0:0:0:0:
480,116,65973,1,2,0:0:0:0:
412,116,66056,1,8,0:0:0:0:
344,116,66139,1,0,1:0:0:0:
480,116,66306,1,0,1:0:0:0:
256,116,66473,2,0,L|144:116,1,112,10|0,0:0|1:0,0:0:0:0:
424,116,66806,6,0,P|400:208|284:208,1,223.999999999999,6|8,1:2|0:0,0:0:0:0:
36,208,67306,1,2,0:0:0:0:
104,208,67389,1,8,0:0:0:0:
172,208,67473,1,0,1:0:0:0:
400,208,67639,1,0,1:0:0:0:
260,208,67806,1,8,0:0:0:0:
36,208,67973,1,2,1:2:0:0:
372,208,68139,5,14,0:0:0:0:
232,208,68306,1,2,0:0:0:0:
456,208,68473,1,2,1:2:0:0:
120,208,68639,2,0,L|240:208,1,112,14|0,0:0|1:0,0:0:0:0:
92,208,68973,1,0,1:0:0:0:
372,208,69139,1,14,0:0:0:0:
148,208,69306,1,2,1:2:0:0:
484,208,69473,6,0,L|368:208,1,112,14|0,0:0|1:0,0:0:0:0:
148,208,69806,1,12,0:0:0:0:
428,208,69973,1,2,0:0:0:0:
204,208,70139,2,0,L|148:208,1,55.9999999999998,0|0,1:0|1:0,0:0:0:0:
316,96,70306,2,0,L|372:96,1,55.9999999999998,8|8,0:0|0:0,0:0:0:0:
148,96,70473,1,8,1:2:0:0:
64,96,70556,1,8,0:0:0:0:
148,96,70639,1,8,0:0:0:0:
64,96,70723,1,8,0:0:0:0:
316,96,70806,6,0,L|320:208,1,112,6|0,1:2|0:0,0:0:0:0:
95,208,71139,2,0,L|92:320,1,112,8|0,0:0|0:0,0:0:0:0:
160,320,71389,1,8,0:0:0:0:
328,320,71473,2,0,L|440:320,1,112,2|0,1:2|1:0,0:0:0:0:
216,320,71806,1,8,0:0:0:0:
48,320,71973,1,2,1:2:0:0:
384,320,72139,6,0,L|268:320,1,112,6|0,1:2|0:0,0:0:0:0:
412,320,72473,1,10,0:0:0:0:
132,320,72639,1,2,0:0:0:0:
64,320,72723,1,8,0:0:0:0:
132,320,72806,1,0,1:0:0:0:
272,320,72973,1,0,1:0:0:0:
48,320,73139,2,0,L|44:208,1,112,10|0,0:0|1:0,0:0:0:0:
380,208,73473,6,0,L|496:208,1,112,6|0,1:2|0:0,0:0:0:0:
352,208,73806,1,10,0:0:0:0:
72,208,73973,1,2,0:0:0:0:
120,280,74056,1,8,0:0:0:0:
188,312,74139,1,2,1:2:0:0:
356,312,74306,1,0,1:0:0:0:
132,312,74473,1,8,0:0:0:0:
468,312,74639,6,0,P|432:212|328:208,1,223.999999999999,4|0,1:2|1:0,0:0:0:0:
100,208,75139,1,10,0:0:0:0:
436,208,75306,2,0,B|324:208|324:208|440:208,1,223.999999999999,6|0,1:2|1:0,0:0:0:0:
212,208,75806,1,8,0:0:0:0:
156,208,75889,1,0,1:0:0:0:
336,208,75973,1,0,1:0:0:0:
392,208,76056,1,0,1:0:0:0:
168,320,76139,6,0,L|164:208,1,112,14|0,0:0|0:0,0:0:0:0:
296,208,76473,2,0,L|424:208,1,112,8|2,0:0|0:0,0:0:0:0:
184,208,76806,2,0,L|180:96,1,112,10|0,0:0|1:0,0:0:0:0:
320,96,77139,1,8,0:0:0:0:
152,96,77306,1,0,1:0:0:0:
432,96,77473,6,0,L|320:96,1,112,10|0,0:0|0:0,0:0:0:0:
180,96,77806,1,8,0:0:0:0:
320,96,77973,1,2,1:2:0:0:
96,96,78139,2,0,L|92:208,1,112,10|0,0:0|1:0,0:0:0:0:
232,208,78473,1,8,0:0:0:0:
92,208,78639,1,0,1:0:0:0:
372,208,78806,6,0,L|376:96,1,112,8|0,0:0|0:0,0:0:0:0:
236,96,79139,2,0,L|124:96,1,112,8|0,0:0|0:0,0:0:0:0:
352,96,79473,2,0,L|468:96,1,112,8|0,0:0|1:0,0:0:0:0:
324,96,79806,1,8,0:0:0:0:
492,96,79973,1,0,1:0:0:0:
260,96,80139,6,0,L|148:96,1,112,8|0,0:0|0:0,0:0:0:0:
288,96,80473,1,8,0:0:0:0:
64,96,80639,2,0,L|60:208,1,112,2|8,1:2|0:0,0:0:0:0:
288,208,80973,1,2,1:2:0:0:
120,209,81139,2,0,L|236:209,1,112,8|0,0:0|1:0,0:0:0:0:
484,209,81473,5,6,1:2:0:0:
260,208,81806,1,0,1:0:0:0:
484,209,82139,1,10,0:0:0:0:
344,208,82306,1,0,1:0:0:0:
484,209,82473,1,0,1:0:0:0:
344,208,82639,1,8,0:0:0:0:
64,208,82806,5,2,1:2:0:0:
208,208,82973,1,8,0:0:0:0:
64,208,83139,1,0,1:0:0:0:
208,208,83306,1,0,1:0:0:0:
376,208,83473,1,10,0:0:0:0:
208,208,83639,2,0,P|104:208|60:108,1,223.999999999999,0|0,1:0|1:0,0:0:0:0:
344,116,84139,6,0,L|348:232,1,112,6|0,1:2|0:0,0:0:0:0:
179,227,84473,1,0,1:0:0:0:
352,228,84639,1,0,1:0:0:0:
72,228,84806,1,10,0:2:0:0:
224,228,84973,1,8,0:0:0:0:
344,228,85139,1,0,1:0:0:0:
224,228,85306,1,8,0:0:0:0:
492,228,85473,5,2,1:2:0:0:
324,228,85639,1,8,0:0:0:0:
184,228,85806,1,0,1:0:0:0:
324,228,85973,1,8,0:0:0:0:
44,228,86139,1,0,1:0:0:0:
184,228,86306,1,8,0:0:0:0:
468,228,86473,1,0,1:0:0:0:
328,228,86639,1,8,0:0:0:0:
44,228,86806,5,2,0:0:0:0:
