osu file format v14

[General]
AudioFilename: audio.mp3
AudioLeadIn: 0
PreviewTime: 58973
Countdown: 0
SampleSet: Soft
StackLeniency: 0.7
Mode: 2
LetterboxInBreaks: 0
WidescreenStoryboard: 1

[Editor]
Bookmarks: 4084,6751,9418,10751,12084,14751,17418,20084,22751,23918,25418,28084,30751,33418,34584,35918,38584,41251,43918,46751,52084,54751,56084,57418,58584,60084,61418,62751,63918,65418,66751,68084,68584,69418,70751,72084,73418,74584,76084,77418,78751,80084,81418,84084,85418,86751
DistanceSpacing: 1
BeatDivisor: 4
GridSize: 4
TimelineZoom: 1.2

[Metadata]
Title:Nounai (TV Size)
TitleUnicode:脳内 (TV Size)
Artist:Lenny code fiction
ArtistUnicode:Lenny code fiction
Creator:rew0825
Version:Cup
Source:炎炎ノ消防隊
Tags:Fire Force Brigade of Flames Enen no Shouboutai Enn David Production ed ending anime In My Head japanese
BeatmapID:2255132
BeatmapSetID:1070214

[Difficulty]
HPDrainRate:3
CircleSize:2.4
OverallDifficulty:6
ApproachRate:6
SliderMultiplier:1.18
SliderTickRate:1

[Events]
//Background and Video events
0,0,"BG.jpg",0,0
//Break Periods
2,47006,51089
//Storyboard Layer 0 (Background)
//Storyboard Layer 1 (Fail)
//Storyboard Layer 2 (Pass)
//Storyboard Layer 3 (Foreground)
//Storyboard Layer 4 (Overlay)
//Storyboard Sound Samples

[TimingPoints]
140,333.333333333333,4,2,1,30,1,0
1639,-100,4,2,1,40,0,0
2139,-100,4,2,1,50,0,0
2639,-100,4,2,1,60,0,0
3389,-100,4,2,1,5,0,0
3473,-100,4,2,1,60,0,0
3723,-100,4,2,1,5,0,0
3806,-100,4,2,1,60,0,0
4056,-100,4,2,1,5,0,0
4139,-100,4,2,1,70,0,0
4973,-100,4,2,1,50,0,0
5139,-100,4,2,1,60,0,0
5306,-100,4,2,1,70,0,0
12223,-100,4,2,1,40,0,0
12473,-100,4,2,1,70,0,0
12556,-100,4,2,1,40,0,0
12806,-100,4,2,1,70,0,0
12889,-100,4,2,1,40,0,0
13139,-100,4,2,1,70,0,0
13473,-100,4,2,1,60,0,0
20139,-100,4,2,1,70,0,0
24223,-100,4,2,1,5,0,0
24306,-100,4,2,1,70,0,0
24556,-100,4,2,1,5,0,0
24639,-100,4,2,1,70,0,0
25473,-100,4,2,1,60,0,0
35973,-100,4,2,1,70,0,0
46806,-100,4,2,1,60,0,0
52139,-100,4,2,1,70,0,0
55223,-100,4,2,1,50,0,0
55473,-100,4,2,1,70,0,0
55556,-100,4,2,1,50,0,0
55639,-100,4,2,1,70,0,0
55723,-100,4,2,1,50,0,0
55806,-100,4,2,1,70,0,0
55889,-100,4,2,1,50,0,0
56139,-100,4,2,1,70,0,0
56223,-100,4,2,1,50,0,0
56473,-100,4,2,1,70,0,0
56556,-100,4,2,1,50,0,0
56639,-100,4,2,1,70,0,0
56723,-100,4,2,1,50,0,0
56806,-100,4,2,1,70,0,0
56889,-100,4,2,1,50,0,0
56973,-100,4,2,1,70,0,0
57056,-100,4,2,1,50,0,0
57139,-100,4,2,1,70,0,0
57223,-100,4,2,1,50,0,0
57473,-100,4,2,1,70,0,0
59389,-100,4,2,1,5,0,0
59473,-100,4,2,1,70,0,0
59723,-100,4,2,1,5,0,0
59806,-100,4,2,1,70,0,0
60056,-100,4,2,1,5,0,0
60139,-100,4,2,1,80,0,1
70306,-100,4,2,1,50,0,1
70389,-100,4,2,1,55,0,1
70473,-100,4,2,1,60,0,1
70556,-100,4,2,1,65,0,1
70639,-100,4,2,1,70,0,1
70723,-100,4,2,1,75,0,0
70806,-100,4,2,1,80,0,1
76139,-100,4,2,1,70,0,1
81473,-100,4,2,1,60,0,0
86806,-100,4,2,1,40,0,0

[Colours]
Combo1 : 78,217,241
Combo2 : 249,24,13
Combo3 : 249,73,15
Combo4 : 238,255,21

[HitObjects]
256,192,973,12,0,2806,0:0:0:0:
340,192,3139,5,2,0:0:0:0:
220,192,3473,1,2,0:0:0:0:
340,192,3806,1,2,0:0:0:0:
176,192,4139,5,4,0:0:0:0:
380,192,4806,2,0,P|416:180|380:132,1,118,2|8,0:0|0:0,0:0:0:0:
308,132,5306,1,8,0:0:0:0:
220,132,5473,6,0,L|96:132,1,118,6|2,1:2|0:0,0:0:0:0:
160,192,5973,1,2,0:0:0:0:
232,192,6139,1,0,1:0:0:0:
364,192,6473,1,2,1:2:0:0:
192,192,6806,5,14,0:0:0:0:
60,192,7139,2,0,L|64:132,1,59,10|14,0:0|0:0,0:0:0:0:
196,132,7639,2,0,L|200:72,1,59,10|10,0:0|0:0,0:0:0:0:
348,72,8139,5,8,0:0:0:0:
200,72,8473,2,0,L|80:72,2,118,10|2|10,0:0|0:0|0:0,0:0:0:0:
376,72,9473,6,0,L|380:192,1,118,14|0,0:0|1:0,0:0:0:0:
248,192,10139,2,0,L|120:192,1,118,2|8,1:2|0:0,0:0:0:0:
324,192,10806,6,0,L|504:192,2,177,14|8|8,0:0|0:0|0:0,0:0:0:0:
176,192,12139,5,4,1:2:0:0:
104,192,12306,1,2,0:0:0:0:
72,140,12473,1,0,1:0:0:0:
104,192,12639,1,2,0:2:0:0:
176,192,12806,1,0,1:0:0:0:
324,192,13139,2,0,L|328:132,1,59,0|2,1:0|0:0,0:0:0:0:
196,132,13639,6,0,P|132:132|120:88,1,118,2|2,0:0|0:0,0:0:0:0:
252,88,14306,2,0,L|380:88,1,118,2|0,0:0|0:0,0:0:0:0:
280,88,14806,6,0,L|212:88,2,59,8|8|8,0:0|0:0|0:0,0:0:0:0:
412,88,15473,2,0,L|408:152,1,59,2|2,0:0|0:0,0:0:0:0:
276,148,15973,6,0,L|272:208,1,59,2|2,0:0|0:0,0:0:0:0:
404,208,16473,2,0,L|408:268,1,59,2|2,0:0|0:0,0:0:0:0:
276,268,16973,1,2,0:0:0:0:
128,268,17306,1,2,0:0:0:0:
216,268,17473,6,0,L|288:268,2,59,8|8|8,0:0|0:0|0:0,0:0:0:0:
84,268,18139,2,0,L|80:208,1,59,2|2,0:0|0:0,0:0:0:0:
216,208,18639,6,0,L|212:148,1,59,2|2,0:0|0:0,0:0:0:0:
80,148,19139,1,2,0:0:0:0:
152,148,19306,1,8,0:0:0:0:
300,148,19639,2,0,L|304:88,1,59,8|8,3:0|3:0,0:0:0:0:
128,88,20139,6,0,L|56:88,2,59,8|8|8,1:2|0:0|1:2,0:0:0:0:
276,88,20806,2,0,L|280:152,1,59,0|10,1:0|0:0,0:0:0:0:
132,144,21306,1,8,0:0:0:0:
280,144,21639,5,8,0:0:0:0:
428,144,21973,2,0,P|460:160|416:204,1,118,8|12,0:0|0:0,0:0:0:0:
328,204,22473,1,12,0:0:0:0:
180,204,22806,6,0,L|116:204,2,59,8|8|8,1:2|0:0|1:2,0:0:0:0:
328,204,23473,2,0,L|388:204,1,59,0|8,1:0|0:0,0:0:0:0:
212,208,23973,6,0,L|88:208,2,118,4|4|4,0:0|0:0|0:0,0:0:0:0:
360,208,24973,1,8,1:2:0:0:
432,208,25139,1,0,1:0:0:0:
360,208,25306,1,8,1:2:0:0:
272,208,25473,6,0,L|144:208,1,118,4|2,1:2|1:2,0:0:0:0:
284,208,26139,2,0,L|352:208,2,59,2|2|2,1:2|0:0|1:2,0:0:0:0:
136,208,26806,6,0,P|96:188|136:148,1,118,2|2,1:2|1:2,0:0:0:0:
208,148,27306,2,0,L|396:148,1,177,2|0,0:0|1:0,0:0:0:0:
208,148,28139,6,0,L|140:148,2,59,0|2|2,1:0|0:0|1:2,0:0:0:0:
340,148,28806,2,0,L|400:148,2,59,2|2|2,1:2|0:0|1:2,0:0:0:0:
192,148,29473,6,0,P|152:168|192:208,1,118,2|2,1:2|1:2,0:0:0:0:
264,208,29973,1,2,0:0:0:0:
396,208,30306,2,0,L|400:268,1,59,8|0,0:0|1:0,0:0:0:0:
220,268,30806,6,0,L|100:268,2,118,4|2|2,1:2|1:2|1:2,0:0:0:0:
352,268,31806,2,0,L|356:208,1,59,2|2,1:2|0:0,0:0:0:0:
268,208,32139,5,2,1:2:0:0:
136,208,32473,2,0,L|132:148,1,59,2|8,1:2|3:0,0:0:0:0:
264,148,32973,2,0,L|332:148,2,59,8|8|2,3:0|3:0|1:2,0:0:0:0:
176,148,33473,6,0,L|172:268,1,118,10|8,0:0|0:0,0:0:0:0:
248,268,33973,1,2,1:2:0:0:
324,268,34139,2,0,P|364:248|324:208,1,118,8|8,0:0|0:0,0:0:0:0:
236,208,34639,6,0,L|112:208,1,118,6|0,1:2|1:2,0:0:0:0:
268,208,35306,1,2,1:2:0:0:
340,208,35473,1,10,0:0:0:0:
388,168,35639,1,8,0:0:0:0:
340,128,35806,1,10,0:0:0:0:
252,128,35973,6,0,P|152:128|116:68,1,177,4|10,1:2|0:0,0:0:0:0:
248,68,36806,2,0,L|312:68,2,59,2|2|10,1:2|1:2|0:0,0:0:0:0:
172,68,37306,6,0,P|132:88|172:128,1,118,2|2,1:2|1:2,0:0:0:0:
244,128,37806,1,8,0:0:0:0:
420,128,38306,2,0,L|424:188,1,59,0|8,1:0|0:0,0:0:0:0:
348,188,38639,6,0,L|220:188,1,118,2|2,1:2|1:2,0:0:0:0:
224,68,39306,1,2,0:0:0:0:
356,68,39639,2,0,L|360:128,1,59,2|8,1:2|0:0,0:0:0:0:
284,128,39973,6,0,L|160:128,1,118,2|2,1:2|1:2,0:0:0:0:
304,128,40639,1,2,0:0:0:0:
376,128,40806,1,2,1:2:0:0:
304,128,40973,1,8,0:0:0:0:
128,128,41306,6,0,P|68:160|128:216,1,177,4|10,1:2|0:0,0:0:0:0:
260,216,42139,1,2,1:2:0:0:
392,216,42473,2,0,L|396:156,1,59,8|2,0:0|1:2,0:0:0:0:
248,156,42973,6,0,L|244:96,1,59,2|8,1:2|0:0,0:0:0:0:
420,96,43639,2,0,L|424:156,1,59,2|8,1:2|0:0,0:0:0:0:
336,156,43973,5,2,1:2:0:0:
204,156,44306,2,0,L|136:156,2,59,2|8|2,1:2|0:0|0:0,0:0:0:0:
336,156,44973,2,0,L|408:156,2,59,2|8|2,1:2|0:0|1:2,0:0:0:0:
188,156,45639,6,0,L|184:216,1,59,0|8,1:0|0:0,0:0:0:0:
316,216,46139,1,8,0:0:0:0:
448,216,46473,2,0,L|388:216,1,59,10|10,0:0|0:0,0:0:0:0:
300,216,46806,1,6,1:2:0:0:
180,192,52139,6,0,L|116:192,2,59,12|10|10,1:2|0:0|0:0,0:0:0:0:
252,192,52639,1,2,0:0:0:0:
384,192,52973,1,2,0:0:0:0:
220,192,53306,6,0,L|96:192,1,118,8|10,0:0|0:0,0:0:0:0:
240,192,53973,1,2,0:0:0:0:
312,192,54139,1,0,1:0:0:0:
304,132,54306,1,2,0:0:0:0:
52,132,54806,6,0,L|48:252,1,118,4|2,1:2|1:2,0:0:0:0:
180,252,55473,2,0,L|176:316,1,59,2|10,1:2|0:0,0:0:0:0:
308,312,55973,1,2,1:2:0:0:
396,312,56139,6,0,L|392:248,1,59,2|2,1:2|1:2,0:0:0:0:
260,252,56639,2,0,L|188:252,2,59,10|2|2,0:0|1:2|1:2,0:0:0:0:
332,252,57139,1,8,1:2:0:0:
156,252,57473,5,0,1:0:0:0:
92,252,57639,1,8,0:0:0:0:
156,252,57806,1,8,0:0:0:0:
288,252,58139,1,8,0:0:0:0:
420,252,58473,1,0,1:0:0:0:
332,252,58639,5,4,1:2:0:0:
140,192,59139,1,2,0:0:0:0:
257,192,59473,1,2,0:0:0:0:
140,192,59806,1,2,0:0:0:0:
304,192,60139,6,0,L|432:192,1,118,6|8,1:2|0:0,0:0:0:0:
276,192,60806,2,0,L|156:192,1,118,2|8,1:2|0:0,0:0:0:0:
232,192,61306,1,0,1:0:0:0:
320,192,61473,6,0,P|360:172|320:132,1,118,6|10,1:2|0:0,0:0:0:0:
248,132,61973,1,2,0:0:0:0:
116,132,62306,2,0,L|120:72,1,59,0|10,1:0|0:0,0:0:0:0:
296,72,62806,6,0,P|360:72|372:116,1,118,6|10,1:2|0:0,0:0:0:0:
296,120,63306,1,2,0:0:0:0:
148,120,63639,2,0,L|144:184,1,59,0|10,1:0|0:0,0:0:0:0:
232,180,63973,5,4,1:2:0:0:
408,180,64473,2,0,P|448:200|408:240,1,118,10|2,0:0|0:0,0:0:0:0:
260,240,65139,1,10,0:0:0:0:
84,240,65473,6,0,L|260:240,2,177,6|2|10,1:2|0:0|0:0,0:0:0:0:
260,240,66806,6,0,P|320:208|260:152,1,177,6|2,1:2|0:0,0:0:0:0:
184,152,67473,2,0,P|144:132|184:92,1,118,0|8,1:0|0:0,0:0:0:0:
360,92,68139,5,14,0:0:0:0:
432,92,68306,1,2,0:0:0:0:
360,92,68473,1,2,1:2:0:0:
272,92,68639,1,14,0:0:0:0:
96,92,69139,2,0,L|36:92,1,59,14|2,0:0|1:2,0:0:0:0:
128,216,69473,6,0,L|188:216,1,59,14|0,0:0|1:0,0:0:0:0:
324,212,69973,1,2,0:0:0:0:
176,212,70306,1,8,0:0:0:0:
104,212,70473,1,8,1:2:0:0:
176,212,70639,1,8,0:0:0:0:
264,212,70806,6,0,L|384:212,1,118,6|8,1:2|0:0,0:0:0:0:
236,212,71473,2,0,P|196:192|236:152,1,118,2|8,1:2|0:0,0:0:0:0:
308,152,71973,1,2,1:2:0:0:
396,152,72139,6,0,P|436:132|396:92,1,118,6|10,1:2|0:0,0:0:0:0:
324,92,72639,1,2,0:0:0:0:
148,92,73139,1,10,0:0:0:0:
324,92,73473,6,0,P|364:112|324:152,1,118,6|10,1:2|0:0,0:0:0:0:
252,152,73973,1,2,0:0:0:0:
104,152,74306,2,0,L|100:212,1,59,0|8,1:0|0:0,0:0:0:0:
188,212,74639,5,4,1:2:0:0:
364,212,75139,1,10,0:0:0:0:
276,212,75306,1,6,1:2:0:0:
128,212,75639,2,0,L|124:152,1,59,0|8,1:0|0:0,0:0:0:0:
300,152,76139,6,0,L|420:152,1,118,14|8,0:0|0:0,0:0:0:0:
272,152,76806,2,0,L|148:152,1,118,10|8,0:0|0:0,0:0:0:0:
332,212,77473,6,0,P|372:192|332:152,1,118,10|8,0:0|0:0,0:0:0:0:
184,152,78139,2,0,L|56:152,1,118,10|8,0:0|0:0,0:0:0:0:
244,152,78806,6,0,P|284:132|244:92,1,118,8|8,0:0|0:0,0:0:0:0:
96,92,79473,2,0,L|32:92,2,59,8|0|8,0:0|1:0|0:0,0:0:0:0:
272,92,80139,6,0,L|452:92,2,177,8|2|8,0:0|1:2|0:0,0:0:0:0:
96,92,81473,6,0,P|96:184|216:184,1,236,6|10,1:2|0:0,0:0:0:0:
348,184,82473,1,0,1:0:0:0:
184,184,82806,6,0,L|180:304,1,118,2|0,1:2|1:0,0:0:0:0:
328,304,83473,2,0,L|332:184,1,118,10|0,0:0|0:0,0:0:0:0:
152,188,84139,6,0,P|72:144|152:68,1,236,6|10,1:2|0:2,0:0:0:0:
284,68,85139,1,0,1:0:0:0:
432,68,85473,6,0,L|304:68,1,118,2|0,1:2|1:0,0:0:0:0:
180,68,86139,2,0,L|116:68,2,59,0|8|0,1:0|0:0|1:0,0:0:0:0:
328,68,86806,5,2,0:0:0:0:
