osu file format v14

[General]
AudioFilename: audio.mp3
AudioLeadIn: 0
PreviewTime: 58973
Countdown: 0
SampleSet: Soft
StackLeniency: 0.4
Mode: 0
LetterboxInBreaks: 0
WidescreenStoryboard: 1

[Editor]
DistanceSpacing: 1
BeatDivisor: 4
GridSize: 32
TimelineZoom: 2

[Metadata]
Title:Nounai (TV Size)
TitleUnicode:脳内 (TV Size)
Artist:Lenny code fiction
ArtistUnicode:Lenny code fiction
Creator:HakuYT
Version:Normal
Source:炎炎ノ消防隊
Tags:In My Head brigade of flames fire force ending 2 japanese rock Enen no Shouboutai anime hazu-
BeatmapID:2257177
BeatmapSetID:1077803

[Difficulty]
HPDrainRate:3
CircleSize:3
OverallDifficulty:4
ApproachRate:5
SliderMultiplier:1
SliderTickRate:1

[Events]
//Background and Video events
Video,110,"nounai.mp4"
0,0,"BG1.jpg",0,0
//Break Periods
//Storyboard Layer 0 (Background)
//Storyboard Layer 1 (Fail)
//Storyboard Layer 2 (Pass)
//Storyboard Layer 3 (Foreground)
//Storyboard Layer 4 (Overlay)
//Storyboard Sound Samples

[TimingPoints]
140,333.333333333333,4,2,1,60,1,0
140,-100,4,2,1,60,0,0
3139,-100,4,2,1,70,0,0
4139,-100,4,2,1,70,0,0
5473,-100,4,2,1,70,0,0
6806,-100,4,2,1,70,0,0
9473,-100,4,2,1,70,0,0
14806,-100,4,2,1,70,0,0
17473,-100,4,2,1,70,0,0
25473,-100,4,2,1,65,0,0
33473,-100,4,2,1,70,0,0
35973,-100,4,2,1,70,0,0
46806,-100,4,2,1,65,0,0
52139,-100,4,2,1,65,0,0
54806,-100,4,2,1,70,0,0
58639,-100,4,2,1,70,0,0
60139,-100,4,2,1,80,0,1
70139,-100,4,2,1,80,0,0
70806,-100,4,2,1,80,0,1
75806,-100,4,2,1,80,0,0
76139,-100,4,2,1,80,0,1
81473,-100,4,2,1,70,0,0
86806,-100,4,2,1,50,0,0
88306,-100,4,2,1,5,0,0

[Colours]
Combo1 : 170,255,255
Combo2 : 255,173,91
Combo3 : 255,138,138
Combo4 : 255,255,170

[HitObjects]
171,89,3139,6,0,L|46:74,2,100,2|2|2,0:2|0:2|0:2,0:0:0:0:
264,52,4139,1,6,1:2:0:0:
437,247,4806,6,0,P|425:311|401:347,1,100,2|8,0:0|0:2,0:0:0:0:
307,354,5473,2,0,L|209:322,1,100,6|2,1:2|0:0,0:0:0:0:
164,306,5973,1,2,0:0:0:0:
272,205,6473,5,10,0:3:0:0:
239,110,6806,2,0,P|217:58|173:22,1,100,10|2,0:2|1:2,0:0:0:0:
135,21,7306,2,0,P|83:43|47:87,1,100,10|2,0:2|1:2,0:0:0:0:
40,122,7806,1,10,0:2:0:0:
91,207,8139,1,8,0:2:0:0:
167,271,8473,2,0,L|290:256,1,100,10|10,0:2|0:2,0:0:0:0:
364,243,9139,1,10,0:2:0:0:
462,225,9473,6,0,B|481:267|481:267|475:355,1,100,10|0,0:2|1:2,0:0:0:0:
435,348,9973,2,0,B|393:367|393:367|339:363,1,100,8|0,0:2|1:2,0:0:0:0:
293,342,10473,1,8,0:2:0:0:
314,244,10806,2,0,P|305:194|282:150,1,100,10|2,0:2|1:2,0:0:0:0:
233,145,11306,2,0,L|209:275,1,100,10|0,0:2|1:2,0:0:0:0:
204,292,11806,1,8,0:2:0:0:
116,337,12139,1,10,0:2:0:0:
42,268,12473,1,10,0:2:0:0:
81,176,12806,1,8,0:2:0:0:
35,87,13139,1,10,0:2:0:0:
35,87,14806,6,0,L|96:77,1,50,8|8,0:2|0:2,0:0:0:0:
134,72,15139,1,8,0:2:0:0:
134,72,17473,6,0,L|195:62,1,50,8|8,0:2|0:2,0:0:0:0:
233,57,17806,1,8,0:2:0:0:
233,57,19306,6,0,P|254:116|267:188,1,100,8|0,0:2|1:2,0:0:0:0:
261,202,19806,1,8,1:3:0:0:
311,288,20139,2,0,L|382:273,1,50,8|8,0:2|0:2,0:0:0:0:
409,268,20473,1,8,0:2:0:0:
452,184,20806,5,0,1:2:0:0:
452,184,20973,2,0,P|406:156|348:156,1,100,8|8,0:2|0:2,0:0:0:0:
262,152,21639,2,0,P|212:147|170:121,1,100,8|8,0:2|0:2,0:0:0:0:
70,112,22306,2,0,L|47:50,2,50,8|12|0,0:2|0:2|0:0,0:0:0:0:
51,158,22806,6,0,L|40:223,1,50,8|8,0:2|0:2,0:0:0:0:
44,257,23139,1,8,0:2:0:0:
118,324,23473,2,0,L|184:318,1,50,0|8,1:2|0:2,0:0:0:0:
266,299,23973,1,6,1:2:0:0:
228,206,24306,1,6,1:2:0:0:
285,121,24639,1,6,1:2:0:0:
239,31,24973,1,8,0:0:0:0:
239,31,25139,2,0,L|307:18,1,50,8|8,0:0|0:0,0:0:0:0:
333,43,25473,6,0,P|376:88|398:152,1,100,0|2,1:2|1:2,0:0:0:0:
448,204,26139,2,0,P|412:238|389:282,1,100,2|2,1:2|1:2,0:0:0:0:
316,351,26806,2,0,L|212:339,1,100,2|2,1:2|1:2,0:0:0:0:
176,247,27473,2,0,L|280:235,1,100,0|0,1:2|1:2,0:0:0:0:
324,227,27973,1,8,0:2:0:0:
347,183,28139,6,0,B|359:129|359:129|339:73,1,100,0|2,1:2|1:2,0:0:0:0:
262,28,28806,2,0,B|208:16|208:16|152:36,1,100,2|2,1:2|1:2,0:0:0:0:
71,64,29473,2,0,L|84:174,1,100,2|2,1:2|1:2,0:0:0:0:
176,198,30139,2,0,L|163:308,1,100,0|0,1:2|1:2,0:0:0:0:
167,347,30639,1,8,0:2:0:0:
209,373,30806,6,0,P|272:364|319:334,1,100,0|2,1:2|1:2,0:0:0:0:
360,264,31473,2,0,P|423:273|470:303,1,100,2|2,1:2|1:2,0:0:0:0:
496,199,32139,2,0,P|506:145|490:90,1,100,2|2,1:2|1:2,0:0:0:0:
419,36,32806,1,0,1:2:0:0:
337,94,33139,1,8,0:3:0:0:
254,37,33473,6,0,P|240:69|238:169,1,100,8|8,0:2|0:2,0:0:0:0:
283,219,34139,2,0,P|297:251|299:351,1,100,10|10,0:2|0:2,0:0:0:0:
267,348,34639,2,0,L|137:353,1,100,6|2,1:2|1:2,0:2:0:0:
116,350,35139,1,8,0:2:0:0:
58,268,35473,2,0,L|8:255,2,50,10|8|10,0:2|0:2|0:2,0:2:0:0:
88,227,35973,6,0,B|127:208|127:208|230:214,1,100,4|0,1:2|1:2,0:2:0:0:
232,223,36473,1,10,0:2:0:0:
304,154,36806,2,0,L|370:147,1,50,2|2,1:2|1:2,0:2:0:0:
403,145,37139,1,10,0:2:0:0:
452,140,37306,2,0,P|482:198|475:267,1,100,2|2,1:2|1:2,0:2:0:0:
470,279,37806,1,10,0:2:0:0:
386,333,38139,6,0,L|328:341,1,50,0|2,1:2|1:2,0:2:0:0:
286,344,38473,1,10,0:2:0:0:
236,336,38639,2,0,B|214:287|214:287|224:196,1,100,2|2,1:2|1:2,0:2:0:0:
288,168,39306,2,0,B|281:114|281:114|226:41,1,100,2|2,0:2|1:2,0:2:0:0:
210,52,39806,1,10,0:2:0:0:
160,60,39973,2,0,L|50:85,1,100,2|2,1:2|1:2,0:2:0:0:
38,179,40639,6,0,L|50:233,1,50,2|2,0:2|1:2,0:2:0:0:
60,276,40973,1,10,0:2:0:0:
148,321,41306,2,0,L|259:307,1,100,4|0,1:2|1:2,0:2:0:0:
296,300,41806,1,10,0:2:0:0:
390,331,42139,2,0,L|401:264,1,50,2|2,1:2|1:2,0:2:0:0:
405,231,42473,1,10,0:2:0:0:
390,183,42639,2,0,L|348:74,1,100,2|2,1:2|1:2,0:2:0:0:
307,71,43139,2,0,L|265:180,1,100,8|0,0:2|1:2,0:2:0:0:
203,223,43806,5,10,0:2:0:0:
203,223,43973,2,0,P|151:199|68:206,1,100,2|2,1:2|1:2,0:2:0:0:
58,196,44473,1,10,0:2:0:0:
58,196,44639,1,2,0:0:0:0:
105,107,44973,2,0,L|91:35,1,50,2|8,1:2|0:0,0:0:0:0:
143,38,45306,2,0,L|269:52,1,100,2|0,1:2|1:2,0:2:0:0:
291,55,45806,1,8,0:2:0:0:
333,145,46139,5,8,0:2:0:0:
404,81,46473,1,10,0:2:0:0:
436,175,46806,2,0,L|459:293,1,100,6|2,1:2|0:2,0:0:0:0:
370,326,47473,2,0,L|250:304,1,100,0|2,0:0|0:2,0:0:0:0:
171,310,48139,2,0,P|106:339|68:337,1,100,0|2,0:0|0:2,0:0:0:0:
12,263,48806,2,0,P|55:238|104:234,1,100,0|2,0:0|0:2,0:0:0:0:
78,139,49473,6,0,B|51:104|51:104|59:37,1,100,0|2,0:0|0:2,0:0:0:0:
154,26,50139,2,0,B|195:11|195:11|256:41,1,100,0|0,0:0|0:2,0:0:0:0:
316,107,50806,2,0,L|416:92,1,100,0|2,0:2|0:2,0:0:0:0:
487,160,51473,2,0,L|472:260,1,100,0|2,0:2|0:2,0:0:0:0:
394,321,52139,6,0,L|335:326,1,50,8|10,0:2|0:2,0:0:0:0:
293,329,52473,1,10,0:2:0:0:
200,290,52806,2,0,P|125:315|98:352,1,100,0|0,1:2|1:2,0:0:0:0:
80,368,53306,1,10,0:2:0:0:
31,280,53639,1,10,0:2:0:0:
80,192,53973,2,0,L|143:176,1,50,2|2,0:2|1:2,0:0:0:0:
224,151,54473,1,0,1:2:0:0:
308,204,54806,6,0,P|318:261|344:317,1,100,0|10,1:2|0:2,0:0:0:0:
425,258,55473,2,0,P|415:201|389:145,1,100,2|2,1:2|1:2,0:0:0:0:
342,80,56139,2,0,L|229:63,1,100,10|2,0:2|1:2,0:0:0:0:
148,32,56806,2,0,L|35:49,1,100,2|8,1:2|0:2,0:0:0:0:
19,142,57473,6,0,L|32:212,1,50,0|10,1:2|0:2,0:0:0:0:
37,240,57806,1,10,0:2:0:0:
116,301,58139,1,10,0:2:0:0:
199,246,58473,1,2,1:2:0:0:
199,246,58639,1,6,1:2:0:0:
352,321,59139,6,0,P|370:264|361:215,1,100,2|2,0:2|0:2,0:0:0:0:
345,128,59806,1,2,0:2:0:0:
261,72,60139,2,0,L|135:85,1,100,4|8,1:2|0:2,0:0:0:0:
80,141,60806,2,0,L|72:206,1,50,2|0,1:2|1:2,0:0:0:0:
69,240,61139,1,8,0:2:0:0:
135,314,61473,2,0,P|192:338|262:318,1,100,2|10,1:2|0:2,0:0:0:0:
269,305,61973,2,0,P|326:281|396:301,1,100,10|0,0:2|1:2,0:0:0:0:
403,314,62473,1,10,0:2:0:0:
462,233,62806,6,0,B|471:180|471:180|452:115,1,100,2|10,1:2|0:2,0:0:0:0:
422,93,63306,2,0,L|301:78,1,100,10|2,0:2|1:2,0:0:0:0:
273,70,63806,1,10,0:2:0:0:
223,64,63973,2,0,P|193:115|188:180,1,100,0|0,1:2|1:2,0:0:0:0:
197,203,64473,1,10,0:2:0:0:
253,281,64806,1,2,0:2:0:0:
174,342,65139,1,10,0:2:0:0:
104,269,65473,6,0,B|81:227|81:227|87:132,1,100,6|8,1:2|0:2,0:0:0:0:
101,127,65973,2,0,L|213:107,1,100,10|0,0:2|1:2,0:0:0:0:
249,102,66473,1,10,0:2:0:0:
348,97,66806,2,0,L|396:220,1,100,2|8,1:2|0:2,0:0:0:0:
420,225,67306,2,0,L|392:327,1,100,10|0,0:2|1:2,0:0:0:0:
384,370,67806,1,8,0:2:0:0:
290,334,68139,6,0,P|233:322|177:325,1,100,14|2,0:2|1:2,0:0:0:0:
155,288,68639,2,0,P|167:231|164:175,1,100,14|0,0:2|1:2,0:0:0:0:
158,139,69139,1,14,0:2:0:0:
82,90,69473,1,10,0:2:0:0:
7,156,69806,1,8,0:2:0:0:
15,255,70139,1,8,0:2:0:0:
96,313,70473,1,8,0:2:0:0:
184,267,70806,6,0,L|287:250,1,100,6|8,1:2|0:2,0:0:0:0:
352,179,71473,2,0,L|364:117,1,50,2|0,1:2|1:2,0:0:0:0:
371,80,71806,1,8,0:2:0:0:
449,18,72139,2,0,P|468:69|466:127,1,100,2|10,1:2|0:2,0:0:0:0:
458,163,72639,2,0,L|478:272,1,100,10|0,0:2|1:2,0:0:0:0:
484,307,73139,1,10,0:2:0:0:
388,336,73473,6,0,B|336:350|336:350|276:337,1,100,2|10,1:2|0:2,0:0:0:0:
253,306,73973,2,0,L|149:315,1,100,10|2,0:2|1:2,0:0:0:0:
105,298,74473,1,10,0:0:0:0:
72,260,74639,2,0,P|42:205|36:151,1,100,4|0,1:2|1:2,0:0:0:0:
58,123,75139,1,10,0:2:0:0:
139,66,75473,1,2,0:2:0:0:
237,82,75806,1,10,0:2:0:0:
302,165,76139,6,0,P|365:169|409:155,1,100,10|8,0:2|0:2,0:0:0:0:
487,109,76806,1,10,0:2:0:0:
505,207,77139,1,8,0:2:0:0:
435,279,77473,2,0,L|331:298,1,100,10|8,0:2|0:2,0:0:0:0:
248,250,78139,1,10,0:2:0:0:
206,341,78473,1,8,0:2:0:0:
151,257,78806,6,0,P|130:205|127:154,1,100,10|8,0:2|0:2,0:0:0:0:
157,66,79473,1,8,0:2:0:0:
64,27,79806,1,8,0:2:0:0:
16,114,80139,2,0,L|35:215,1,100,10|10,0:2|0:2,0:0:0:0:
50,259,80639,1,2,1:2:0:0:
127,322,80973,2,0,L|193:311,1,50,2|8,1:2|0:2,0:0:0:0:
262,271,81473,6,0,P|328:247|384:253,1,100,2|0,1:2|1:2,0:0:0:0:
436,307,82139,2,0,P|460:241|454:185,1,100,10|0,0:2|1:2,0:0:0:0:
391,138,82806,2,0,L|281:150,1,100,2|0,1:2|1:2,0:0:0:0:
206,201,83473,2,0,L|96:189,1,100,10|0,0:2|0:0,0:0:0:0:
44,111,84139,6,0,B|64:60|64:60|125:29,1,100,2|0,1:2|1:2,0:0:0:0:
192,86,84806,2,0,B|244:100|244:100|306:70,1,100,10|0,0:2|0:0,0:0:0:0:
379,46,85473,2,0,P|402:94|416:159,1,100,2|0,1:2|1:2,0:0:0:0:
337,203,86139,2,0,P|314:251|300:316,1,100,2|0,1:2|1:2,0:0:0:0:
377,361,86806,1,2,0:0:0:0:
