osu file format v14

[General]
AudioFilename: audio.mp3
AudioLeadIn: 0
PreviewTime: 58973
Countdown: 0
SampleSet: Soft
StackLeniency: 0.4
Mode: 0
LetterboxInBreaks: 0
WidescreenStoryboard: 1

[Editor]
DistanceSpacing: 0.7
BeatDivisor: 4
GridSize: 32
TimelineZoom: 2.3

[Metadata]
Title:Nounai (TV Size)
TitleUnicode:脳内 (TV Size)
Artist:Lenny code fiction
ArtistUnicode:Lenny code fiction
Creator:HakuYT
Version:Insane
Source:炎炎ノ消防隊
Tags:In My Head brigade of flames fire force ending 2 japanese rock Enen no Shouboutai anime hazu-
BeatmapID:2259652
BeatmapSetID:1077803

[Difficulty]
HPDrainRate:5
CircleSize:3.8
OverallDifficulty:8.2
ApproachRate:9
SliderMultiplier:1.8
SliderTickRate:1

[Events]
//Background and Video events
Video,110,"nounai.mp4"
0,0,"BG1.jpg",0,0
//Break Periods
//Storyboard Layer 0 (Background)
//Storyboard Layer 1 (Fail)
//Storyboard Layer 2 (Pass)
//Storyboard Layer 3 (Foreground)
//Storyboard Layer 4 (Overlay)
//Storyboard Sound Samples

[TimingPoints]
140,333.333333333333,4,2,1,60,1,0
140,-133.333333333333,4,2,1,60,0,0
2973,-133.333333333333,4,2,1,5,0,0
3139,-133.333333333333,4,2,1,70,0,0
4139,-100,4,2,1,70,0,0
5473,-100,4,2,1,70,0,0
6806,-100,4,2,1,70,0,0
9473,-100,4,2,1,70,0,0
14806,-100,4,2,1,70,0,0
17473,-100,4,2,1,70,0,0
25473,-133.333333333333,4,2,1,65,0,0
33473,-100,4,2,1,70,0,0
35973,-117.647058823529,4,2,1,70,0,0
46806,-133.333333333333,4,2,1,65,0,0
52139,-117.647058823529,4,2,1,65,0,0
54806,-100,4,2,1,70,0,0
58639,-133.333333333333,4,2,1,70,0,0
60139,-90.9090909090909,4,2,1,80,0,1
70139,-90.9090909090909,4,2,1,80,0,0
70806,-90.9090909090909,4,2,1,80,0,1
75806,-90.9090909090909,4,2,1,80,0,0
76139,-90.9090909090909,4,2,1,80,0,1
81473,-100,4,2,1,70,0,0
86806,-133.333333333333,4,2,1,50,0,0
88306,-133.333333333333,4,2,1,5,0,0

[Colours]
Combo1 : 170,255,255
Combo2 : 255,173,91
Combo3 : 255,138,138
Combo4 : 255,255,170

[HitObjects]
256,192,473,12,0,2973,0:2:0:0:
256,192,3139,6,0,L|236:118,1,67.5000025749208,2|0,0:2|0:2,0:0:0:0:
350,28,3473,2,0,L|332:93,1,67.5000025749208,2|0,0:2|0:2,0:0:0:0:
439,183,3806,2,0,L|419:109,1,67.5000025749208,2|0,0:2|0:2,0:0:0:0:
253,50,4139,5,6,1:2:0:0:
253,50,4973,5,8,0:2:0:0:
221,49,5056,1,8,0:2:0:0:
191,58,5139,1,8,0:2:0:0:
165,75,5222,1,8,0:2:0:0:
144,99,5306,1,8,0:2:0:0:
132,128,5389,1,8,0:2:0:0:
128,159,5472,5,6,1:2:0:0:
128,159,6139,5,8,0:3:0:0:
130,181,6222,1,8,0:3:0:0:
133,203,6305,1,8,0:3:0:0:
135,226,6388,1,8,0:3:0:0:
138,248,6472,1,8,0:3:0:0:
311,196,6639,1,0,1:2:0:0:
311,196,6723,1,0,1:2:0:0:
311,196,6806,6,0,L|404:184,1,90,10|0,0:2|1:2,0:0:0:0:
492,312,7139,1,2,1:2:0:0:
296,374,7306,2,0,L|308:281,1,90,10|0,0:2|1:2,0:0:0:0:
487,202,7639,1,2,1:2:0:0:
341,112,7806,2,0,L|248:100,1,90,10|0,0:2|1:2,0:0:0:0:
129,2,8139,6,0,P|142:57|141:106,1,90,8|0,0:2|1:2,0:0:0:0:
14,255,8473,2,0,P|1:200|2:151,1,90,10|0,0:2|1:2,0:0:0:0:
171,176,8806,1,10,0:2:0:0:
256,337,8973,1,0,1:2:0:0:
256,337,9056,1,0,1:2:0:0:
256,337,9139,2,0,L|288:236,1,90,10|0,0:2|1:2,0:0:0:0:
489,204,9473,6,0,P|436:227|398:229,1,90,10|0,0:2|1:2,0:0:0:0:
253,134,9806,1,0,1:2:0:0:
457,31,9973,2,0,P|480:84|482:122,1,90,8|2,0:2|1:2,0:0:0:0:
306,227,10306,1,0,1:2:0:0:
371,53,10473,2,0,P|318:30|280:28,1,90,8|2,0:2|1:2,0:0:0:0:
181,172,10806,6,0,B|170:134|170:134|182:74,1,90,10|0,0:2|1:2,0:0:0:0:
371,137,11139,1,2,1:2:0:0:
226,251,11306,2,0,B|188:262|188:262|128:250,1,90,10|0,0:2|1:2,0:0:0:0:
56,156,11639,1,0,1:2:0:0:
0,320,11806,2,0,B|38:331|38:331|98:319,1,90,8|2,0:2|0:2,0:0:0:0:
181,172,12139,5,10,0:2:0:0:
208,156,12222,1,0,1:2:0:0:
238,146,12305,1,2,1:2:0:0:
269,142,12389,1,0,1:2:0:0:
299,149,12473,2,0,L|345:160,3,45,10|0|2|0,0:2|0:0|1:2|1:2,0:0:0:0:
242,43,12806,2,0,L|196:54,3,45,8|0|0|0,0:2|1:2|1:2|1:2,0:0:0:0:
364,22,13139,2,0,L|378:78,1,45,10|0,0:2|1:2,0:0:0:0:
472,138,13306,2,0,L|458:194,1,45,2|0,1:2|1:2,0:0:0:0:
435,269,13473,5,2,0:0:0:0:
460,175,14806,5,8,0:2:0:0:
242,237,14973,1,8,0:2:0:0:
450,338,15139,1,8,0:2:0:0:
450,338,17473,5,8,0:2:0:0:
242,237,17639,1,8,0:2:0:0:
460,175,17806,1,8,0:2:0:0:
460,175,19306,5,8,0:2:0:0:
460,175,19639,5,0,1:2:0:0:
272,117,19806,1,8,1:3:0:0:
272,117,20139,6,0,L|216:124,1,45,8|8,0:2|0:2,0:0:0:0:
165,207,20306,2,0,L|109:200,1,45,8|8,0:2|0:0,0:0:0:0:
57,129,20473,1,8,0:2:0:0:
57,129,20806,5,0,1:2:0:0:
179,30,20973,2,0,L|196:119,1,90,8|0,0:2|1:2,0:0:0:0:
299,254,21306,2,0,L|316:165,1,90,8|0,0:2|1:2,0:0:0:0:
429,35,21639,2,0,L|446:124,1,90,8|0,0:2|1:2,0:0:0:0:
379,285,21973,2,0,P|318:270|292:246,1,90,8|0,0:2|1:2,0:0:0:0:
505,186,22306,1,8,0:2:0:0:
453,355,22473,1,12,0:2:0:0:
453,355,22806,6,0,L|468:280,1,45,8|8,0:2|0:2,0:0:0:0:
424,211,22973,2,0,L|409:136,1,45,8|8,0:2|0:0,0:0:0:0:
459,64,23139,1,8,0:2:0:0:
459,64,23473,5,0,1:2:0:0:
335,150,23639,2,0,P|288:166|242:158,1,90,0|8,1:2|0:2,0:0:0:0:
86,50,23973,5,6,1:2:0:0:
45,249,24306,5,6,1:2:0:0:
228,166,24639,5,6,1:2:0:0:
297,289,24806,1,8,0:0:0:0:
328,294,24889,1,8,0:0:0:0:
359,300,24972,1,8,0:0:0:0:
390,305,25055,1,8,0:0:0:0:
421,311,25139,2,0,L|479:298,1,45,8|8,0:0|0:0,0:0:0:0:
510,207,25306,2,0,L|452:194,1,45,8|8,0:0|0:0,0:0:0:0:
346,149,25473,5,0,1:2:0:0:
472,76,25639,1,2,0:2:0:0:
363,43,25806,2,0,L|276:36,1,67.5000025749208,2|0,1:2|0:2,0:0:0:0:
187,138,26139,2,0,P|206:90|208:52,1,67.5000025749208,2|2,1:2|0:2,0:0:0:0:
71,13,26473,2,0,P|77:46|92:76,1,67.5000025749208,2|2,1:2|0:2,0:0:0:0:
33,231,26806,6,0,B|119:205|81:279|188:245,1,135.000005149842,2|2,1:2|1:2,0:0:0:0:
282,145,27306,2,0,L|260:226,1,67.5000025749208,2|0,0:2|1:2,0:0:0:0:
396,299,27639,2,0,L|374:218,1,67.5000025749208,2|0,0:2|1:2,0:0:0:0:
459,131,27973,1,8,0:2:0:0:
459,131,28056,1,8,0:2:0:0:
459,131,28139,6,0,L|372:107,1,67.5000025749208,0|2,1:2|0:2,0:0:0:0:
304,16,28473,1,2,1:2:0:0:
282,145,28639,1,2,0:2:0:0:
192,42,28806,2,0,P|127:31|104:33,1,67.5000025749208,2|2,1:2|0:2,0:0:0:0:
23,158,29139,2,0,P|56:155|89:147,1,67.5000025749208,2|0,1:2|0:2,0:0:0:0:
215,204,29473,6,0,L|195:292,1,67.5000025749208,2|0,1:2|0:2,0:0:0:0:
93,362,29806,1,2,1:2:0:0:
232,362,29973,2,0,P|272:347|293:324,1,67.5000025749208,2|0,0:2|1:2,0:0:0:0:
305,183,30306,2,0,P|320:223|343:244,1,67.5000025749208,10|0,0:2|1:2,0:0:0:0:
451,315,30639,1,8,0:2:0:0:
451,315,30723,1,8,0:2:0:0:
451,315,30806,6,0,L|464:232,1,67.5000025749208,0|2,1:2|0:2,0:0:0:0:
511,119,31139,1,2,1:2:0:0:
393,177,31306,1,2,0:2:0:0:
406,26,31473,2,0,P|430:70|436:97,1,67.5000025749208,2|0,1:2|0:2,0:0:0:0:
270,83,31806,2,0,L|356:89,1,67.5000025749208,2|2,1:2|0:2,0:0:0:0:
270,235,32139,6,0,P|252:206|241:174,1,67.5000025749208,2|8,1:2|0:2,0:0:0:0:
130,111,32473,1,2,1:2:0:0:
44,251,32639,2,0,L|122:239,1,67.5000025749208,10|0,0:3|1:2,0:0:0:0:
271,341,32973,2,0,L|193:329,1,67.5000025749208,10|8,0:3|0:3,0:0:0:0:
364,226,33306,1,2,1:2:0:0:
474,361,33473,6,0,P|485:317|479:266,1,90,8|2,0:2|1:2,0:0:0:0:
368,131,33806,2,0,P|408:150|443:188,1,90,8|2,0:2|1:2,0:0:0:0:
379,321,34139,1,10,0:2:0:0:
335,311,34222,1,0,1:2:0:0:
299,284,34305,1,0,1:2:0:0:
276,246,34389,1,0,1:2:0:0:
271,202,34472,1,10,0:2:0:0:
183,82,34639,6,0,P|106:53|48:143,1,180,6|2,1:2|1:2,0:0:0:0:
130,250,35139,2,0,P|139:203|126:150,1,90,8|2,0:2|1:2,0:0:0:0:
20,351,35473,1,10,0:2:0:0:
171,368,35639,1,8,0:2:0:0:
31,222,35806,1,10,0:2:0:0:
224,273,35973,6,0,B|319:292|274:214|387:241,1,153.000002918243,4|0,1:2|1:2,0:0:0:0:
502,376,36473,2,0,P|476:333|483:207,1,153.000002918243,10|2,0:2|1:2,0:0:0:0:
511,86,36973,1,2,1:2:0:0:
364,159,37139,1,10,0:2:0:0:
437,2,37306,6,0,L|428:78,1,76.5000014591217,2|0,1:2|0:2,0:0:0:0:
280,135,37639,1,2,0:2:0:0:
162,47,37806,2,0,P|113:35|43:129,1,153.000002918243,10|0,0:2|1:2,0:0:0:0:
144,242,38306,1,2,1:2:0:0:
192,129,38473,1,10,0:2:0:0:
56,227,38639,6,0,L|68:319,1,76.5000014591217,2|0,1:2|0:2,0:0:0:0:
214,367,38973,2,0,L|223:291,1,76.5000014591217,2|8,1:2|0:2,0:0:0:0:
328,145,39306,2,0,P|321:191|331:233,1,76.5000014591217,2|0,0:2|1:2,0:0:0:0:
465,350,39639,2,0,P|472:304|462:262,1,76.5000014591217,2|10,1:2|0:2,0:0:0:0:
328,145,39973,6,0,L|248:154,1,76.5000014591217,2|0,1:2|0:2,0:0:0:0:
40,223,40306,2,0,L|120:232,1,76.5000014591217,2|8,1:2|0:2,0:0:0:0:
268,360,40639,1,2,0:2:0:0:
200,213,40806,1,2,1:2:0:0:
125,371,40973,1,10,0:2:0:0:
319,266,41139,5,8,0:2:0:0:
257,128,41306,2,0,P|187:109|108:156,1,153.000002918243,4|0,1:2|1:2,0:0:0:0:
32,299,41806,2,0,L|41:202,1,76.5000014591217,10|0,0:2|0:2,0:0:0:0:
13,93,42139,1,2,1:2:0:0:
133,34,42306,2,0,L|229:29,1,76.5000014591217,2|10,1:2|0:2,0:0:0:0:
341,64,42639,6,0,P|353:100|360:137,1,76.5000014591217,2|0,1:2|0:2,0:0:0:0:
379,285,42973,1,2,1:2:0:0:
273,185,43139,2,0,P|218:192|150:276,1,153.000002918243,8|0,0:2|1:2,0:0:0:0:
257,378,43639,1,2,1:2:0:0:
353,250,43806,1,10,0:2:0:0:
457,376,43973,6,0,L|469:289,1,76.5000014591217,2|0,1:2|0:2,0:0:0:0:
474,168,44306,1,2,1:2:0:0:
353,250,44473,1,10,0:2:0:0:
375,76,44639,2,0,L|387:163,1,76.5000014591217,2|0,0:2|1:2,0:0:0:0:
266,229,44973,1,2,1:2:0:0:
209,90,45139,1,10,0:2:0:0:
138,242,45306,6,0,P|73:233|37:141,1,153.000002918243,2|0,1:2|1:2,0:0:0:0:
134,30,45806,2,0,L|124:112,1,76.5000014591217,8|0,0:2|1:2,0:0:0:0:
276,198,46139,1,8,0:2:0:0:
304,50,46306,1,10,0:2:0:0:
188,166,46473,1,10,0:2:0:0:
279,27,46639,1,10,0:2:0:0:
389,170,46806,6,0,L|408:304,1,135.000005149842,6|2,1:2|0:2,0:0:0:0:
303,344,47306,2,0,B|226:327|247:383|173:370,1,135.000005149842,2|2,0:2|0:2,0:0:0:0:
88,296,47806,1,2,0:2:0:0:
180,225,47973,6,0,P|205:198|236:97,1,135.000005149842,2|2,0:2|0:2,0:0:0:0:
172,13,48473,1,2,0:2:0:0:
297,39,48639,2,0,L|438:19,1,135.000005149842,2|2,0:2|0:2,0:0:0:0:
503,109,49139,1,2,0:2:0:0:
395,150,49306,6,0,B|377:193|377:193|393:282,1,135.000005149842,2|2,0:2|0:2,0:0:0:0:
443,376,49806,1,2,0:2:0:0:
328,337,49973,2,0,P|288:326|249:328,1,67.5000025749208,2|0,0:2|0:0,0:0:0:0:
116,281,50306,6,0,L|188:266,1,67.5000025749208,2|0,0:2|0:2,0:0:0:0:
285,191,50639,2,0,L|213:176,1,67.5000025749208,2|0,0:2|0:2,0:0:0:0:
115,140,50973,1,2,0:2:0:0:
185,56,51139,1,2,0:2:0:0:
280,98,51306,2,0,P|328:93|358:78,1,67.5000025749208,2|0,0:2|0:2,0:0:0:0:
451,28,51639,1,2,0:2:0:0:
419,131,51806,1,2,0:2:0:0:
512,92,51973,1,2,0:2:0:0:
483,258,52139,5,8,0:2:0:0:
416,101,52306,1,10,0:2:0:0:
352,265,52473,1,10,0:2:0:0:
289,133,52639,2,0,L|207:140,1,76.5000014591217,2|0,0:2|1:2,0:0:0:0:
111,263,52973,2,0,L|193:270,1,76.5000014591217,2|0,0:2|1:2,0:0:0:0:
313,383,53306,6,0,P|292:338|288:304,1,76.5000014591217,10|0,0:2|1:2,0:0:0:0:
449,239,53639,2,0,P|441:276|424:310,1,76.5000014591217,10|0,0:2|1:2,0:0:0:0:
325,216,53973,1,2,0:2:0:0:
425,143,54139,1,2,1:2:0:0:
322,93,54306,2,0,L|242:104,1,76.5000014591217,2|0,0:2|1:2,0:0:0:0:
153,177,54639,1,8,0:2:0:0:
153,177,54723,1,8,0:2:0:0:
153,177,54806,5,0,1:2:0:0:
141,49,54973,1,2,0:2:0:0:
43,147,55139,2,0,L|-7:159,3,45,10|0|0|0,0:2|1:2|1:2|1:2,0:0:0:0:
95,257,55473,2,0,L|145:269,3,45,2|0|8|0,1:2|1:2|0:2|1:2,0:0:0:0:
31,373,55806,1,2,1:2:0:0:
31,373,55889,1,0,1:2:0:0:
31,373,55973,2,0,L|27:320,1,45,2|0,1:2|1:2,0:0:0:0:
135,356,56139,6,0,L|185:346,1,45,10|0,0:2|1:2,0:0:0:0:
258,289,56306,2,0,L|308:299,3,45,2|0|2|0,1:2|1:2|1:2|1:2,0:0:0:0:
206,213,56639,2,0,L|194:158,1,45,10|0,0:2|1:2,0:0:0:0:
279,105,56806,2,0,L|291:50,1,45,2|0,1:2|1:2,0:0:0:0:
391,25,56973,2,0,L|446:37,1,45,2|0,1:2|1:2,0:0:0:0:
490,105,57139,1,8,0:2:0:0:
498,135,57223,1,0,1:2:0:0:
497,166,57305,1,0,1:2:0:0:
488,196,57389,1,0,1:2:0:0:
471,223,57473,5,0,1:2:0:0:
370,110,57639,1,10,0:2:0:0:
333,239,57806,2,0,L|359:337,1,90,10|0,0:2|1:2,0:0:0:0:
200,377,58139,2,0,L|226:279,1,90,10|0,0:2|1:2,0:0:0:0:
204,168,58473,1,2,1:2:0:0:
31,355,58639,1,6,1:2:0:0:
31,355,59139,6,0,L|11:281,1,67.5000025749208,2|0,0:2|0:2,0:0:0:0:
125,191,59473,2,0,L|107:256,1,67.5000025749208,2|0,0:2|0:2,0:0:0:0:
214,346,59806,2,0,L|194:272,1,67.5000025749208,2|0,0:2|0:2,0:0:0:0:
264,108,60139,6,0,B|388:79|339:170|462:138,1,198.000006042481,4|8,1:2|0:2,0:0:0:0:
345,322,60639,1,8,0:2:0:0:
345,322,60723,1,8,0:2:0:0:
345,322,60806,1,2,1:2:0:0:
294,186,60973,1,0,1:2:0:0:
462,258,61139,2,0,L|442:363,1,99.0000030212403,8|0,0:2|1:2,0:0:0:0:
248,274,61473,6,0,L|49:253,1,198.000006042481,2|10,1:2|0:2,0:0:0:0:
0,97,61973,1,10,0:2:0:0:
0,97,62056,1,8,0:2:0:0:
0,97,62139,1,0,1:2:0:0:
175,187,62306,1,0,1:2:0:0:
115,0,62473,2,0,L|96:101,1,99.0000030212403,10|0,0:2|1:2,0:0:0:0:
273,161,62806,6,0,B|346:139|346:139|410:197|477:146,1,198.000006042481,2|10,1:2|0:2,0:0:0:0:
282,16,63306,1,10,0:2:0:0:
282,16,63389,1,8,0:2:0:0:
282,16,63473,1,0,1:2:0:0:
454,67,63639,1,2,1:2:0:0:
273,127,63806,2,0,L|172:106,1,99.0000030212403,10|0,0:2|1:2,0:0:0:0:
31,5,64139,5,0,0:2:0:0:
76,166,64306,1,0,1:2:0:0:
185,25,64473,2,0,P|237:12|291:18,1,99.0000030212403,10|0,0:2|1:2,0:0:0:0:
450,159,64806,2,0,P|400:162|353:149,1,99.0000030212403,2|0,0:2|1:2,0:0:0:0:
202,289,65139,2,0,P|254:276|308:282,1,99.0000030212403,10|0,0:2|1:2,0:0:0:0:
83,381,65473,6,0,B|63:336|63:336|89:171,1,198.000006042481,6|8,1:2|0:2,0:0:0:0:
274,120,65973,1,10,0:2:0:0:
274,120,66056,1,8,0:2:0:0:
274,120,66139,1,0,1:2:0:0:
202,289,66306,1,0,1:2:0:0:
140,113,66473,2,0,L|32:101,1,99.0000030212403,10|0,0:2|1:2,0:0:0:0:
202,289,66806,6,0,P|295:326|388:250,1,198.000006042481,2|8,1:2|0:2,0:0:0:0:
426,105,67306,1,10,0:2:0:0:
426,105,67389,1,8,0:2:0:0:
426,105,67473,1,2,1:2:0:0:
476,258,67639,1,0,1:2:0:0:
284,191,67806,2,0,L|391:180,1,99.0000030212403,8|2,0:2|1:2,0:0:0:0:
214,33,68139,6,0,P|194:96|189:141,1,99.0000030212403,14|2,0:2|1:2,0:0:0:0:
232,285,68473,1,2,1:2:0:0:
64,51,68639,2,0,P|84:114|89:159,1,99.0000030212403,14|2,0:2|1:2,0:0:0:0:
38,324,68973,1,0,1:2:0:0:
189,128,69139,2,0,P|169:191|164:236,1,99.0000030212403,14|2,0:2|1:2,0:0:0:0:
352,217,69473,6,0,L|249:201,1,99.0000030212403,10|2,0:2|1:2,0:0:0:0:
104,371,69806,2,0,L|207:355,1,99.0000030212403,8|2,0:2|1:2,0:0:0:0:
413,328,70139,1,8,0:2:0:0:
435,301,70222,1,0,1:2:0:0:
450,270,70305,1,0,1:0:0:0:
457,236,70389,1,0,1:0:0:0:
453,202,70472,1,8,0:2:0:0:
440,169,70556,1,0,1:2:0:0:
420,142,70638,1,0,1:2:0:0:
393,121,70723,1,0,1:2:0:0:
361,108,70806,6,0,B|237:79|286:170|163:138,1,198.000006042481,6|8,1:2|0:2,0:0:0:0:
33,23,71306,1,8,0:2:0:0:
33,23,71389,1,8,0:2:0:0:
33,23,71473,1,2,1:2:0:0:
66,202,71639,1,0,1:2:0:0:
156,46,71806,2,0,L|253:29,1,99.0000030212403,8|0,0:2|1:2,0:0:0:0:
467,109,72139,6,0,B|405:94|405:94|357:142|273:141,1,198.000006042481,2|10,1:2|0:2,0:0:0:0:
159,293,72639,1,10,0:2:0:0:
159,293,72723,1,8,0:2:0:0:
159,293,72806,1,0,1:2:0:0:
339,258,72973,1,0,1:2:0:0:
192,127,73139,2,0,L|220:226,1,99.0000030212403,10|0,0:2|1:2,0:0:0:0:
330,363,73473,6,0,B|294:380|248:325|248:325|209:386|128:382,1,198.000006042481,2|10,1:2|0:2,0:0:0:0:
0,296,73973,1,10,0:2:0:0:
0,296,74056,1,8,0:2:0:0:
0,296,74139,1,0,1:2:0:0:
173,221,74306,1,2,1:2:0:0:
2,149,74473,1,10,0:0:0:0:
149,62,74639,6,0,L|250:47,1,99.0000030212403,4|0,1:2|0:2,0:0:0:0:
395,124,74973,1,0,1:2:0:0:
246,282,75139,2,0,P|266:224|262:178,1,99.0000030212403,10|0,0:2|1:2,0:0:0:0:
426,354,75473,2,0,P|406:296|410:250,1,99.0000030212403,2|0,0:2|1:2,0:0:0:0:
314,364,75806,1,10,0:2:0:0:
267,379,75889,1,8,0:2:0:0:
218,374,75972,1,8,0:2:0:0:
176,349,76055,1,8,0:2:0:0:
148,309,76139,6,0,L|127:202,1,99.0000030212403,10|0,0:2|0:2,0:0:0:0:
246,47,76473,2,0,L|225:154,1,99.0000030212403,8|2,0:2|0:2,0:0:0:0:
29,166,76806,1,10,0:2:0:0:
140,48,76973,1,0,1:2:0:0:
128,211,77139,1,8,0:2:0:0:
51,69,77306,1,2,1:2:0:0:
226,144,77473,6,0,L|330:132,1,99.0000030212403,10|0,0:2|0:2,0:0:0:0:
468,293,77806,2,0,L|364:281,1,99.0000030212403,8|2,0:2|1:2,0:0:0:0:
215,352,78139,1,10,0:2:0:0:
317,211,78306,1,0,1:2:0:0:
323,374,78473,1,8,0:2:0:0:
222,244,78639,1,0,1:2:0:0:
121,374,78806,6,0,L|103:272,1,99.0000030212403,10|0,0:2|0:2,0:0:0:0:
239,146,79139,2,0,L|221:248,1,99.0000030212403,8|0,0:2|0:2,0:0:0:0:
323,374,79473,1,8,0:2:0:0:
421,244,79639,1,0,1:2:0:0:
269,310,79806,1,8,0:2:0:0:
455,340,79973,1,2,1:2:0:0:
332,210,80139,6,0,L|319:98,1,99.0000030212403,10|0,0:2|0:2,0:0:0:0:
486,12,80473,2,0,L|473:124,1,99.0000030212403,10|2,0:2|1:2,0:0:0:0:
421,244,80806,1,8,0:2:0:0:
400,99,80973,1,2,1:2:0:0:
505,198,81139,1,8,0:2:0:0:
332,179,81306,1,0,1:2:0:0:
421,346,81473,6,0,L|322:338,1,90,2|0,1:2|0:0,0:0:0:0:
197,270,81806,2,0,L|296:262,1,90,0|0,1:2|0:2,0:0:0:0:
421,244,82139,1,10,0:2:0:0:
332,179,82306,1,0,1:2:0:0:
452,123,82473,1,0,1:2:0:0:
351,69,82639,1,8,0:2:0:0:
245,116,82806,6,0,L|226:25,1,90,2|8,1:2|0:2,0:0:0:0:
91,0,83139,2,0,L|72:91,1,90,0|0,1:2|1:2,0:0:0:0:
108,207,83473,1,10,0:2:0:0:
226,149,83639,2,0,L|411:140,1,180,0|8,1:2|0:2,0:0:0:0:
483,301,84139,6,0,P|442:273|278:292,1,180,2|0,1:2|1:2,0:0:0:0:
252,369,84639,1,8,0:2:0:0:
218,193,84806,2,0,L|235:287,1,90,10|8,0:2|0:2,0:0:0:0:
323,93,85139,2,0,L|306:187,1,90,0|8,0:0|0:2,0:0:0:0:
153,107,85473,6,0,P|217:86|275:97,1,90,2|8,1:2|0:2,0:0:0:0:
127,218,85806,2,0,P|82:215|41:197,1,90,0|8,1:2|0:2,0:0:0:0:
233,278,86139,2,0,L|338:247,1,90,2|8,1:2|0:2,0:0:0:0:
479,363,86473,2,0,L|392:337,1,90,0|8,1:2|0:2,0:0:0:0:
395,194,86806,5,2,0:0:0:0:
256,192,86889,12,0,88306,0:0:0:0:
