osu file format v14

[General]
AudioFilename: audio.mp3
AudioLeadIn: 0
PreviewTime: 58973
Countdown: 0
SampleSet: Soft
StackLeniency: 0.4
Mode: 0
LetterboxInBreaks: 0
WidescreenStoryboard: 0

[Editor]
DistanceSpacing: 1
BeatDivisor: 4
GridSize: 32
TimelineZoom: 2

[Metadata]
Title:Nounai (TV Size)
TitleUnicode:脳内 (TV Size)
Artist:Lenny code fiction
ArtistUnicode:Lenny code fiction
Creator:HakuYT
Version:Hazu's Easy
Source:炎炎ノ消防隊
Tags:In My Head brigade of flames fire force ending 2 japanese rock Enen no Shouboutai anime hazu-
BeatmapID:2264781
BeatmapSetID:1077803

[Difficulty]
HPDrainRate:2
CircleSize:3
OverallDifficulty:2
ApproachRate:3
SliderMultiplier:0.9
SliderTickRate:1

[Events]
//Background and Video events
Video,110,"nounai.mp4"
0,0,"BG1.jpg",0,0
//Break Periods
//Storyboard Layer 0 (Background)
//Storyboard Layer 1 (Fail)
//Storyboard Layer 2 (Pass)
//Storyboard Layer 3 (Foreground)
//Storyboard Layer 4 (Overlay)
//Storyboard Sound Samples

[TimingPoints]
140,333.333333333333,4,2,1,60,1,0
140,-100,4,2,1,60,0,0
3139,-100,4,2,1,70,0,0
4139,-100,4,2,1,70,0,0
5473,-100,4,2,1,70,0,0
6806,-100,4,2,1,70,0,0
9473,-100,4,2,1,70,0,0
14806,-100,4,2,1,70,0,0
17473,-100,4,2,1,70,0,0
25473,-100,4,2,1,65,0,0
33473,-100,4,2,1,70,0,0
35973,-100,4,2,1,70,0,0
46806,-100,4,2,1,65,0,0
52139,-100,4,2,1,65,0,0
54806,-100,4,2,1,70,0,0
58639,-100,4,2,1,70,0,0
60139,-100,4,2,1,80,0,1
70139,-100,4,2,1,80,0,0
70806,-100,4,2,1,80,0,1
75806,-100,4,2,1,80,0,0
76139,-100,4,2,1,80,0,1
81473,-100,4,2,1,70,0,0
86806,-100,4,2,1,50,0,0
88306,-100,4,2,1,5,0,0

[Colours]
Combo1 : 170,255,255
Combo2 : 255,173,91
Combo3 : 255,138,138
Combo4 : 255,255,170

[HitObjects]
311,63,3139,6,0,P|254:75|198:87,2,90,2|2|2,0:2|0:2|0:2,0:0:0:0:
398,83,4139,2,0,P|441:167|414:250,1,180,6|0,1:2|0:0,0:0:0:0:
354,308,5139,1,8,0:2:0:0:
273,266,5473,2,0,P|212:280|106:303,2,135,6|0|8,1:2|0:0|0:3,0:0:0:0:
346,213,6806,6,0,P|407:227|513:250,2,135,10|10|10,0:2|0:2|0:2,0:0:0:0:
269,165,8139,1,8,0:2:0:0:
204,228,8473,2,0,P|215:278|226:330,2,90,10|10|10,0:2|0:2|0:2,0:0:0:0:
114,214,9473,6,0,P|80:137|147:37,1,180,10|2,0:2|1:2,0:0:0:0:
201,20,10473,1,8,0:2:0:0:
266,81,10806,2,0,B|345:65|326:128|425:93,2,135,10|10|8,0:2|0:2|0:2,0:0:0:0:
206,148,12139,2,0,B|127:132|146:195|47:160,2,135,10|2|2,0:2|1:2|1:2,0:0:0:0:
429,293,14806,6,0,L|415:223,2,45,8|8|8,0:2|0:2|0:2,0:0:0:0:
83,91,17473,6,0,L|97:161,2,45,8|8|8,0:2|0:2|0:2,0:0:0:0:
474,193,19306,2,0,P|503:257|460:340,1,135,8|8,0:2|1:3,0:0:0:0:
412,369,20139,5,8,0:2:0:0:
336,318,20473,2,0,P|322:249|301:146,1,135,8|8,0:2|0:2,0:0:0:0:
219,172,21306,2,0,P|230:228|241:286,1,90,8|8,0:2|0:2,0:0:0:0:
170,321,21973,1,8,0:2:0:0:
92,274,22306,2,0,P|87:249|83:229,1,45,8|12,0:2|0:2,0:0:0:0:
24,161,22806,5,8,0:2:0:0:
83,93,23139,2,0,P|166:81|231:133,1,135,8|8,0:2|0:2,0:0:0:0:
268,172,23973,2,0,P|315:177|362:147,1,90,6|6,1:2|1:2,0:0:0:0:
385,74,24639,1,6,1:2:0:0:
456,128,24973,2,0,P|473:208|491:297,1,135,8|0,0:0|1:2,0:0:0:0:
428,330,25806,6,0,P|365:315|311:303,1,90,2|2,1:2|1:2,0:0:0:0:
253,332,26473,1,2,1:2:0:0:
169,364,26805,2,0,P|106:349|52:337,1,90,2|2,1:2|1:2,0:0:0:0:
23,274,27473,2,0,P|12:227|-5:159,1,90,0|0,1:2|1:2,0:0:0:0:
62,119,28139,6,0,P|51:72|34:4,2,90,0|2|2,1:2|1:2|1:2,0:0:0:0:
139,165,29139,1,2,1:2:0:0:
167,79,29473,2,0,P|232:71|288:101,1,90,2|2,1:2|1:2,0:0:0:0:
278,164,30139,2,0,P|321:172|365:162,1,90,0|0,1:2|1:2,0:0:0:0:
419,90,30806,5,0,1:2:0:0:
486,148,31139,2,0,P|476:194|463:250,1,90,2|2,1:2|1:2,0:0:0:0:
496,321,31806,1,2,1:2:0:0:
416,363,32139,2,0,P|359:371|279:322,2,135,2|10|8,1:2|0:3|0:3,0:0:0:0:
496,321,33473,6,0,P|485:277|476:233,1,90,8|8,0:2|0:2,0:0:0:0:
403,180,34139,1,10,0:2:0:0:
279,234,34639,2,0,P|210:220|134:204,1,135,6|8,1:2|0:2,0:0:0:0:
58,188,35473,1,10,0:2:0:0:
70,322,35973,6,0,P|139:336|215:352,1,135,4|10,1:2|0:2,0:0:0:0:
289,370,36806,1,2,1:2:0:0:
402,296,37306,2,0,P|414:219|362:157,1,135,2|10,1:2|0:2,0:0:0:0:
310,124,38139,6,0,P|298:201|350:263,2,135,0|2|8,1:2|1:2|0:2,0:0:0:0:
387,77,39473,1,0,1:2:0:0:
262,24,39973,2,0,P|210:39|117:63,1,135,2|8,1:2|0:2,0:0:0:0:
48,92,40806,1,2,1:2:0:0:
148,181,41306,6,0,P|213:197|278:216,1,135,4|10,1:2|0:2,0:0:0:0:
323,294,42139,2,0,P|388:277|453:258,2,135,2|2|8,1:2|1:2|0:2,0:0:0:0:
265,363,43473,1,0,1:2:0:0:
141,307,43973,6,0,P|115:254|150:162,1,135,2|10,1:2|0:2,0:0:0:0:
200,125,44806,1,0,1:2:0:0:
327,169,45306,2,0,P|353:222|318:314,1,135,2|8,1:2|0:2,0:0:0:0:
259,338,46139,2,0,P|214:327|157:314,1,90,8|10,0:2|0:2,0:0:0:0:
90,356,46806,6,0,P|72:267|54:191,1,135,6|2,1:2|0:2,0:0:0:0:
97,140,47639,1,2,0:2:0:0:
178,179,47973,2,0,B|278:156|253:236|356:213,1,180,2|2,0:2|0:2,0:0:0:0:
378,130,48973,1,2,0:2:0:0:
465,151,49306,6,0,P|510:206|470:323,1,180,2|2,0:2|0:2,0:0:0:0:
413,354,50306,1,2,0:2:0:0:
354,286,50639,2,0,B|216:255|216:255|158:283,1,180,2|2,0:2|0:2,0:0:0:0:
129,345,51639,2,0,P|106:348|73:340,1,45,2|2,0:2|0:2,0:0:0:0:
36,269,52139,6,0,P|29:213|53:158,1,90,8|10,0:2|0:2,0:0:0:0:
98,114,52806,1,0,1:2:0:0:
194,207,53306,2,0,P|260:224|314:239,1,90,10|10,0:2|0:2,0:0:0:0:
315,312,53973,2,0,P|383:299|466:286,1,135,2|0,0:2|1:2,0:0:0:0:
493,210,54806,5,0,1:2:0:0:
421,155,55139,2,0,P|353:168|304:177,1,90,10|2,0:2|1:2,0:0:0:0:
246,146,55806,1,2,1:2:0:0:
162,113,56139,2,0,P|94:126|45:135,1,90,10|2,0:2|1:2,0:0:0:0:
62,219,56806,2,0,P|130:206|179:197,1,90,2|8,1:2|0:2,0:0:0:0:
224,252,57473,6,0,P|268:244|312:236,2,90,0|10|10,1:2|0:2|0:2,0:0:0:0:
165,320,58473,2,0,P|157:342|150:362,1,45,2|6,1:2|1:2,0:0:0:0:
52,268,59139,2,0,P|40:212|70:151,2,90,2|2|2,0:2|0:2|0:2,0:0:0:0:
129,221,60139,6,0,B|229:198|204:278|307:255,1,180,4|2,1:2|1:2,0:0:0:0:
375,210,61139,1,8,0:2:0:0:
297,164,61473,2,0,P|286:107|269:19,2,135,2|10|10,1:2|0:2|0:2,0:0:0:0:
227,221,62806,6,0,P|214:287|201:353,2,135,2|10|10,1:2|0:2|0:2,0:0:0:0:
177,145,64139,1,0,0:2:0:0:
109,204,64473,2,0,P|96:270|86:320,2,90,10|2|10,0:2|0:2|0:2,0:0:0:0:
33,155,65473,6,0,P|14:92|55:13,2,135,6|10|10,1:2|0:2|0:2,0:0:0:0:
109,204,66806,2,0,B|209:181|184:261|287:238,1,180,2|2,1:2|1:2,0:0:0:0:
321,160,67806,1,8,0:2:0:0:
400,202,68139,2,0,B|419:247|419:247|387:358,2,135,14|14|14,0:2|0:2|0:2,0:0:0:0:
321,160,69473,2,0,B|261:151|261:151|203:178|203:178|134:167,1,180,10|8,0:2|0:2,0:0:0:0:
91,99,70473,1,8,0:2:0:0:
13,145,70806,6,0,P|-9:230|51:311,1,180,6|2,1:2|1:2,0:0:0:0:
122,334,71806,1,8,0:2:0:0:
186,271,72139,2,0,P|259:254|333:302,2,135,2|10|10,1:2|0:2|0:2,0:0:0:0:
133,197,73473,2,0,P|60:214|-14:166,2,135,2|10|10,1:2|0:2|0:0,0:0:0:0:
188,125,74806,1,0,0:2:0:0:
265,171,75139,2,0,P|277:224|289:279,2,90,10|2|10,0:2|0:2|0:2,0:0:0:0:
334,113,76139,6,0,P|324:69|314:25,1,90,10|8,0:2|0:2,0:0:0:0:
402,7,76806,2,0,P|411:50|421:94,1,90,10|8,0:2|0:2,0:0:0:0:
493,149,77473,1,10,0:2:0:0:
510,237,77806,1,8,0:2:0:0:
434,285,78139,2,0,P|386:275|322:262,1,90,10|8,0:2|0:2,0:0:0:0:
264,306,78806,6,0,P|216:296|152:283,2,90,10|8|8,0:2|0:2|0:2,0:0:0:0:
329,367,79806,1,8,0:2:0:0:
407,323,80139,2,0,P|414:272|393:224,1,90,10|10,0:2|0:2,0:0:0:0:
326,186,80806,2,0,P|319:135|340:87,1,90,8|8,0:2|0:2,0:0:0:0:
408,53,81473,5,2,1:2:0:0:
486,96,81806,2,0,P|476:144|461:223,1,90,0|10,1:2|0:2,0:0:0:0:
415,257,82473,1,0,1:2:0:0:
349,195,82806,2,0,P|308:183|246:199,1,90,2|0,1:2|1:2,0:0:0:0:
213,266,83473,2,0,P|169:273|126:261,1,90,10|0,0:2|0:0,0:0:0:0:
75,187,84139,5,2,1:2:0:0:
139,124,84473,2,0,P|131:76|120:27,1,90,0|10,1:2|0:2,0:0:0:0:
212,34,85139,1,0,0:0:0:0:
270,102,85473,2,0,P|330:120|367:132,1,90,2|0,1:2|1:2,0:0:0:0:
396,208,86139,2,0,P|336:226|299:238,1,90,2|0,1:2|1:2,0:0:0:0:
261,310,86806,5,2,0:0:0:0:
