osu file format v14

[General]
AudioFilename: audio.mp3
AudioLeadIn: 0
PreviewTime: 58973
Countdown: 0
SampleSet: Soft
StackLeniency: 0.4
Mode: 0
LetterboxInBreaks: 0
WidescreenStoryboard: 1

[Editor]
DistanceSpacing: 1.2
BeatDivisor: 4
GridSize: 32
TimelineZoom: 2

[Metadata]
Title:Nounai (TV Size)
TitleUnicode:脳内 (TV Size)
Artist:Lenny code fiction
ArtistUnicode:Lenny code fiction
Creator:HakuYT
Version:Hard
Source:炎炎ノ消防隊
Tags:In My Head brigade of flames fire force ending 2 japanese rock Enen no Shouboutai anime hazu-
BeatmapID:2258197
BeatmapSetID:1077803

[Difficulty]
HPDrainRate:4
CircleSize:3
OverallDifficulty:6
ApproachRate:7.5
SliderMultiplier:1.5
SliderTickRate:1

[Events]
//Background and Video events
Video,110,"nounai.mp4"
0,0,"BG1.jpg",0,0
//Break Periods
//Storyboard Layer 0 (Background)
//Storyboard Layer 1 (Fail)
//Storyboard Layer 2 (Pass)
//Storyboard Layer 3 (Foreground)
//Storyboard Layer 4 (Overlay)
//Storyboard Sound Samples

[TimingPoints]
140,333.333333333333,4,2,1,60,1,0
140,-133.333333333333,4,2,1,60,0,0
2806,-133.333333333333,4,2,1,5,0,0
3139,-133.333333333333,4,2,1,70,0,0
4139,-100,4,2,1,70,0,0
5473,-100,4,2,1,70,0,0
6806,-100,4,2,1,70,0,0
9473,-100,4,2,1,70,0,0
14806,-100,4,2,1,70,0,0
17473,-100,4,2,1,70,0,0
25473,-133.333333333333,4,2,1,65,0,0
33473,-100,4,2,1,70,0,0
35973,-117.647058823529,4,2,1,70,0,0
46806,-133.333333333333,4,2,1,65,0,0
52139,-117.647058823529,4,2,1,65,0,0
54806,-100,4,2,1,70,0,0
58639,-133.333333333333,4,2,1,70,0,0
60139,-90.9090909090909,4,2,1,80,0,1
62723,-90.9090909090909,4,2,1,5,0,1
62806,-90.9090909090909,4,2,1,80,0,1
70139,-90.9090909090909,4,2,1,80,0,0
70806,-90.9090909090909,4,2,1,80,0,1
73389,-90.9090909090909,4,2,1,5,0,1
73472,-90.9090909090909,4,2,1,80,0,1
75806,-90.9090909090909,4,2,1,80,0,0
76139,-90.9090909090909,4,2,1,80,0,1
81473,-100,4,2,1,70,0,0
86806,-133.333333333333,4,2,1,50,0,0
88306,-133.333333333333,4,2,1,5,0,0

[Colours]
Combo1 : 170,255,255
Combo2 : 255,173,91
Combo3 : 255,138,138
Combo4 : 255,255,170

[HitObjects]
256,192,473,12,0,2806,0:0:0:0:
444,85,3139,6,0,L|369:76,1,56.2500021457673,2|0,0:2|0:2,0:0:0:0:
321,147,3473,2,0,L|246:138,1,56.2500021457673,2|0,0:2|0:2,0:0:0:0:
199,70,3806,2,0,L|124:79,1,56.2500021457673,2|0,0:2|0:2,0:0:0:0:
54,116,4139,1,6,1:2:0:0:
232,250,4973,5,8,0:2:0:0:
232,250,5056,1,8,0:2:0:0:
232,250,5139,2,0,L|224:295,3,37.5,8|8|8|8,0:2|0:2|0:2|0:2,0:0:0:0:
215,335,5473,1,6,1:2:0:0:
388,171,6139,6,0,L|454:159,3,37.5,8|8|8|8,0:3|0:3|0:3|0:3,0:0:0:0:
474,157,6473,1,8,0:3:0:0:
429,70,6639,1,0,1:2:0:0:
429,70,6723,1,0,1:2:0:0:
429,70,6806,6,0,P|359:55|324:59,1,75,10|0,0:2|1:2,0:0:0:0:
270,102,7139,1,2,1:2:0:0:
192,42,7306,2,0,P|122:27|87:31,1,75,10|0,0:2|1:2,0:0:0:0:
47,93,7639,1,2,1:2:0:0:
102,173,7806,2,0,L|117:254,1,75,10|0,0:2|1:2,0:0:0:0:
174,324,8139,5,8,0:2:0:0:
246,258,8306,1,0,1:2:0:0:
313,328,8473,2,0,L|391:318,1,75,10|0,0:2|1:2,0:0:0:0:
425,228,8806,2,0,L|347:218,1,75,10|0,0:2|1:2,0:0:0:0:
298,135,9139,2,0,L|376:125,1,75,10|0,0:2|1:2,0:0:0:0:
432,48,9473,6,0,B|389:25|389:25|287:36,1,150,10|0,0:2|1:2,0:0:0:0:
190,30,9973,2,0,L|215:183,1,150,8|0,0:2|1:2,0:0:0:0:
269,258,10473,1,8,0:2:0:0:
233,348,10639,1,2,1:2:0:0:
137,370,10806,6,0,P|88:362|50:277,1,150,10|2,0:2|1:2,0:0:0:0:
52,178,11306,2,0,L|32:29,1,150,10|0,0:2|1:2,0:0:0:0:
125,2,11806,1,8,0:2:0:0:
178,83,11973,1,2,0:2:0:0:
202,172,12139,6,0,L|260:159,3,37.5,10|0|2|0,0:2|1:2|1:2|1:2,0:0:0:0:
274,129,12473,2,0,L|332:116,3,37.5,10|0|2|0,0:2|0:0|1:2|1:2,0:0:0:0:
349,90,12806,2,0,L|407:77,3,37.5,8|0|0|0,0:2|1:2|1:2|1:2,0:0:0:0:
421,47,13139,2,0,L|479:34,3,37.5,10|0|2|0,0:2|1:2|1:2|1:2,0:0:0:0:
505,25,13473,5,2,0:0:0:0:
505,25,14806,6,8,L|485:116,1,75,8|8,0:2|0:2,0:0:0:0:
464,192,15139,1,8,0:2:0:0:
464,192,17473,6,8,L|444:101,1,75,8|8,0:2|0:2,0:0:0:0:
423,25,17806,1,8,0:2:0:0:
423,25,19306,5,8,0:2:0:0:
294,161,19639,6,0,L|311:248,1,75,0|8,1:2|1:3,0:0:0:0:
435,332,20139,6,0,L|484:335,3,37.5,8|8|8|8,0:2|0:2|0:2|0:2,0:0:0:0:
512,337,20473,1,8,0:2:0:0:
450,144,20806,5,0,1:2:0:0:
369,89,20973,2,0,P|309:80|275:83,1,75,8|0,0:2|1:2,0:0:0:0:
219,143,21306,2,0,P|159:152|125:149,1,75,8|0,0:2|1:2,0:0:0:0:
66,92,21639,2,0,L|50:182,1,75,8|0,0:2|1:2,0:0:0:0:
115,241,21973,2,0,L|131:331,1,75,8|0,0:2|1:2,0:0:0:0:
213,362,22306,1,8,0:2:0:0:
213,362,22473,1,12,0:2:0:0:
350,223,22806,6,0,L|413:209,3,37.5,8|8|8|8,0:2|0:2|0:2|0:2,0:0:0:0:
433,202,23139,1,8,0:2:0:0:
274,87,23473,5,0,1:2:0:0:
208,158,23639,2,0,L|198:239,1,75,0|8,1:2|0:2,0:0:0:0:
171,326,23973,1,6,1:2:0:0:
42,179,24306,5,6,1:2:0:0:
186,47,24639,5,6,1:2:0:0:
274,87,24806,2,0,L|344:94,3,37.5,8|8|8|8,0:0|0:0|0:0|0:0,0:0:0:0:
353,115,25139,2,0,L|423:108,3,37.5,8|8|8|8,0:0|0:0|0:0|0:0,0:0:0:0:
425,121,25473,6,0,L|434:197,1,56.2500021457673,0|2,1:2|0:2,0:0:0:0:
384,260,25806,2,0,L|375:336,1,56.2500021457673,2|0,1:2|0:2,0:0:0:0:
285,358,26139,1,2,1:2:0:0:
208,291,26306,1,2,0:2:0:0:
126,351,26473,2,0,L|60:353,1,56.2500021457673,2|2,1:2|0:2,0:0:0:0:
28,260,26806,6,0,P|16:209|38:129,1,112.500004291535,2|2,1:2|1:2,0:0:0:0:
90,72,27306,2,0,L|154:54,1,56.2500021457673,2|0,0:2|1:2,0:0:0:0:
239,21,27639,2,0,L|303:39,1,56.2500021457673,2|0,0:2|1:2,0:0:0:0:
380,89,27973,1,8,0:2:0:0:
380,89,28056,1,8,0:2:0:0:
380,89,28139,6,0,L|369:158,1,56.2500021457673,0|2,1:2|0:2,0:0:0:0:
301,218,28473,2,0,L|232:207,1,56.2500021457673,2|2,1:2|0:2,0:0:0:0:
175,136,28806,1,2,1:2:0:0:
109,213,28973,1,2,0:2:0:0:
138,309,29139,2,0,P|188:322|215:320,1,56.2500021457673,2|0,1:2|0:2,0:0:0:0:
290,349,29473,6,0,P|340:336|367:338,1,56.2500021457673,2|0,1:2|0:2,0:0:0:0:
444,353,29806,1,2,1:2:0:0:
464,253,29973,2,0,L|456:185,1,56.2500021457673,2|0,0:2|1:2,0:0:0:0:
387,123,30306,2,0,L|395:55,1,56.2500021457673,10|0,0:2|1:2,0:0:0:0:
302,21,30639,1,8,0:2:0:0:
302,21,30723,1,8,0:2:0:0:
302,21,30806,6,0,P|252:11|234:14,1,56.2500021457673,0|2,1:2|0:2,0:0:0:0:
164,70,31139,2,0,L|157:134,1,56.2500021457673,2|2,1:2|0:2,0:0:0:0:
225,202,31473,2,0,L|232:266,1,56.2500021457673,2|0,1:2|0:2,0:0:0:0:
166,336,31806,1,2,1:2:0:0:
71,298,31973,1,2,0:2:0:0:
35,203,32139,6,0,P|26:159|28:121,1,56.2500021457673,2|8,1:2|0:2,0:0:0:0:
80,61,32473,1,2,1:2:0:0:
157,125,32639,2,0,L|237:110,1,56.2500021457673,10|0,0:3|1:2,0:0:0:0:
290,49,32973,2,0,L|370:64,1,56.2500021457673,10|8,0:3|0:3,0:0:0:0:
423,124,33306,1,2,1:2:0:0:
358,197,33473,6,0,L|346:280,1,75,8|2,0:2|1:2,0:0:0:0:
264,322,33806,2,0,L|252:239,1,75,8|2,0:2|1:2,0:0:0:0:
163,208,34139,2,0,L|111:201,3,37.5,10|0|0|0,0:2|1:2|1:2|1:2,0:0:0:0:
76,195,34473,1,10,0:2:0:0:
51,289,34639,6,0,P|80:331|180:337,1,150,6|2,1:2|1:2,0:0:0:0:
264,322,35139,2,0,P|321:310|348:309,1,75,8|2,0:2|1:2,0:0:0:0:
428,346,35473,1,10,0:2:0:0:
428,346,35639,1,8,0:2:0:0:
446,250,35806,1,10,0:2:0:0:
446,250,35973,6,0,P|455:208|438:115,1,127.50000243187,4|0,1:2|1:2,0:0:0:0:
355,84,36473,2,0,B|312:96|312:96|226:90,1,127.50000243187,10|2,0:2|1:2,0:0:0:0:
148,38,36973,1,2,1:2:0:0:
75,100,37139,1,10,0:2:0:0:
148,161,37306,6,0,L|157:229,1,63.7500012159348,2|0,1:2|0:2,0:0:0:0:
112,309,37639,1,2,0:2:0:0:
201,343,37806,2,0,P|243:349|324:312,1,127.50000243187,10|0,0:2|1:2,0:0:0:0:
356,228,38306,2,0,L|365:153,1,63.7500012159348,2|10,1:2|0:2,0:0:0:0:
438,104,38639,6,0,P|464:156|466:176,1,63.7500012159348,2|0,1:2|0:2,0:0:0:0:
487,254,38973,2,0,P|461:306|459:326,1,63.7500012159348,2|8,1:2|0:2,0:0:0:0:
382,367,39306,2,0,L|315:363,1,63.7500012159348,2|0,0:2|1:2,0:0:0:0:
232,320,39639,1,2,1:2:0:0:
146,363,39806,1,10,0:2:0:0:
96,280,39973,6,0,P|74:236|90:147,1,127.50000243187,2|2,1:2|1:2,0:0:0:0:
155,97,40473,2,0,L|226:80,1,63.7500012159348,8|2,0:2|0:2,0:0:0:0:
304,122,40806,1,2,1:2:0:0:
304,122,40973,1,10,0:2:0:0:
373,56,41139,1,8,0:2:0:0:
373,56,41306,6,0,P|401:110|398:182,1,127.50000243187,4|0,1:2|1:2,0:0:0:0:
338,248,41806,2,0,L|200:264,1,127.50000243187,10|2,0:2|1:2,0:0:0:0:
128,310,42306,1,2,1:2:0:0:
205,366,42473,1,10,0:2:0:0:
299,351,42639,6,0,L|384:340,1,63.7500012159348,2|0,1:2|0:2,0:0:0:0:
452,308,42973,1,2,1:2:0:0:
472,215,43139,2,0,P|479:164|444:86,1,127.50000243187,8|0,0:2|1:2,0:0:0:0:
361,60,43639,2,0,L|277:71,1,63.7500012159348,2|10,1:2|0:2,0:0:0:0:
226,132,43973,6,0,B|184:140|184:140|94:101,1,127.50000243187,2|2,1:2|1:2,0:0:0:0:
37,39,44473,1,10,0:2:0:0:
16,131,44639,2,0,L|23:208,1,63.7500012159348,2|0,0:2|1:2,0:0:0:0:
70,277,44973,1,2,1:2:0:0:
157,240,45139,1,10,0:2:0:0:
247,271,45306,6,0,L|392:259,1,127.50000243187,2|0,1:2|1:2,0:0:0:0:
454,208,45806,2,0,L|467:127,1,63.7500012159348,8|0,0:2|1:2,0:0:0:0:
389,85,46139,1,8,0:2:0:0:
389,85,46306,1,10,0:2:0:0:
328,159,46473,1,10,0:2:0:0:
328,159,46639,1,10,0:2:0:0:
249,103,46806,6,0,L|129:97,1,112.500004291535,6|2,1:2|0:2,0:0:0:0:
58,152,47306,2,0,P|46:202|44:274,1,112.500004291535,2|2,0:2|0:2,0:0:0:0:
116,324,47806,1,2,0:2:0:0:
200,279,47973,6,0,B|241:264|241:264|324:275,1,112.500004291535,2|2,0:2|0:2,0:0:0:0:
385,331,48473,1,2,0:2:0:0:
431,248,48639,2,0,P|452:202|444:132,1,112.500004291535,2|2,0:2|0:2,0:0:0:0:
371,83,49139,1,2,0:2:0:0:
288,130,49306,6,0,P|253:139|164:129,1,112.500004291535,2|2,0:2|0:2,0:0:0:0:
103,72,49806,1,2,0:2:0:0:
67,160,49973,2,0,L|57:230,1,56.2500021457673,2|0,0:2|0:0,0:0:0:0:
100,302,50306,2,0,P|135:312|172:313,1,56.2500021457673,2|0,0:2|0:2,0:0:0:0:
239,269,50639,6,0,P|274:259|311:258,1,56.2500021457673,2|0,0:2|0:2,0:0:0:0:
377,304,50973,1,2,0:2:0:0:
430,225,51139,1,2,0:2:0:0:
478,142,51306,2,0,L|467:77,1,56.2500021457673,2|0,0:2|0:2,0:0:0:0:
378,40,51639,1,2,0:2:0:0:
378,40,51806,1,2,0:2:0:0:
287,71,51973,1,2,0:2:0:0:
188,31,52139,6,0,L|122:23,2,63.7500012159348,8|10|10,0:2|0:2|0:2,0:0:0:0:
147,133,52639,2,0,P|155:180|159:219,1,63.7500012159348,2|0,0:2|1:2,0:0:0:0:
250,228,52973,2,0,P|254:196|259:165,1,63.7500012159348,2|0,0:2|1:2,0:0:0:0:
351,135,53306,6,0,L|428:125,1,63.7500012159348,10|0,0:2|1:2,0:0:0:0:
469,204,53639,2,0,L|459:281,1,63.7500012159348,10|0,0:2|1:2,0:0:0:0:
395,337,53973,1,2,0:2:0:0:
339,259,54139,1,2,1:2:0:0:
268,323,54306,2,0,L|182:329,1,63.7500012159348,2|0,0:2|1:2,0:0:0:0:
110,272,54639,1,8,0:2:0:0:
110,272,54723,1,8,0:2:0:0:
110,272,54806,5,0,1:2:0:0:
188,201,54973,1,2,1:2:0:0:
118,133,55139,2,0,P|106:94|107:56,1,75,10|0,0:2|1:2,0:0:0:0:
190,8,55473,1,2,1:2:0:0:
256,78,55639,2,0,L|334:66,1,75,8|2,0:2|1:2,0:0:0:0:
427,54,55973,1,2,1:2:0:0:
430,151,56139,6,0,L|439:208,3,37.5,10|0|2|0,0:2|1:2|1:2|1:2,0:0:0:0:
413,232,56473,2,0,L|404:289,3,37.5,2|0|10|0,1:2|1:2|0:2|1:2,0:0:0:0:
423,315,56806,2,0,L|432:372,3,37.5,2|0|2|0,1:2|1:2|1:2|1:2,0:0:0:0:
384,374,57139,2,0,L|327:383,3,37.5,8|0|0|0,0:2|1:2|1:2|1:2,0:0:0:0:
300,363,57473,5,0,1:2:0:0:
262,273,57639,1,10,0:2:0:0:
216,186,57806,2,0,L|129:194,1,75,10|0,0:2|1:2,0:0:0:0:
70,125,58139,2,0,P|59:87|64:45,1,75,10|0,0:2|1:2,0:0:0:0:
151,11,58473,1,2,1:2:0:0:
237,50,58639,1,6,1:2:0:0:
154,247,59139,6,0,L|137:174,1,56.2500021457673,2|0,0:2|0:2,0:0:0:0:
225,145,59473,2,0,L|295:147,1,56.2500021457673,2|0,0:2|0:2,0:0:0:0:
376,160,59806,2,0,L|393:233,1,56.2500021457673,2|0,0:2|0:2,0:0:0:0:
347,305,60139,6,0,P|303:332|267:339,1,82.5000025177003,4|0,1:2|0:0,0:0:0:0:
177,365,60473,2,0,P|137:354|103:331,1,82.5000025177003,8|8,0:2|0:2,0:0:0:0:
75,229,60806,1,2,1:2:0:0:
75,229,60973,1,0,1:2:0:0:
151,153,61139,2,0,L|234:141,1,82.5000025177003,8|0,0:2|1:2,0:0:0:0:
331,128,61473,6,0,P|337:62|329:33,1,82.5000025177003,2|0,1:2|0:0,0:0:0:0:
240,13,61806,2,0,P|174:7|145:15,1,82.5000025177003,10|10,0:2|0:2,0:0:0:0:
82,73,62139,1,0,1:2:0:0:
82,73,62306,1,0,1:2:0:0:
118,165,62473,2,0,L|97:309,1,123.75000377655,10|0,0:2|0:0,0:0:0:0:
96,328,62806,6,0,L|200:319,1,82.5000025177003,2|0,1:2|0:0,0:0:0:0:
267,276,63139,1,10,0:2:0:0:
338,344,63306,2,0,P|363:303|367:254,1,82.5000025177003,10|0,0:2|1:2,0:0:0:0:
318,183,63639,1,2,1:2:0:0:
378,104,63806,2,0,L|482:95,1,82.5000025177003,10|0,0:2|1:2,0:0:0:0:
492,190,64139,5,0,0:2:0:0:
463,286,64306,1,0,1:2:0:0:
368,269,64473,2,0,L|270:277,1,82.5000025177003,10|0,0:2|1:2,0:0:0:0:
210,210,64806,2,0,L|202:112,1,82.5000025177003,2|0,0:2|1:2,0:0:0:0:
128,62,65139,2,0,L|30:70,1,82.5000025177003,10|0,0:2|1:2,0:0:0:0:
19,165,65473,6,0,P|10:221|10:262,1,82.5000025177003,6|0,1:2|0:0,0:0:0:0:
78,318,65806,2,0,P|134:327|175:327,1,82.5000025177003,8|10,0:2|0:2,0:0:0:0:
249,284,66139,1,0,1:2:0:0:
249,284,66306,1,0,1:2:0:0:
339,323,66473,2,0,L|358:229,1,82.5000025177003,10|0,0:2|1:2,0:0:0:0:
323,148,66806,6,0,P|272:129|235:130,1,82.5000025177003,2|0,1:2|0:0,0:0:0:0:
185,49,67139,2,0,P|236:30|273:31,1,82.5000025177003,8|10,0:2|0:2,0:0:0:0:
360,54,67473,1,2,1:2:0:0:
360,54,67639,1,0,1:2:0:0:
434,119,67806,2,0,L|447:223,1,82.5000025177003,8|2,0:2|1:2,0:0:0:0:
411,294,68139,6,0,P|346:328|253:299,1,165.000005035401,14|2,0:2|1:2,0:0:0:0:
212,219,68639,2,0,P|147:185|54:214,1,165.000005035401,14|0,0:2|1:2,0:0:0:0:
90,302,69139,2,0,L|168:334,1,82.5000025177003,14|2,0:2|1:2,0:0:0:0:
261,305,69473,6,0,L|339:273,1,82.5000025177003,10|2,0:2|1:2,0:0:0:0:
421,221,69806,2,0,L|453:143,1,82.5000025177003,8|2,0:2|1:2,0:0:0:0:
376,81,70139,2,0,L|332:71,3,41.2500012588501,8|0|2|0,0:2|1:2|1:2|1:2,0:0:0:0:
293,97,70473,2,0,L|249:107,3,41.2500012588501,8|0|0|0,0:2|1:2|1:2|1:2,0:0:0:0:
206,88,70806,6,0,P|187:147|183:177,1,82.5000025177003,6|0,1:2|0:0,0:0:0:0:
247,243,71139,2,0,P|239:283|224:322,1,82.5000025177003,8|8,0:2|0:2,0:0:0:0:
130,353,71473,1,2,1:2:0:0:
130,353,71639,1,0,1:2:0:0:
68,275,71806,2,0,L|49:188,1,82.5000025177003,8|0,0:2|1:2,0:0:0:0:
86,102,72139,6,0,L|167:85,1,82.5000025177003,2|0,1:2|0:0,0:0:0:0:
259,49,72473,2,0,L|340:66,1,82.5000025177003,10|10,0:2|0:2,0:0:0:0:
415,130,72806,1,0,1:2:0:0:
415,130,72973,1,0,1:2:0:0:
346,201,73139,2,0,P|334:256|345:323,1,123.75000377655,10|0,0:2|0:0,0:0:0:0:
376,360,73473,6,0,L|279:369,1,82.5000025177003,2|0,1:2|0:0,0:0:0:0:
213,309,73806,1,10,0:2:0:0:
135,371,73973,2,0,L|38:380,1,82.5000025177003,10|0,0:2|1:2,0:0:0:0:
16,286,74306,1,2,1:2:0:0:
68,202,74473,2,0,L|165:211,1,82.5000025177003,10|4,0:0|1:2,0:0:0:0:
245,183,74806,5,0,0:2:0:0:
312,110,74973,1,0,1:2:0:0:
395,56,75139,2,0,P|449:53|487:63,1,82.5000025177003,10|0,0:2|1:2,0:0:0:0:
506,154,75473,2,0,P|509:208|499:246,1,82.5000025177003,2|0,0:2|1:2,0:0:0:0:
420,290,75806,2,0,L|357:304,3,41.2500012588501,10|8|8|8,0:2|0:2|0:2|0:0,0:0:0:0:
329,298,76139,6,0,L|220:287,1,82.5000025177003,10|0,0:2|0:2,0:0:0:0:
159,242,76473,2,0,L|50:253,1,82.5000025177003,8|2,0:2|0:2,0:0:0:0:
33,161,76806,2,0,P|35:116|143:56,1,165.000005035401,10|8,0:2|0:2,0:0:0:0:
209,106,77306,1,2,1:2:0:0:
209,106,77473,6,0,L|380:91,1,165.000005035401,10|8,0:2|0:2,0:0:0:0:
472,85,77973,1,2,1:2:0:0:
472,85,78139,2,0,L|461:174,1,82.5000025177003,10|0,0:2|1:2,0:0:0:0:
366,197,78473,2,0,L|377:286,1,82.5000025177003,8|0,0:2|1:2,0:0:0:0:
454,339,78806,6,0,P|412:368|289:341,1,165.000005035401,10|8,0:2|0:2,0:0:0:0:
222,297,79306,1,0,0:2:0:0:
137,348,79473,2,0,L|54:361,1,82.5000025177003,8|0,0:2|1:2,0:0:0:0:
31,264,79806,2,0,L|18:181,1,82.5000025177003,8|2,0:2|1:2,0:0:0:0:
51,89,80139,6,0,P|113:69|226:93,1,165.000005035401,10|10,0:2|0:2,0:0:0:0:
272,161,80639,2,0,L|360:143,1,82.5000025177003,2|8,1:2|0:2,0:0:0:0:
451,161,80973,2,0,L|433:249,1,82.5000025177003,2|8,1:2|0:2,0:0:0:0:
359,306,81306,1,0,1:2:0:0:
265,276,81473,6,0,P|203:259|96:282,2,150,2|0|10,1:2|1:2|0:2,0:0:0:0:
359,306,82306,1,0,1:2:0:0:
342,209,82473,2,0,L|321:106,1,75,0|8,1:2|0:2,0:0:0:0:
245,79,82806,6,0,L|142:100,1,75,2|8,1:2|0:2,0:0:0:0:
110,170,83139,2,0,L|7:149,1,75,0|0,1:2|1:2,0:0:0:0:
76,65,83473,1,10,0:2:0:0:
172,94,83639,2,0,P|196:139|191:242,1,150,0|8,1:2|0:2,0:0:0:0:
156,326,84139,6,0,L|256:341,1,75,2|0,1:2|0:2,0:0:0:0:
307,276,84473,2,0,L|407:261,1,75,0|8,1:2|0:2,0:0:0:0:
476,242,84806,2,0,L|491:142,1,75,10|8,0:2|0:2,0:0:0:0:
426,91,85139,1,0,0:0:0:0:
347,32,85306,6,0,P|299:37|265:50,1,75,8|2,0:2|1:2,0:0:0:0:
259,142,85639,1,8,0:2:0:0:
184,71,85806,2,0,P|148:59|110:57,1,75,0|8,1:2|0:2,0:0:0:0:
21,17,86139,2,0,P|7:72|12:113,1,75,2|8,1:2|0:2,0:0:0:0:
47,179,86473,2,0,P|67:236|65:265,1,75,0|8,1:2|0:2,0:0:0:0:
30,338,86806,5,2,0:0:0:0:
256,192,86889,12,0,88306,0:0:0:0:
