osu file format v14

[General]
AudioFilename: audio.mp3
AudioLeadIn: 0
PreviewTime: 51791
Countdown: 0
SampleSet: Soft
StackLeniency: 0.4
Mode: 0
LetterboxInBreaks: 0
WidescreenStoryboard: 1

[Editor]
DistanceSpacing: 0.9
BeatDivisor: 6
GridSize: 32
TimelineZoom: 3.199999

[Metadata]
Title:Make my story (TV Size)
TitleUnicode:Make my story (TV Size)
Artist:Lenny code fiction
ArtistUnicode:Lenny code fiction
Creator:Monstrata
Version:Haruto's Insane
Source:僕のヒーローアカデミア
Tags:alternator bnha boku no my hero academia mha season 3 three opening op 2 two haruto haruto_aizawa haruto- cloudchaser shiinoha kotone tomadoi hypercyte
BeatmapID:1712986
BeatmapSetID:814994

[Difficulty]
HPDrainRate:5
CircleSize:4
OverallDifficulty:7
ApproachRate:8.5
SliderMultiplier:1.78
SliderTickRate:1

[Events]
//Background and Video events
Video,0,"my hero op.avi"
0,0,"819837.jpg",0,0
//Break Periods
//Storyboard Layer 0 (Background)
//Storyboard Layer 1 (Fail)
//Storyboard Layer 2 (Pass)
//Storyboard Layer 3 (Foreground)
//Storyboard Sound Samples

[TimingPoints]
25,454.545454545455,4,2,1,60,1,0
25,-100,4,2,1,60,0,0
12752,-100,4,2,1,60,0,0
14570,-100,4,2,1,60,0,0
21843,-100,4,2,1,60,0,0
36388,-100,4,2,1,60,0,0
51464,-100,4,2,1,40,0,0
51615,-100,4,2,1,60,0,0
51691,-100,4,2,1,40,0,0
51843,-100,4,2,1,60,0,0
52752,-100,4,2,1,60,0,1
81843,-100,4,2,1,60,0,0
88206,-100,4,2,1,60,0,0
88945,-100,4,2,1,5,0,0

[Colours]
Combo1 : 55,94,151
Combo2 : 153,102,204
Combo3 : 135,206,250
Combo4 : 178,34,34

[HitObjects]
79,123,25,5,0,1:0:0:0:
260,264,252,1,2,0:0:0:0:
199,176,479,6,0,P|162:222|155:268,1,88.9999999999999,0|0,0:0|0:0,0:0:0:0:
167,263,820,2,0,P|183:319|216:351,1,88.9999999999999,0|0,0:0|0:0,0:0:0:0:
224,351,1161,1,0,0:0:0:0:
412,153,1388,1,0,0:0:0:0:
260,264,1615,1,2,0:0:0:0:
292,55,1843,5,0,1:0:0:0:
296,74,1956,1,0,0:0:0:0:
299,90,2070,2,0,P|308:140|317:200,1,89,2|0,0:0|0:0,0:0:0:0:
494,311,2525,1,0,0:0:0:0:
494,311,2638,1,0,0:0:0:0:
494,311,2752,2,0,P|439:297|422:280,1,44.5,2|0,0:0|0:0,0:0:0:0:
360,269,2979,2,0,P|351:319|342:379,1,89,0|0,0:0|0:0,0:0:0:0:
331,374,3320,1,0,0:0:0:0:
155,250,3547,1,0,0:0:0:0:
155,250,3661,5,0,1:0:0:0:
299,90,3888,1,2,0:0:0:0:
226,148,4115,2,0,P|176:139|116:130,1,89,0|0,0:0|0:0,0:0:0:0:
125,117,4456,2,0,P|75:126|15:135,1,89,0|0,0:0|0:0,0:0:0:0:
16,126,4797,1,0,0:0:0:0:
201,252,5025,1,0,0:0:0:0:
0,357,5252,1,2,0:0:0:0:
0,357,5365,1,0,0:0:0:0:
0,357,5479,5,0,1:0:0:0:
0,357,5593,2,0,L|24:250,1,89,0|0,0:0|0:0,0:0:0:0:
89,353,5934,2,0,P|132:346|176:338,1,89,0|0,0:0|0:0,0:0:0:0:
270,334,6275,2,0,P|313:327|357:319,1,89,0|0,0:0|0:0,0:0:0:0:
287,237,6615,2,0,P|243:243|200:251,1,89,0|0,0:0|0:0,0:0:0:0:
469,94,7070,2,0,L|441:141,1,44.5,2|0,0:0|0:0,0:0:0:0:
390,217,7297,5,0,1:0:0:0:
267,23,7525,1,2,0:0:0:0:
339,86,7752,2,0,P|257:116|182:74,1,178,0|2,0:0|0:0,0:0:0:0:
113,7,8434,1,0,0:0:0:0:
114,182,8661,2,0,P|92:144|90:100,1,89,0|2,0:0|0:0,0:0:0:0:
113,7,9115,5,0,1:0:0:0:
55,260,9343,1,2,0:0:0:0:
55,260,9570,2,0,P|98:267|142:275,1,89,0|0,0:0|0:0,0:0:0:0:
173,282,9911,1,0,0:0:0:0:
173,282,10025,1,2,0:0:0:0:
362,354,10252,1,0,0:0:0:0:
362,354,10365,2,0,P|319:347|275:339,1,89,2|0,0:0|0:0,0:0:0:0:
252,332,10706,1,2,0:0:0:0:
258,239,10934,6,0,B|244:148|308:164|291:65,2,178,0|0|2,1:0|0:0|0:0,0:0:0:0:
199,90,12070,1,0,0:0:0:0:
199,90,12184,1,2,0:0:0:0:
199,90,12297,1,0,0:0:0:0:
347,216,12525,1,2,0:0:0:0:
490,6,12752,6,0,P|483:49|475:93,1,89,8|8,0:0|0:0,0:0:0:0:
471,227,13206,2,0,P|478:270|486:314,1,89,8|8,0:0|0:0,0:0:0:0:
274,338,13661,5,0,1:0:0:0:
251,335,13774,1,0,1:0:0:0:
229,336,13888,1,0,1:0:0:0:
208,342,14001,1,0,1:0:0:0:
180,356,14115,5,0,1:0:0:0:
148,371,14229,1,0,1:0:0:0:
108,374,14342,1,0,1:0:0:0:
65,360,14456,1,0,1:0:0:0:
30,324,14570,6,0,P|18:277|35:220,1,89,6|0,0:0|0:0,0:0:0:0:
197,107,15025,1,8,0:0:0:0:
116,183,15252,1,2,0:0:0:0:
116,183,15365,1,0,0:0:0:0:
116,183,15479,2,0,P|159:190|203:198,1,89,0|0,1:0|0:0,0:0:0:0:
240,14,15934,2,0,P|196:21|152:29,1,89,10|0,0:0|0:0,0:0:0:0:
197,107,16388,5,2,1:2:0:0:
389,39,16615,1,2,0:0:0:0:
382,125,16843,2,0,B|336:125|341:96|291:99,1,89,8|2,0:0|0:0,0:0:0:0:
309,282,17297,2,0,P|300:238|307:195,1,89,0|0,1:0|0:0,0:0:0:0:
477,187,17752,2,0,P|443:216|402:232,1,89,10|0,0:0|0:0,0:0:0:0:
219,153,18206,5,2,1:2:0:0:
219,153,18320,1,0,0:0:0:0:
219,153,18434,1,0,0:0:0:0:
100,320,18661,2,0,P|143:327|187:335,1,89,8|2,0:0|0:0,0:0:0:0:
182,241,19115,2,0,P|138:233|94:225,1,89,0|0,1:0|0:0,0:0:0:0:
14,278,19570,1,10,0:0:0:0:
145,77,19797,1,0,0:0:0:0:
84,8,20025,6,0,P|54:52|57:99,1,89,2|2,1:2|0:0,0:0:0:0:
216,23,20479,1,8,0:0:0:0:
182,241,20706,2,0,P|152:197|155:150,1,89,10|0,0:0|0:0,0:0:0:0:
304,43,21161,1,0,1:0:0:0:
278,262,21388,1,0,1:0:0:0:
246,167,21615,1,0,1:0:0:0:
341,138,21843,6,0,B|395:126|395:126|450:147|450:147|519:132,1,178,4|0,1:2|1:0,0:0:0:0:
512,133,22752,1,0,1:0:0:0:
388,287,22979,1,10,0:0:0:0:
388,287,23093,2,0,P|380:247|374:208,1,44.5,0|0,0:0|1:0,0:0:0:0:
390,225,23320,2,0,P|397:264|403:303,1,44.5,2|10,0:0|0:0,0:0:0:0:
255,363,23661,6,0,P|169:363|107:295,1,178,4|0,1:2|1:0,0:0:0:0:
209,271,24343,1,0,0:0:0:0:
126,61,24570,2,0,P|130:82|133:104,1,44.5,0|0,1:0|0:0,0:0:0:0:
138,199,24797,2,0,P|95:190|62:161,1,89,10|0,0:0|1:0,0:0:0:0:
53,145,25138,1,2,0:0:0:0:
261,0,25365,1,0,0:0:0:0:
261,0,25479,6,0,P|256:21|233:181,1,178,4|0,1:2|1:0,0:0:0:0:
233,175,26388,1,0,1:0:0:0:
362,119,26615,1,10,0:0:0:0:
362,119,26729,2,0,P|342:129|326:145,1,44.5,0|0,0:0|1:0,0:0:0:0:
328,161,26956,2,0,P|321:182|321:204,1,44.5,2|10,0:0|0:0,0:0:0:0:
470,273,27297,6,0,B|376:257|392:321|301:307,1,178,4|0,1:2|1:0,0:0:0:0:
229,237,27979,1,0,0:0:0:0:
53,322,28206,1,0,1:0:0:0:
53,322,28320,1,0,0:0:0:0:
53,322,28434,2,0,P|84:295|97:243,1,89,0|0,1:0|1:0,0:0:0:0:
81,218,28775,1,0,1:0:0:0:
77,182,28888,1,0,1:0:0:0:
89,151,29002,1,0,1:0:0:0:
112,124,29115,6,0,P|199:106|287:96,1,178,0|2,1:0|1:2,0:0:0:0:
460,18,29797,2,0,P|503:26|542:31,2,44.5,0|0|2,0:0|0:0|1:2,0:0:0:0:
363,157,30252,2,0,P|384:118|382:74,1,89,8|0,0:0|1:0,0:0:0:0:
376,172,30593,2,0,P|354:210|356:254,1,89,0|0,0:0|0:0,0:0:0:0:
370,274,30934,6,0,B|276:290|292:226|201:240,1,178,0|0,1:0|1:0,0:0:0:0:
0,330,31615,1,2,0:0:0:0:
71,111,31843,1,0,1:0:0:0:
74,131,31956,1,0,0:0:0:0:
78,150,32070,6,0,P|88:203|94:257,1,89,10|0,0:0|1:0,0:0:0:0:
110,254,32411,2,0,P|104:298|95:341,1,89,0|0,0:0|0:0,0:0:0:0:
84,361,32752,6,0,P|146:322|266:336,1,178,0|2,1:0|1:2,0:0:0:0:
413,384,33434,1,0,0:0:0:0:
413,384,33547,1,0,0:0:0:0:
413,384,33661,1,2,1:2:0:0:
341,176,33888,1,8,0:0:0:0:
341,176,34002,2,0,P|344:197|346:220,1,44.5,2|0,0:0|0:0,0:0:0:0:
338,300,34229,2,0,P|334:278|332:255,1,44.5,0|10,0:0|0:0,0:0:0:0:
440,46,34570,5,0,1:0:0:0:
247,164,34797,1,8,0:0:0:0:
322,55,35025,2,0,P|278:49|235:40,1,89,0|8,1:0|0:0,0:0:0:0:
441,211,35479,5,8,0:0:0:0:
450,202,35593,1,8,0:0:0:0:
436,189,35706,1,8,0:3:0:0:
414,195,35820,1,8,0:3:0:0:
390,215,35934,1,8,1:3:0:0:
377,248,36047,1,0,0:0:0:0:
376,288,36161,1,0,1:0:0:0:
398,326,36275,1,0,1:0:0:0:
442,346,36388,6,0,P|375:352|309:364,1,133.5,6|0,1:2|0:0,0:0:0:0:
284,361,36843,1,10,0:0:0:0:
104,266,37070,1,2,0:0:0:0:
104,266,37184,1,0,0:0:0:0:
104,266,37297,2,0,P|59:261|15:254,1,89,2|0,1:2|0:0,0:0:0:0:
156,75,37752,1,10,0:0:0:0:
209,282,37979,1,0,0:0:0:0:
209,282,38093,1,0,0:0:0:0:
209,282,38206,6,0,B|202:218|248:226|242:154,1,133.5,2|0,1:2|0:0,0:0:0:0:
233,136,38661,1,10,0:0:0:0:
156,75,38888,1,2,0:0:0:0:
375,7,39115,1,2,1:2:0:0:
336,194,39343,1,8,0:0:0:0:
247,39,39570,1,10,0:0:0:0:
395,114,39797,1,2,0:0:0:0:
434,201,40025,6,0,P|408:262|352:297,1,133.5,2|0,1:2|0:0,0:0:0:0:
328,297,40479,1,10,0:0:0:0:
312,111,40706,1,0,0:0:0:0:
312,111,40820,1,0,0:0:0:0:
312,111,40934,2,0,P|333:149|335:193,1,89,2|0,1:2|0:0,0:0:0:0:
102,323,41388,1,8,0:0:0:0:
248,235,41615,1,2,0:0:0:0:
248,235,41729,1,0,0:0:0:0:
248,235,41843,6,0,P|203:239|159:246,1,89,2|0,1:2|0:0,0:0:0:0:
305,380,42297,1,8,0:0:0:0:
335,193,42525,1,0,0:0:0:0:
335,193,42638,1,0,0:0:0:0:
335,193,42752,1,0,1:0:0:0:
184,369,42979,1,8,0:0:0:0:
66,230,43206,1,8,0:0:0:0:
220,138,43434,1,0,0:0:0:0:
220,138,43547,1,2,0:0:0:0:
220,138,43661,6,0,P|153:130|87:120,1,133.5,2|0,1:2|0:0,0:0:0:0:
67,113,44115,1,10,0:0:0:0:
288,20,44343,1,2,0:0:0:0:
288,20,44456,1,0,0:0:0:0:
288,20,44570,2,0,P|309:58|311:102,1,89,2|0,1:2|0:0,0:0:0:0:
214,316,45025,2,0,P|235:277|237:233,1,89,10|2,0:0|0:0,0:0:0:0:
220,138,45479,6,0,B|289:129|275:185|350:179,1,133.5,2|0,1:2|0:0,0:0:0:0:
367,173,45934,1,10,0:0:0:0:
495,38,46161,1,2,0:0:0:0:
495,38,46275,1,0,0:0:0:0:
495,38,46388,1,2,1:2:0:0:
512,234,46615,1,8,0:0:0:0:
465,133,46843,1,10,0:0:0:0:
367,173,47070,1,2,0:0:0:0:
417,287,47297,6,0,B|369:276|369:276|335:292|335:292|286:281,1,133.5,2|0,1:2|0:0,0:0:0:0:
268,292,47752,1,10,0:0:0:0:
155,104,47979,1,0,0:0:0:0:
155,104,48093,1,0,0:0:0:0:
155,104,48206,2,0,P|147:164|138:223,1,89,2|2,1:2|0:0,0:0:0:0:
171,362,48661,2,0,P|178:301|187:242,1,89,10|10,0:0|0:0,0:0:0:0:
218,47,49115,5,2,1:2:0:0:
292,19,49343,1,8,0:0:0:0:
371,54,49570,1,8,0:0:0:0:
405,142,49797,1,8,0:0:0:0:
362,236,50025,1,8,0:0:0:0:
245,279,50252,1,8,0:0:0:0:
109,216,50479,1,8,0:0:0:0:
47,47,50706,1,8,0:0:0:0:
297,31,50934,5,8,1:2:0:0:
340,34,51047,1,8,1:2:0:0:
378,57,51161,1,8,1:2:0:0:
399,96,51274,1,8,1:2:0:0:
399,140,51388,6,0,P|378:137|359:134,2,29.6666666666667,8|0|8,1:2|0:0|1:2,0:0:0:0:
295,147,51615,2,0,P|274:144|255:141,2,29.6666666666667,8|0|8,1:2|0:0|1:2,0:0:0:0:
192,154,51843,5,2,0:0:0:0:
192,154,52752,5,6,0:0:0:0:
285,363,52979,1,0,1:0:0:0:
321,275,53206,2,0,P|278:267|236:280,1,89,10|0,0:0|1:0,0:0:0:0:
220,289,53547,2,0,P|177:301|134:293,1,89,8|0,0:0|0:0,0:0:0:0:
115,282,53888,1,0,1:0:0:0:
229,52,54115,1,8,0:0:0:0:
192,154,54343,6,0,P|271:141|318:136,2,89,2|2|0,0:0|1:2|1:0,0:0:0:0:
423,242,55025,1,10,0:0:0:0:
354,99,55252,1,2,1:2:0:0:
354,99,55365,2,0,B|370:141|370:141|354:189,1,89,8|0,0:0|0:0,0:0:0:0:
348,200,55706,2,0,B|334:241|334:241|350:283,1,89,0|10,1:0|0:0,0:0:0:0:
279,139,56161,1,2,0:0:0:0:
305,363,56388,6,0,P|235:354|166:343,1,133.5,2|2,1:2|0:0,0:0:0:0:
152,354,56843,1,8,0:0:0:0:
98,150,57070,1,2,1:2:0:0:
98,150,57184,2,0,P|72:197|71:237,1,89,8|0,0:0|0:0,0:0:0:0:
68,252,57525,2,0,P|16:237|-12:209,1,89,0|8,1:0|0:0,0:0:0:0:
113,0,57979,1,2,0:0:0:0:
184,72,58206,1,2,1:2:0:0:
118,133,58434,1,0,1:0:0:0:
252,5,58661,6,0,P|296:10|340:15,1,89,8|0,0:0|1:0,0:0:0:0:
355,33,59002,2,0,P|399:27|443:22,1,89,8|0,0:0|0:0,0:0:0:0:
469,19,59343,1,2,1:2:0:0:
309,172,59570,1,10,0:0:0:0:
388,115,59797,1,0,1:0:0:0:
388,115,59911,1,0,1:0:0:0:
388,115,60025,6,0,P|408:181|344:269,1,178,2|10,1:2|0:0,0:0:0:0:
238,115,60706,1,2,1:2:0:0:
238,115,60820,2,0,P|279:130|308:163,1,89,8|0,0:0|0:0,0:0:0:0:
309,180,61161,2,0,P|279:212|238:228,1,89,2|8,1:2|0:0,0:0:0:0:
51,87,61615,1,2,0:0:0:0:
149,171,61843,6,0,P|99:177|18:270,1,178,2|10,1:2|0:0,0:0:0:0:
142,374,62525,1,2,1:2:0:0:
142,374,62638,2,0,P|124:333|123:289,1,89,8|0,0:0|0:0,0:0:0:0:
129,273,62979,2,0,P|173:278|217:283,1,89,2|8,1:2|0:0,0:0:0:0:
409,229,63434,1,2,0:0:0:0:
304,348,63661,5,2,1:2:0:0:
304,348,63888,1,0,1:0:0:0:
337,163,64115,2,0,P|315:205|317:281,1,89,8|2,0:0|1:2,0:0:0:0:
324,262,64456,2,0,P|368:257|412:252,1,89,8|0,0:0|0:0,0:0:0:0:
437,250,64797,1,0,1:2:0:0:
385,27,65025,1,8,0:0:0:0:
307,79,65252,1,2,0:0:0:0:
182,37,65479,6,0,B|90:31|112:93|17:85,1,178,2|10,1:2|0:0,0:0:0:0:
175,211,66161,1,0,1:0:0:0:
175,211,66275,2,0,P|183:160|160:126,1,89,8|0,0:0|0:0,0:0:0:0:
154,212,66615,2,0,P|162:263|139:297,1,89,0|10,1:0|0:0,0:0:0:0:
148,332,66956,1,8,0:0:0:0:
174,362,67070,1,8,0:0:0:0:
211,375,67184,1,8,0:0:0:0:
250,375,67297,6,0,P|294:371|435:351,1,178,2|8,1:2|0:0,0:0:0:0:
373,157,67979,1,0,1:0:0:0:
373,157,68093,2,0,P|354:205|364:247,1,89,8|0,0:0|0:0,0:0:0:0:
370,260,68434,2,0,P|311:251|252:245,1,89,0|8,1:0|0:0,0:0:0:0:
451,207,68888,1,2,0:0:0:0:
308,77,69115,6,0,P|249:85|123:103,1,178,2|10,1:2|0:0,0:0:0:0:
10,3,69797,1,2,1:2:0:0:
10,3,69911,2,0,P|18:61|24:120,1,89,8|0,0:0|0:0,0:0:0:0:
33,109,70252,2,0,P|24:167|18:226,1,89,0|10,1:0|0:0,0:0:0:0:
131,101,70706,1,2,0:0:0:0:
247,264,70934,6,0,P|196:209|126:206,1,133.5,2|2,1:2|0:0,0:0:0:0:
122,211,71388,1,8,0:0:0:0:
300,348,71615,1,2,1:2:0:0:
300,348,71729,6,0,P|329:315|341:272,1,89,8|0,0:0|0:0,0:0:0:0:
338,253,72070,2,0,P|329:194|323:135,1,89,0|8,1:0|0:0,0:0:0:0:
434,8,72525,1,2,0:0:0:0:
475,119,72752,6,0,B|383:125|405:63|310:71,1,178,2|8,1:2|0:0,0:0:0:0:
160,172,73434,1,0,1:0:0:0:
160,172,73547,2,0,P|218:151|235:128,1,89,8|0,0:0|0:0,0:0:0:0:
233,116,73888,2,0,P|202:84|159:74,1,89,2|10,1:2|0:0,0:0:0:0:
4,259,74343,1,2,1:2:0:0:
4,259,74456,1,0,1:0:0:0:
4,259,74570,6,0,B|61:272|61:272|110:255|110:255|176:267,1,178,2|10,1:2|0:0,0:0:0:0:
331,371,75252,1,2,1:2:0:0:
331,371,75365,2,0,P|271:342|239:350,1,89,8|0,0:0|0:0,0:0:0:0:
242,333,75706,2,0,P|271:273|263:241,1,89,2|8,1:2|0:0,0:0:0:0:
228,62,76161,1,2,0:0:0:0:
358,202,76388,5,2,1:2:0:0:
272,153,76615,1,2,1:2:0:0:
411,14,76843,1,10,0:0:0:0:
355,99,77070,1,2,1:2:0:0:
355,99,77184,2,0,P|317:57|307:12,1,89,8|0,0:0|0:0,0:0:0:0:
370,110,77525,2,0,P|425:98|469:111,1,89,2|8,1:2|0:0,0:0:0:0:
376,345,77979,1,2,0:0:0:0:
437,262,78206,6,0,P|394:249|268:316,1,178,2|8,1:2|0:0,0:0:0:0:
176,361,78888,1,2,1:2:0:0:
176,361,79002,2,0,P|170:317|165:273,1,89,8|0,0:0|0:0,0:0:0:0:
176,255,79343,2,0,P|182:211|187:167,1,89,0|8,1:0|0:0,0:0:0:0:
128,13,79797,1,2,0:0:0:0:
209,73,80025,6,0,B|301:79|279:17|374:25,1,178,2|10,1:2|0:0,0:0:0:0:
336,197,80706,1,0,0:0:0:0:
336,197,80820,1,0,0:0:0:0:
336,197,80934,2,0,P|339:135|379:104,1,89,2|0,1:2|1:0,0:0:0:0:
394,124,81275,1,0,1:0:0:0:
419,154,81388,1,10,0:0:0:0:
430,192,81502,1,8,0:0:0:0:
427,231,81615,1,8,0:0:0:0:
408,266,81729,1,8,0:0:0:0:
377,292,81843,6,0,P|315:296|287:285,1,89,2|0,1:2|0:0,0:0:0:0:
116,215,82297,1,8,0:0:0:0:
218,166,82525,2,0,P|212:210|206:254,1,89,0|0,0:0|1:0,0:0:0:0:
135,127,82979,1,0,0:0:0:0:
296,59,83206,1,8,0:0:0:0:
98,42,83434,1,0,0:0:0:0:
42,116,83661,6,0,P|24:169|42:226,1,89,0|0,1:0|0:0,0:0:0:0:
114,362,84115,1,8,0:0:0:0:
33,303,84343,2,0,P|93:270|198:301,1,178,0|0,0:0|0:0,0:0:0:0:
364,384,85025,1,8,0:0:0:0:
247,139,85252,1,0,0:0:0:0:
303,217,85479,6,0,P|297:261|291:305,1,89,0|0,1:0|0:0,0:0:0:0:
439,127,85934,1,8,0:0:0:0:
330,33,86161,2,0,P|336:77|342:122,1,89,0|0,0:0|1:0,0:0:0:0:
211,225,86615,1,0,0:0:0:0:
178,34,86843,1,8,0:0:0:0:
247,139,87070,1,0,0:0:0:0:
87,164,87297,6,0,P|147:128|184:128,1,89,0|0,1:0|0:0,0:0:0:0:
211,225,87752,1,8,0:0:0:0:
31,91,87979,1,8,0:0:0:0:
275,44,88206,5,8,0:0:0:0:
168,318,88434,1,8,0:0:0:0:
164,126,88661,1,8,0:0:0:0:
378,243,88888,2,0,P|397:240|417:237,1,22.25,8|0,0:0|0:0,0:0:0:0:
