osu file format v14

[General]
AudioFilename: audio.mp3
AudioLeadIn: 0
PreviewTime: 51791
Countdown: 0
SampleSet: Soft
StackLeniency: 0.5
Mode: 0
LetterboxInBreaks: 0
WidescreenStoryboard: 1

[Editor]
Bookmarks: 14570,74570
DistanceSpacing: 1
BeatDivisor: 4
GridSize: 8
TimelineZoom: 3.199999

[Metadata]
Title:Make my story (TV Size)
TitleUnicode:Make my story (TV Size)
Artist:Lenny code fiction
ArtistUnicode:Lenny code fiction
Creator:Monstrata
Version:Cloudchaser's Hard
Source:僕のヒーローアカデミア
Tags:alternator bnha boku no my hero academia mha season 3 three opening op 2 two haruto haruto_aizawa haruto- cloudchaser shiinoha kotone tomadoi hypercyte
BeatmapID:1712544
BeatmapSetID:814994

[Difficulty]
HPDrainRate:4
CircleSize:4
OverallDifficulty:6
ApproachRate:7.5
SliderMultiplier:1.7
SliderTickRate:1

[Events]
//Background and Video events
Video,0,"my hero op.avi"
0,0,"819837.jpg",0,0
//Break Periods
//Storyboard Layer 0 (Background)
//Storyboard Layer 1 (Fail)
//Storyboard Layer 2 (Pass)
//Storyboard Layer 3 (Foreground)
//Storyboard Sound Samples

[TimingPoints]
25,454.545454545455,4,2,1,60,1,0
52752,-80,4,2,1,60,0,1
81843,-100,4,2,1,60,0,0

[Colours]
Combo1 : 55,94,151
Combo2 : 153,102,204
Combo3 : 135,206,250
Combo4 : 178,34,34

[HitObjects]
16,176,25,5,0,1:0:0:0:
16,176,252,1,2,0:0:0:0:
144,96,479,2,0,L|246:108,1,85,0|0,0:0|0:0,0:0:0:0:
320,56,934,2,0,P|303:141|311:198,2,127.5,2|2|2,0:0|0:0|0:0,0:0:0:0:
424,40,1843,5,0,1:0:0:0:
424,40,2070,1,2,0:0:0:0:
448,192,2297,2,0,L|416:288,1,85,0|0,0:0|0:0,0:0:0:0:
336,328,2752,2,0,P|272:328|208:296,2,127.5,2|2|2,0:0|0:0|0:0,0:0:0:0:
301,178,3661,5,0,1:0:0:0:
301,178,3888,1,2,0:0:0:0:
160,112,4115,2,0,P|152:64|160:16,1,85,0|0,0:0|0:0,0:0:0:0:
248,72,4570,2,0,L|232:240,2,127.5,2|2|2,0:0|0:0|0:0,0:0:0:0:
400,48,5479,5,0,1:0:0:0:
400,48,5706,1,2,0:0:0:0:
440,192,5934,2,0,P|376:192|336:184,1,85,0|0,0:0|0:0,0:0:0:0:
280,120,6388,2,0,B|216:104|216:152|120:112,2,127.5,2|2|2,0:0|0:0|0:0,0:0:0:0:
216,200,7297,6,0,P|160:200|104:184,1,85,0|2,1:0|0:0,0:0:0:0:
24,120,7752,2,0,L|32:288,1,127.5,0|0,0:0|0:0,0:0:0:0:
32,288,8206,2,0,B|96:304|96:304|168:288,2,127.5,2|2|2,0:0|0:0|0:0,0:0:0:0:
176,208,9115,2,0,P|232:256|232:336,1,127.5,0|0,1:0|0:0,0:0:0:0:
224,352,9570,2,0,L|376:344,1,127.5,0|0,0:0|0:0,0:0:0:0:
384,304,10025,2,0,B|360:240|408:248|368:144,2,127.5,2|2|2,0:0|0:0|0:0,0:0:0:0:
464,176,10934,6,0,L|456:32,1,127.5,0|0,1:0|0:0,0:0:0:0:
416,16,11388,2,0,P|352:48|296:48,1,127.5,0|0,0:0|0:0,0:0:0:0:
248,24,11843,2,0,L|112:48,1,127.5,2|2,0:0|0:0,0:0:0:0:
96,88,12297,1,0,0:0:0:0:
112,192,12525,1,2,0:0:0:0:
112,192,12752,6,0,P|128:256|120:312,1,85,8|8,0:0|0:0,0:0:0:0:
56,352,13206,1,8,0:0:0:0:
32,256,13434,1,8,0:0:0:0:
112,192,13661,2,0,L|104:136,3,42.5,0|0|0|0,1:0|1:0|1:0|1:0,0:0:0:0:
136,112,14115,2,0,L|128:56,3,42.5,0|0|0|0,1:0|1:0|1:0|1:0,0:0:0:0:
152,24,14570,6,0,P|216:40|256:40,1,85,6|0,0:0|0:0,0:0:0:0:
336,24,15025,1,8,0:0:0:0:
336,24,15252,2,0,L|320:168,1,127.5,2|0,0:0|0:0,0:0:0:0:
352,192,15706,1,0,0:0:0:0:
432,128,15934,5,10,0:0:0:0:
376,280,16161,1,0,0:0:0:0:
376,280,16274,1,0,0:0:0:0:
376,280,16388,2,0,P|331:279|280:256,1,85,2|2,1:2|0:0,0:0:0:0:
200,216,16843,2,0,L|192:312,1,85,8|2,0:0|0:0,0:0:0:0:
120,168,17297,2,0,L|112:83,1,85,0|0,1:0|0:0,0:0:0:0:
136,40,17638,1,0,0:0:0:0:
136,40,17752,1,10,0:0:0:0:
232,80,17979,1,0,0:0:0:0:
320,128,18206,6,0,P|392:136|440:136,1,85,2|0,1:2|0:0,0:0:0:0:
488,72,18661,1,8,0:0:0:0:
488,72,18888,2,0,L|480:200,1,127.5,2|0,0:0|0:0,0:0:0:0:
440,224,19343,1,0,0:0:0:0:
360,288,19570,6,0,P|304:280|256:280,1,85,10|0,0:0|0:0,0:0:0:0:
200,344,20025,1,2,1:2:0:0:
184,240,20252,1,2,0:0:0:0:
104,296,20479,2,0,P|96:368|104:392,1,85,8|10,0:0|0:0,0:0:0:0:
184,240,20934,2,0,P|192:168|184:144,1,85,0|0,0:0|1:0,0:0:0:0:
112,96,21388,1,0,1:0:0:0:
88,192,21615,1,0,1:0:0:0:
24,48,21843,5,4,1:2:0:0:
24,48,22297,1,0,1:0:0:0:
24,48,22752,1,0,1:0:0:0:
112,96,22979,2,0,L|216:104,1,85,10|0,0:0|1:0,0:0:0:0:
240,72,23320,2,0,L|344:80,1,85,2|0,0:0|0:0,0:0:0:0:
368,56,23661,6,0,P|352:136|368:216,1,127.5,4|0,1:2|0:0,0:0:0:0:
384,224,24115,1,0,1:0:0:0:
456,152,24343,1,0,0:0:0:0:
384,224,24570,1,0,1:0:0:0:
304,288,24797,2,0,P|262:291|208:288,1,85,10|0,0:0|1:0,0:0:0:0:
192,248,25138,2,0,P|150:244|96:248,1,85,2|0,0:0|0:0,0:0:0:0:
72,280,25479,5,4,1:2:0:0:
72,280,25934,1,0,1:0:0:0:
72,280,26388,1,0,1:0:0:0:
112,184,26615,2,0,P|184:168|224:168,1,85,10|0,0:0|1:0,0:0:0:0:
232,128,26956,2,0,P|304:152|336:176,1,85,2|0,0:0|0:0,0:0:0:0:
336,200,27297,5,4,1:2:0:0:
400,120,27525,1,0,0:0:0:0:
398,272,27752,1,0,1:0:0:0:
462,192,27980,1,0,0:0:0:0:
492,288,28206,2,0,L|494:356,2,42.5,0|0|0,1:0|0:0|1:0,0:0:0:0:
462,192,28661,2,0,L|464:124,3,42.5,0|0|0|0,1:0|1:0|1:0|1:0,0:0:0:0:
424,112,29115,5,0,1:0:0:0:
424,112,29570,1,2,1:2:0:0:
424,112,30025,1,2,1:2:0:0:
328,80,30252,2,0,L|224:88,1,85,8|0,0:0|1:0,0:0:0:0:
200,56,30593,2,0,L|96:64,1,85,0|0,0:0|0:0,0:0:0:0:
72,32,30934,5,0,1:0:0:0:
32,128,31161,1,2,0:0:0:0:
112,192,31388,2,0,P|114:234|98:272,1,85,0|2,1:0|0:0,0:0:0:0:
48,360,31843,1,0,1:0:0:0:
152,344,32070,2,0,L|264:336,1,85,10|0,0:0|1:0,0:0:0:0:
272,304,32411,2,0,L|356:310,1,85,0|0,0:0|0:0,0:0:0:0:
400,344,32752,5,0,1:0:0:0:
400,344,33206,1,2,1:2:0:0:
400,344,33661,1,2,1:2:0:0:
312,216,33888,2,0,P|303:172|304:120,1,85,8|0,0:0|1:0,0:0:0:0:
256,136,34229,2,0,P|264:72|280:32,1,85,0|0,0:0|0:0,0:0:0:0:
312,24,34570,5,0,1:0:0:0:
376,104,34797,1,8,0:0:0:0:
396,209,35025,2,0,L|284:217,1,85,0|8,1:0|0:0,0:0:0:0:
232,280,35479,2,0,P|200:320|192:344,3,42.5,8|8|8|8,0:0|0:0|0:3|0:3,0:0:0:0:
152,320,35934,2,0,P|139:337|124:351,3,42.5,8|0|0|0,1:3|0:0|1:0|1:0,0:0:0:0:
72,344,36388,6,0,B|72:304|72:304|64:272|64:272|64:192,1,127.5,6|0,1:2|0:0,0:0:0:0:
80,168,36843,1,10,0:0:0:0:
168,224,37070,1,2,0:0:0:0:
240,296,37297,2,0,P|264:232|248:152,1,127.5,2|0,1:2|0:0,0:0:0:0:
216,136,37752,1,10,0:0:0:0:
320,120,37979,1,0,0:0:0:0:
424,104,38206,6,0,B|528:88|528:88|480:128,1,127.5,2|0,1:2|0:0,0:0:0:0:
504,152,38661,2,0,P|496:224|504:256,1,85,10|2,0:0|0:0,0:0:0:0:
464,328,39115,1,2,1:2:0:0:
464,328,39343,1,8,0:0:0:0:
400,248,39570,2,0,P|336:240|296:248,1,85,10|2,0:0|0:0,0:0:0:0:
256,320,40025,6,0,B|192:304|192:352|120:328,1,127.5,2|0,1:2|0:0,0:0:0:0:
88,296,40479,2,0,L|96:184,1,85,10|0,0:0|0:0,0:0:0:0:
112,160,40820,1,0,0:0:0:0:
112,160,40934,2,0,L|104:24,2,127.5,2|2|2,1:2|0:0|0:0,0:0:0:0:
200,200,41843,1,2,1:2:0:0:
280,136,42070,1,0,0:0:0:0:
312,232,42297,6,0,P|304:280|320:368,1,127.5,8|0,0:0|0:0,0:0:0:0:
368,376,42752,1,0,1:0:0:0:
416,288,42979,1,8,0:0:0:0:
416,288,43206,1,8,0:0:0:0:
456,192,43434,1,0,0:0:0:0:
456,192,43548,1,2,0:0:0:0:
456,192,43661,6,0,B|392:208|392:208|304:184,1,127.5,2|0,1:2|0:0,0:0:0:0:
280,176,44115,2,0,L|176:184,1,85,10|2,0:0|0:0,0:0:0:0:
104,96,44570,2,0,L|254:86,1,127.5,2|0,1:2|0:0,0:0:0:0:
272,56,45025,1,10,0:0:0:0:
352,120,45252,1,2,0:0:0:0:
440,64,45479,6,0,P|456:144|424:200,2,127.5,2|0|2,1:2|0:0|0:0,0:0:0:0:
352,120,46388,2,0,L|360:216,1,85,2|8,1:2|0:0,0:0:0:0:
256,280,46843,1,10,0:0:0:0:
360,280,47070,1,2,0:0:0:0:
247,364,47297,6,0,L|255:280,1,85,2|0,1:2|0:0,0:0:0:0:
184,208,47752,2,0,P|136:192|40:208,1,127.5,10|0,0:0|0:0,0:0:0:0:
24,240,48206,2,0,L|32:104,1,127.5,2|0,1:2|0:0,0:0:0:0:
32,64,48661,1,10,0:0:0:0:
128,40,48888,1,10,0:0:0:0:
232,24,49115,6,0,L|328:16,1,85,2|8,1:2|0:0,0:0:0:0:
444,111,49570,2,0,L|360:104,1,85,8|8,0:0|0:0,0:0:0:0:
232,184,50025,2,0,L|317:192,1,85,8|8,0:0|0:0,0:0:0:0:
444,272,50479,2,0,L|360:280,1,85,8|8,0:0|0:0,0:0:0:0:
280,352,50934,6,0,P|256:360|216:352,3,42.5,8|8|8|8,1:2|1:2|1:2|1:2,0:0:0:0:
192,344,51388,2,0,P|152:336|112:344,3,42.5,8|8|8|8,1:2|1:2|1:2|1:2,0:0:0:0:
104,352,51843,1,2,0:0:0:0:
104,352,52752,6,0,P|120:288|112:224,1,106.25,6|0,0:0|1:0,0:0:0:0:
192,168,53206,1,10,0:0:0:0:
152,80,53434,1,0,1:0:0:0:
152,80,53547,2,0,L|-5:89,1,106.25,8|0,0:0|0:0,0:0:0:0:
16,128,53888,2,0,P|8:184|32:240,1,106.25,0|8,1:0|0:0,0:0:0:0:
112,168,54343,1,2,0:0:0:0:
264,136,54570,6,0,L|232:320,1,159.375,2|0,1:2|0:0,0:0:0:0:
256,344,55025,1,10,0:0:0:0:
352,296,55252,1,2,1:2:0:0:
352,136,55479,2,0,P|304:64|208:64,1,159.375,2|0,0:0|0:0,0:0:0:0:
208,96,55934,2,0,L|80:104,1,106.25,10|2,0:0|0:0,0:0:0:0:
56,200,56388,6,0,B|40:312|40:312|88:280,1,159.375,2|2,1:2|0:0,0:0:0:0:
128,264,56843,2,0,P|184:264|240:296,1,106.25,8|2,0:0|1:2,0:0:0:0:
296,208,57297,2,0,P|352:208|432:112,1,159.375,2|2,0:0|0:0,0:0:0:0:
424,88,57752,1,8,0:0:0:0:
320,96,57979,1,2,0:0:0:0:
296,208,58206,6,0,L|304:344,2,106.25,2|0|8,1:2|1:0|0:0,0:0:0:0:
200,168,58888,1,0,1:0:0:0:
200,168,59002,2,0,P|150:183|97:178,1,106.25,8|0,0:0|0:0,0:0:0:0:
48,160,59343,1,2,1:2:0:0:
72,56,59570,1,10,0:0:0:0:
176,32,59797,1,0,1:0:0:0:
176,32,59911,1,0,1:0:0:0:
176,32,60025,6,0,P|264:32|296:88,1,159.375,2|0,1:2|0:0,0:0:0:0:
256,120,60479,1,10,0:0:0:0:
176,192,60706,2,0,L|344:208,1,159.375,2|0,1:2|0:0,0:0:0:0:
352,256,61161,1,2,1:2:0:0:
400,160,61388,2,0,P|455:153|512:160,1,106.25,8|2,0:0|0:0,0:0:0:0:
352,256,61843,6,0,B|272:248|272:296|192:280,1,159.375,2|0,1:2|0:0,0:0:0:0:
144,264,62297,1,10,0:0:0:0:
32,240,62525,2,0,L|40:64,1,159.375,2|0,1:2|0:0,0:0:0:0:
80,40,62979,1,2,1:2:0:0:
200,64,63206,2,0,B|280:48|280:96|384:56,1,159.375,8|0,0:0|0:0,0:0:0:0:
400,40,63661,6,0,L|392:168,1,106.25,2|0,1:2|1:0,0:0:0:0:
480,208,64115,2,0,L|472:336,1,106.25,8|2,0:0|1:2,0:0:0:0:
432,344,64456,1,8,0:0:0:0:
432,344,64570,2,0,B|328:304|328:384|176:328,1,212.5,2|8,0:0|0:0,0:0:0:0:
144,272,65252,1,2,0:0:0:0:
144,272,65479,6,0,B|152:192|152:192|144:96,1,159.375,2|0,1:2|0:0,0:0:0:0:
109,73,65934,2,0,L|221:65,1,106.25,10|0,0:0|1:0,0:0:0:0:
333,169,66388,2,0,L|227:161,1,106.25,2|0,0:0|1:0,0:0:0:0:
355,65,66843,2,0,L|429:73,3,53.125,10|8|8|8,0:0|0:0|0:0|0:0,0:0:0:0:
453,97,67297,6,0,P|421:169|437:225,1,106.25,2|0,1:2|1:0,0:0:0:0:
501,273,67752,2,0,L|365:265,1,106.25,8|0,0:0|1:0,0:0:0:0:
368,312,68093,2,0,L|232:304,1,106.25,8|0,0:0|0:0,0:0:0:0:
216,336,68434,1,0,1:0:0:0:
272,200,68661,2,0,P|280:136|264:88,1,106.25,8|2,0:0|0:0,0:0:0:0:
141,95,69115,6,0,L|149:263,1,159.375,2|0,1:2|0:0,0:0:0:0:
101,279,69570,1,10,0:0:0:0:
69,175,69797,1,2,1:2:0:0:
141,95,70025,2,0,P|245:87|285:7,1,159.375,2|0,0:0|0:0,0:0:0:0:
325,39,70479,2,0,L|445:55,1,106.25,10|2,0:0|0:0,0:0:0:0:
448,200,70934,6,0,B|376:176|376:232|288:200,1,159.375,2|2,1:2|0:0,0:0:0:0:
256,224,71388,2,0,L|264:344,1,106.25,8|2,0:0|1:2,0:0:0:0:
112,272,71843,2,0,P|128:184|112:88,1,159.375,2|2,0:0|0:0,0:0:0:0:
96,64,72297,2,0,L|232:56,1,106.25,8|2,0:0|0:0,0:0:0:0:
264,144,72752,5,2,1:2:0:0:
264,144,72979,1,0,1:0:0:0:
368,112,73206,2,0,P|384:56|368:0,1,106.25,8|0,0:0|1:0,0:0:0:0:
320,0,73547,2,0,L|193:10,1,106.25,8|0,0:0|0:0,0:0:0:0:
200,56,73888,1,2,1:2:0:0:
304,176,74115,2,0,P|288:256|296:288,1,106.25,10|2,0:0|1:2,0:0:0:0:
256,320,74456,1,0,1:0:0:0:
256,320,74570,6,0,B|176:304|184:344|72:320,1,159.375,2|0,1:2|0:0,0:0:0:0:
48,320,75025,1,10,0:0:0:0:
104,224,75252,2,0,P|112:152|104:40,1,159.375,2|0,1:2|0:0,0:0:0:0:
72,32,75706,1,2,1:2:0:0:
176,32,75934,2,0,P|186:104|185:161,1,106.25,8|2,0:0|0:0,0:0:0:0:
240,224,76388,6,0,P|328:208|440:208,1,159.375,2|0,1:2|0:0,0:0:0:0:
440,240,76843,1,10,0:0:0:0:
480,144,77070,2,0,P|400:112|408:16,1,159.375,2|0,1:2|0:0,0:0:0:0:
352,8,77525,2,0,P|288:24|240:24,1,106.25,2|8,1:2|0:0,0:0:0:0:
176,96,77979,1,2,0:0:0:0:
176,96,78206,6,0,P|112:80|64:80,1,106.25,2|0,1:2|1:2,0:0:0:0:
104,192,78661,1,8,0:0:0:0:
8,240,78888,1,2,1:2:0:0:
8,240,79002,1,8,0:0:0:0:
8,240,79115,2,0,P|64:264|101:183,1,159.375,2|0,0:0|0:0,0:0:0:0:
120,144,79570,2,0,L|128:32,1,106.25,8|2,0:0|0:0,0:0:0:0:
256,24,80025,6,0,L|263:129,1,106.25,2|0,1:2|1:2,0:0:0:0:
392,144,80479,2,0,L|384:38,1,106.25,10|0,0:0|0:0,0:0:0:0:
488,48,80934,2,0,P|488:104|480:128,3,53.125,2|0|0|0,1:2|1:0|1:0|1:0,0:0:0:0:
480,152,81388,2,0,P|472:208|472:232,3,53.125,10|8|8|8,0:0|0:0|0:0|0:0,0:0:0:0:
440,232,81843,6,0,P|384:232|336:208,1,85,2|0,1:2|0:0,0:0:0:0:
304,136,82297,1,8,0:0:0:0:
216,80,82525,2,0,L|232:240,1,127.5,0|0,0:0|0:0,0:0:0:0:
184,232,82979,1,0,0:0:0:0:
72,336,83206,6,0,P|144:328|184:328,1,85,8|0,0:0|0:0,0:0:0:0:
256,352,83661,2,0,P|328:360|368:360,1,85,0|0,1:0|0:0,0:0:0:0:
392,272,84115,1,8,0:0:0:0:
392,272,84230,1,0,0:0:0:0:
392,272,84343,2,0,P|392:179|400:88,1,170,0|0,0:0|0:0,0:0:0:0:
320,40,85025,1,8,0:0:0:0:
416,16,85252,1,0,0:0:0:0:
312,128,85479,6,0,P|256:136|208:128,1,85,0|0,1:0|0:0,0:0:0:0:
152,64,85934,1,8,0:0:0:0:
64,120,86161,2,0,P|72:224|72:280,1,127.5,0|0,0:0|0:0,0:0:0:0:
48,288,86615,1,0,0:0:0:0:
152,272,86843,1,8,0:0:0:0:
256,256,87070,1,0,0:0:0:0:
256,256,87297,6,0,L|248:360,2,85,0|0|8,1:0|0:0|0:0,0:0:0:0:
192,176,87979,2,0,P|176:120|272:48,1,170,8|8,0:0|0:0,0:0:0:0:
344,80,88661,1,8,0:0:0:0:
256,128,88888,5,8,0:0:0:0:
