osu file format v14

[General]
AudioFilename: audio.mp3
AudioLeadIn: 0
PreviewTime: -1
Countdown: 1
SampleSet: None
StackLeniency: 0.7
Mode: 0
LetterboxInBreaks: 0
WidescreenStoryboard: 1

[Editor]
DistanceSpacing: 1
BeatDivisor: 4
GridSize: 4
TimelineZoom: 3.099999

[Metadata]
Title:
TitleUnicode:
Artist:LenkaVEVO
ArtistUnicode:LenkaVEVO
Creator:dima4e4a
Version:Hits
Source:
Tags:
BeatmapID:1954592
BeatmapSetID:930957

[Difficulty]
HPDrainRate:7
CircleSize:4
OverallDifficulty:6
ApproachRate:9
SliderMultiplier:2.2
SliderTickRate:1

[Events]
//Background and Video events
0,0,"lenka.jpg",0,0
//Break Periods
2,99153,105811
//Storyboard Layer 0 (Background)
//Storyboard Layer 1 (Fail)
//Storyboard Layer 2 (Pass)
//Storyboard Layer 3 (Foreground)
//Storyboard Sound Samples

[TimingPoints]
400,414.107253778729,4,2,0,50,1,0
1433,-133.333333333333,4,2,0,50,0,0
13123,-80,4,2,0,50,0,0
13536,-133.333333333333,4,3,0,50,0,0
30467,-100,4,3,0,50,0,0
32054,-133.333333333333,4,2,0,50,0,0
40123,-200,4,2,0,50,0,0
41674,-133.333333333333,4,3,0,50,0,0
41881,-133.333333333333,4,3,0,50,0,0
42614,-133.333333333333,4,3,0,50,0,0
56664,-133.333333333333,4,2,0,50,0,0
89157,-133.333333333333,4,2,0,50,0,0
93112,-285.714285714286,4,2,0,50,0,0
94353,-133.333333333333,4,2,0,50,0,0
94353,-133.333333333333,4,2,0,50,0,0

[HitObjects]
161,158,2056,5,0,0:0:0:0:
177,267,2263,2,0,P|257:218|258:215,1,82.5000031471254
161,158,2884,1,0,0:0:0:0:
218,64,3091,2,0,P|125:50|122:51,1,82.5000031471254
143,213,3712,1,0,0:0:0:0:
143,213,3919,2,0,P|202:285|205:285,1,82.5000031471254
390,92,4541,1,0,0:0:0:0:
398,190,4748,2,0,P|342:179|313:144,1,82.5000031471254
62,49,5369,6,2,L|194:79,1,123.750004720688,2|0,0:0|0:0,0:0:0:0:
136,136,5783,1,0,0:0:0:0:
188,276,6197,1,2,0:0:0:0:
276,152,6611,1,2,0:0:0:0:
117,133,7025,6,2,P|139:204|232:204,1,165.000006294251,2|10,0:0|0:0,0:0:0:0:
202,134,7853,2,2,P|265:135|301:190,1,123.750004720688,2|0,0:0|0:0,0:0:0:0:
360,182,8268,1,10,0:0:0:0:
429,167,8682,2,2,P|392:247|318:242,1,165.000006294251,2|8,0:0|0:0,0:0:0:0:
360,182,9510,6,2,P|288:191|255:241,1,123.750004720688,2|0,0:0|0:0,0:0:0:0:
274,289,9924,1,10,0:0:0:0:
360,161,10338,6,0,P|344:96|290:92,1,123.750004720688
234,99,10752,1,10,0:0:0:0:
79,215,11166,2,2,P|100:278|167:270,1,123.750004720688,2|0,0:0|0:0,0:0:0:0:
212,244,11580,1,10,0:0:0:0:
404,231,11995,2,0,P|427:168|370:132,1,123.750004720688
324,100,12409,1,10,0:0:0:0:
195,151,12823,2,0,P|165:210|218:252,1,123.750004720688
294,284,13237,1,10,0:0:0:0:
179,113,13651,2,2,P|200:176|267:168,1,123.750004720688,2|0,0:0|0:0,0:0:0:0:
325,119,14065,1,10,0:0:0:0:
136,279,14479,2,0,P|146:217|204:173,1,123.750004720688
271,138,14893,1,10,0:0:0:0:
403,164,15307,2,2,P|359:243|335:244,1,123.750004720688,2|0,0:0|0:0,0:0:0:0:
248,232,15721,1,10,0:0:0:0:
198,45,16136,2,2,P|227:121|210:160,1,123.750004720688,2|0,0:0|0:0,0:0:0:0:
160,232,16550,1,10,0:0:0:0:
381,224,16964,1,2,0:0:0:0:
381,224,17171,1,2,0:0:0:0:
248,324,17378,2,2,P|248:256|193:209,1,123.750004720688,2|0,0:0|0:0,0:0:0:0:
203,133,18206,2,2,B|261:142|289:160|325:168|325:168|283:237,1,206.250007867813,2|0,0:0|0:0,0:0:0:0:
227,226,18827,1,10,0:0:0:0:
181,64,19034,2,2,B|133:117|124:155|132:179|168:187,1,123.750004720688,2|0,0:0|0:0,0:0:0:0:
185,203,19448,5,10,0:0:0:0:
373,329,19863,1,2,0:0:0:0:
209,316,20071,1,2,0:0:0:0:
388,220,20278,1,2,0:0:0:0:
360,189,20381,1,2,0:0:0:0:
326,166,20484,1,2,0:0:0:0:
286,156,20588,1,2,0:0:0:0:
246,164,20691,1,2,0:0:0:0:
209,182,20795,1,2,0:0:0:0:
173,202,20898,1,2,0:0:0:0:
133,207,21002,1,2,0:0:0:0:
101,182,21105,1,2,0:0:0:0:
364,262,21519,6,2,P|358:207|312:204,1,82.5000031471254,10|2,0:0|0:0,0:0:0:0:
206,241,21933,1,2,0:0:0:0:
206,241,22140,2,2,P|199:193|241:196,1,82.5000031471254,2|10,0:0|0:0,0:0:0:0:
303,200,22554,1,2,0:0:0:0:
303,200,22761,2,2,P|296:152|338:155,1,82.5000031471254,2|10,0:0|0:0,0:0:0:0:
368,237,23175,6,2,P|375:189|333:192,1,82.5000031471254
396,196,23590,2,10,P|403:148|361:151,1,82.5000031471254
334,124,24004,2,2,P|268:206|121:171,1,247.500009441376,2|10,0:0|0:0,0:0:0:0:
219,101,24832,5,2,0:0:0:0:
219,101,25039,1,2,0:0:0:0:
219,101,25246,1,2,0:0:0:0:
219,101,25453,2,2,L|285:174,1,82.5000031471254,2|10,0:0|0:0,0:0:0:0:
379,215,25867,1,2,0:0:0:0:
379,215,26078,2,2,P|348:260|318:258,1,82.5000031471254,2|10,0:0|0:0,0:0:0:0:
134,217,26488,1,10,0:0:0:0:
134,217,26695,2,2,B|148:140|148:250|166:211|171:212,1,41.2500015735627
161,208,26902,5,2,0:0:0:0:
175,246,27006,1,2,0:0:0:0:
207,271,27109,1,2,0:0:0:0:
248,276,27213,1,2,0:0:0:0:
285,259,27316,1,2,0:0:0:0:
224,168,27524,1,10,0:0:0:0:
400,194,27731,2,2,P|374:265|303:282,1,123.750004720688
287,286,28145,1,10,0:0:0:0:
236,92,28352,1,10,0:0:0:0:
347,134,28559,2,2,P|342:210|287:213,1,123.750004720688,10|2,0:0|0:0,0:0:0:0:
256,209,28973,1,10,0:0:0:0:
201,37,29180,1,2,0:0:0:0:
101,69,29387,2,2,B|168:166|158:151,1,82.5000031471254,2|10,0:0|0:0,0:0:0:0:
191,217,29801,6,2,L|88:191,1,82.5000031471254
231,284,30215,2,2,P|259:255|262:213,1,82.5000031471254
220,132,30629,2,2,L|180:86,1,55
220,132,30836,2,2,L|189:64,1,55
324,136,31043,2,2,L|363:78,1,55
324,136,31250,2,2,L|390:120,1,55
336,268,31458,2,2,L|391:298,1,55
336,268,31665,2,2,L|369:343,1,55
184,271,31872,2,2,L|157:330,1,55
184,271,32079,2,2,L|220:295,1,41.2500015735627
192,100,32286,6,2,P|165:141|54:144,2,165.000006294251,10|2|10,0:0|0:0|0:0,0:0:0:0:
447,97,33528,1,2,0:0:0:0:
424,131,33632,1,2,0:0:0:0:
391,154,33735,1,2,0:0:0:0:
350,163,33839,1,2,0:0:0:0:
309,164,33942,1,2,0:0:0:0:
268,168,34046,1,2,0:0:0:0:
237,188,34149,1,2,0:0:0:0:
237,217,34253,1,2,0:0:0:0:
261,237,34356,1,2,0:0:0:0:
280,247,34460,1,0,0:0:0:0:
300,264,34563,2,2,P|266:320|226:320,1,82.5000031471254,2|10,0:0|0:0,0:0:0:0:
114,198,34977,5,2,0:0:0:0:
308,290,35185,1,2,0:0:0:0:
277,68,35392,1,2,0:0:0:0:
114,198,35599,1,10,0:0:0:0:
222,112,35806,6,2,P|250:186|188:270,1,165.000006294251
90,346,36427,1,10,0:0:0:0:
45,279,36634,1,2,0:0:0:0:
60,184,36841,2,2,P|135:237|189:205,1,165.000006294251,2|10,0:0|0:0,0:0:0:0:
133,126,37462,1,2,0:0:0:0:
244,254,37669,2,2,B|179:334|80:294,1,165.000006294251,2|10,0:0|0:0,0:0:0:0:
371,163,38290,1,2,0:0:0:0:
334,248,38497,2,2,B|309:173|278:144|250:138|223:169,1,165.000006294251,2|10,0:0|0:0,0:0:0:0:
444,266,39119,1,2,0:0:0:0:
408,352,39326,2,2,B|383:277|352:248|324:242|297:273,1,165.000006294251,2|10,0:0|0:0,0:0:0:0:
203,206,39947,6,2,L|271:196,1,41.2500015735627
261,138,40154,2,2,P|310:179|261:258,1,165.000006294251,2|10,0:0|0:0,0:0:0:0:
332,289,40982,1,2,0:0:0:0:
127,207,41189,1,2,0:0:0:0:
359,184,41396,1,2,0:0:0:0:
136,310,41603,1,2,0:0:0:0:
359,184,41810,2,2,P|394:242|380:248,1,82.5000031471254,10|0,0:0|0:0,0:0:0:0:
72,217,43467,6,2,P|131:157|206:185,1,165.000006294251,2|10,0:0|0:0,0:0:0:0:
144,228,44295,2,2,P|228:248|272:188,1,165.000006294251,2|10,0:0|0:0,0:0:0:0:
344,57,45123,6,2,P|327:139|392:185,1,165.000006294251,2|10,0:0|0:0,0:0:0:0:
392,108,45951,2,2,P|456:164|436:236,1,165.000006294251,2|10,0:0|0:0,0:0:0:0:
103,44,46780,6,2,P|46:106|78:179,1,165.000006294251,2|10,0:0|0:0,0:0:0:0:
118,116,47608,2,2,P|140:188|84:248,1,165.000006294251,2|10,0:0|0:0,0:0:0:0:
310,271,48436,2,0,L|362:151,1,123.750004720688
310,271,48850,1,10,0:0:0:0:
204,174,49264,2,2,L|149:51,1,123.750004720688,2|0,0:0|0:0,0:0:0:0:
204,174,49678,1,10,0:0:0:0:
429,188,50092,2,2,L|310:147,1,123.750004720688,2|0,0:0|0:0,0:0:0:0:
298,87,50506,1,10,0:0:0:0:
203,224,50921,2,2,L|318:284,1,123.750004720688,2|0,0:0|0:0,0:0:0:0:
316,342,51335,1,10,0:0:0:0:
341,151,51749,2,2,P|363:115|356:107,1,41.2500015735627
326,129,51956,2,2,P|337:88|328:82,1,41.2500015735627
285,122,52163,2,2,P|248:168|226:155,1,82.5000031471254
177,166,52473,2,2,P|226:235|305:198,1,165.000006294251,2|0,0:0|0:0,0:0:0:0:
336,179,52991,1,10,0:0:0:0:
207,282,53405,2,2,L|110:142,1,165.000006294251,2|10,0:0|0:0,0:0:0:0:
217,178,54233,2,2,P|286:197|304:118,1,165.000006294251,2|10,0:0|0:0,0:0:0:0:
346,222,55062,2,2,L|383:299,1,82.5000031471254,2|10,0:0|0:0,0:0:0:0:
235,217,55476,2,2,L|225:308,1,82.5000031471254,2|10,0:0|0:0,0:0:0:0:
114,197,55890,2,2,L|83:275,1,82.5000031471254,2|10,0:0|0:0,0:0:0:0:
210,131,56304,2,2,P|246:152|284:129,1,82.5000031471254,2|10,0:0|0:0,0:0:0:0:
312,229,56718,2,2,P|360:219|359:191,1,82.5000031471254
348,102,57132,1,2,0:0:0:0:
348,102,57339,1,2,0:0:0:0:
348,102,57546,2,2,P|333:154|295:157,1,82.5000031471254,2|10,0:0|0:0,0:0:0:0:
206,178,57960,1,2,0:0:0:0:
277,235,58167,1,2,0:0:0:0:
378,197,58375,2,2,P|391:244|374:269,1,82.5000031471254
105,188,58789,2,6,P|118:231|143:241,1,41.2500015735627
105,188,58996,2,6,P|132:223|159:223,1,41.2500015735627
105,188,59203,2,6,P|142:212|168:204,1,41.2500015735627
232,176,59617,1,0,0:0:0:0:
440,272,60031,2,2,L|307:311,1,123.750004720688
440,272,60445,1,10,0:0:0:0:
216,167,60859,2,2,L|348:131,1,123.750004720688
216,167,61273,1,10,0:0:0:0:
452,283,61687,6,2,L|339:219,1,123.750004720688
452,283,62101,1,10,0:0:0:0:
198,84,62516,1,0,0:0:0:0:
298,294,62930,1,0,0:0:0:0:
474,287,63344,6,2,P|455:206|370:206,1,165.000006294251,2|10,0:0|0:0,0:0:0:0:
412,256,64172,2,2,P|351:257|317:209,1,123.750004720688,2|0,0:0|0:0,0:0:0:0:
383,197,64586,1,10,0:0:0:0:
320,164,65000,2,2,P|388:127|450:179,1,165.000006294251,2|10,0:0|0:0,0:0:0:0:
247,181,65828,6,2,P|278:228|342:203,1,123.750004720688,2|0,0:0|0:0,0:0:0:0:
373,164,66243,1,10,0:0:0:0:
263,284,66657,2,2,P|192:337|140:285,1,165.000006294251,2|10,0:0|0:0,0:0:0:0:
199,247,67485,6,2,P|161:211|95:222,1,123.750004720688,2|0,0:0|0:0,0:0:0:0:
180,139,67899,1,10,0:0:0:0:
180,139,68313,6,2,L|323:116,1,123.750004720688,2|0,0:0|0:0,0:0:0:0:
180,139,68727,1,10,0:0:0:0:
156,247,69141,2,2,L|142:190,1,41.2500015735627
363,312,69555,2,2,L|398:272,1,41.2500015735627
356,204,69970,5,2,0:0:0:0:
333,200,70073,1,2,0:0:0:0:
311,194,70177,1,2,0:0:0:0:
292,184,70280,1,2,0:0:0:0:
274,171,70384,1,2,0:0:0:0:
260,156,70487,1,2,0:0:0:0:
236,140,70591,5,2,0:0:0:0:
208,128,70694,1,0,0:0:0:0:
177,124,70797,1,0,0:0:0:0:
147,132,70901,1,0,0:0:0:0:
124,152,71004,1,0,0:0:0:0:
109,179,71108,1,0,0:0:0:0:
106,210,71211,1,0,0:0:0:0:
108,240,71315,1,0,0:0:0:0:
124,264,71418,1,0,0:0:0:0:
140,276,71522,1,0,0:0:0:0:
164,288,71626,1,0,0:0:0:0:
188,292,71729,1,0,0:0:0:0:
212,292,71833,1,0,0:0:0:0:
240,284,71937,1,2,0:0:0:0:
268,268,72040,1,2,0:0:0:0:
292,248,72144,1,2,0:0:0:0:
309,222,72247,1,2,0:0:0:0:
330,205,72351,1,2,0:0:0:0:
358,201,72454,1,2,0:0:0:0:
97,169,72868,6,2,P|103:231|171:224,1,123.750004720688,10|2,0:0|0:0,0:0:0:0:
219,200,73282,1,2,0:0:0:0:
240,265,73489,1,2,0:0:0:0:
315,222,73696,2,2,P|314:177|278:158,1,82.5000031471254,10|2,0:0|0:0,0:0:0:0:
206,139,74111,2,2,P|265:70|337:99,1,165.000006294251,2|10,0:0|0:0,0:0:0:0:
389,162,74732,1,2,0:0:0:0:
389,162,74939,1,2,0:0:0:0:
389,162,75353,2,2,P|360:204|325:205,1,82.5000031471254,2|0,0:0|0:0,0:0:0:0:
393,209,75767,2,2,P|364:251|329:252,1,82.5000031471254,2|0,0:0|0:0,0:0:0:0:
401,256,76181,2,2,P|372:298|337:299,1,82.5000031471254,2|0,0:0|0:0,0:0:0:0:
208,280,76595,5,2,0:0:0:0:
180,283,76699,1,2,0:0:0:0:
152,285,76802,1,2,0:0:0:0:
124,282,76906,1,2,0:0:0:0:
98,274,77009,1,2,0:0:0:0:
75,259,77113,1,2,0:0:0:0:
56,238,77216,1,2,0:0:0:0:
55,197,77320,1,2,0:0:0:0:
76,163,77423,1,2,0:0:0:0:
112,143,77527,1,2,0:0:0:0:
153,137,77631,1,2,0:0:0:0:
193,141,77734,1,2,0:0:0:0:
233,154,77838,1,2,0:0:0:0:
274,165,77941,1,2,0:0:0:0:
319,184,78045,1,2,0:0:0:0:
367,198,78148,1,2,0:0:0:0:
405,196,78252,5,2,0:0:0:0:
443,181,78355,1,2,0:0:0:0:
460,144,78459,1,2,0:0:0:0:
456,112,78562,1,2,0:0:0:0:
440,86,78666,1,2,0:0:0:0:
415,67,78769,1,2,0:0:0:0:
389,60,78873,1,2,0:0:0:0:
354,54,78976,1,2,0:0:0:0:
318,54,79080,1,2,0:0:0:0:
282,59,79183,1,2,0:0:0:0:
121,107,79494,6,2,L|88:187,1,82.5000031471254
240,123,79908,2,2,L|255:206,1,82.5000031471254
418,140,80322,5,2,0:0:0:0:
422,180,80426,1,2,0:0:0:0:
418,222,80529,1,2,0:0:0:0:
407,261,80633,1,2,0:0:0:0:
386,296,80736,1,2,0:0:0:0:
351,316,80840,1,2,0:0:0:0:
328,285,80943,1,2,0:0:0:0:
313,248,81047,1,2,0:0:0:0:
275,262,81150,1,2,0:0:0:0:
240,283,81254,1,2,0:0:0:0:
204,303,81357,1,2,0:0:0:0:
165,316,81461,1,2,0:0:0:0:
126,307,81565,1,2,0:0:0:0:
109,270,81668,1,2,0:0:0:0:
107,229,81772,1,2,0:0:0:0:
110,188,81875,1,2,0:0:0:0:
118,141,81979,2,2,L|172:210,1,82.5000031471254
131,63,82393,6,2,L|185:132,1,82.5000031471254
412,63,82807,2,2,L|355:133,1,82.5000031471254
235,301,83221,1,2,0:0:0:0:
276,307,83324,1,2,0:0:0:0:
317,309,83428,1,2,0:0:0:0:
358,305,83532,1,2,0:0:0:0:
398,293,83635,1,2,0:0:0:0:
428,268,83739,1,2,0:0:0:0:
446,240,83842,1,2,0:0:0:0:
447,206,83946,1,2,0:0:0:0:
430,178,84049,1,2,0:0:0:0:
400,162,84153,1,2,0:0:0:0:
376,160,84256,1,2,0:0:0:0:
336,164,84360,1,2,0:0:0:0:
296,177,84463,1,2,0:0:0:0:
258,193,84567,1,2,0:0:0:0:
220,209,84670,1,2,0:0:0:0:
180,220,84774,1,2,0:0:0:0:
144,216,84877,1,2,0:0:0:0:
110,202,84981,1,2,0:0:0:0:
87,174,85084,1,2,0:0:0:0:
84,133,85188,1,2,0:0:0:0:
95,98,85291,1,2,0:0:0:0:
120,73,85395,1,2,0:0:0:0:
159,55,85499,1,2,0:0:0:0:
196,52,85602,1,2,0:0:0:0:
240,56,85706,1,2,0:0:0:0:
280,65,85809,1,2,0:0:0:0:
316,80,85913,1,2,0:0:0:0:
393,113,86120,6,2,L|435:193,1,82.5000031471254
249,130,86534,2,2,L|240:219,1,82.5000031471254
56,100,86948,1,2,0:0:0:0:
90,122,87051,1,2,0:0:0:0:
120,150,87155,1,2,0:0:0:0:
104,183,87258,1,2,0:0:0:0:
66,199,87362,1,2,0:0:0:0:
30,218,87466,1,2,0:0:0:0:
33,254,87569,1,2,0:0:0:0:
68,276,87673,1,2,0:0:0:0:
107,290,87776,1,2,0:0:0:0:
147,292,87880,1,2,0:0:0:0:
182,290,87983,1,2,0:0:0:0:
215,285,88087,1,2,0:0:0:0:
247,264,88190,1,2,0:0:0:0:
268,225,88294,1,2,0:0:0:0:
276,190,88397,1,2,0:0:0:0:
296,166,88501,1,2,0:0:0:0:
331,160,88604,1,2,0:0:0:0:
364,174,88708,1,2,0:0:0:0:
389,200,88811,1,2,0:0:0:0:
411,227,88915,1,2,0:0:0:0:
445,235,89018,1,2,0:0:0:0:
257,265,89433,5,10,0:0:0:0:
257,265,89640,1,2,0:0:0:0:
276,332,89847,2,2,P|194:307|191:238,1,165.000006294251,2|10,0:0|0:0,0:0:0:0:
131,183,90675,2,2,L|202:67,1,123.750004720688,2|0,0:0|0:0,0:0:0:0:
131,183,91089,1,10,0:0:0:0:
223,152,91296,1,2,0:0:0:0:
409,147,91503,2,2,P|415:209|361:237,1,123.750004720688,10|2,0:0|0:0,0:0:0:0:
350,180,91917,2,2,P|301:223|322:284,1,123.750004720688,10|2,0:0|0:0,0:0:0:0:
371,300,92331,2,2,P|328:340|271:323,1,123.750004720688,10|2,0:0|0:0,0:0:0:0:
184,279,92745,2,10,P|229:234|217:180,1,123.750004720688
164,216,93160,2,2,P|154:157|218:124,1,123.750004720688,10|2,0:0|0:0,0:0:0:0:
256,192,93988,12,2,98953,0:0:0:0:
130,169,106411,6,2,P|189:229|264:200,1,165.000006294251,2|10,0:0|0:0,0:0:0:0:
202,158,107239,2,2,P|284:140|328:200,1,165.000006294251,2|10,0:0|0:0,0:0:0:0:
372,260,108067,2,2,L|258:321,1,123.750004720688,2|0,0:0|0:0,0:0:0:0:
372,260,108481,1,10,0:0:0:0:
115,201,108896,2,2,L|235:139,1,123.750004720688,2|0,0:0|0:0,0:0:0:0:
115,201,109310,1,10,0:0:0:0:
372,253,109723,6,2,L|250:225,1,123.750004720688,2|0,0:0|0:0,0:0:0:0:
372,253,110138,1,10,0:0:0:0:
383,130,110552,2,2,L|408:175,1,41.2500015735627
138,135,110966,2,2,L|117:177,1,41.2500015735627
394,250,111380,6,2,P|351:173|267:203,1,165.000006294251,10|2,0:0|0:0,0:0:0:0:
324,237,112208,2,2,P|268:246|220:195,1,123.750004720688,2|0,0:0|0:0,0:0:0:0:
271,166,112623,1,10,0:0:0:0:
201,160,113037,2,2,P|264:96|330:122,1,165.000006294251,2|10,0:0|0:0,0:0:0:0:
84,284,113865,6,2,P|163:288|176:275,1,82.5000031471254,2|0,0:0|0:0,0:0:0:0:
298,167,114279,1,10,0:0:0:0:
152,223,114693,6,2,P|173:269|209:274,1,82.5000031471254,2|0,0:0|0:0,0:0:0:0:
379,294,115107,1,10,0:0:0:0:
420,173,115521,2,2,P|400:127|365:121,1,82.5000031471254,2|0,0:0|0:0,0:0:0:0:
209,102,115935,1,10,0:0:0:0:
106,218,116350,2,2,B|178:223|187:186|235:193,2,123.750004720688,2|10|2,0:0|0:0|0:0,0:0:0:0:
343,335,117178,2,2,P|350:278|371:259,1,82.5000031471254,10|2,0:0|0:0,0:0:0:0:
306,101,117592,6,2,P|332:138|288:176,1,82.5000031471254,10|2,0:0|0:0,0:0:0:0:
139,74,118006,2,2,B|163:147|194:176|221:182|248:150,1,165.000006294251,10|2,0:0|0:0,0:0:0:0:
426,155,118834,1,2,0:0:0:0:
396,183,118937,1,2,0:0:0:0:
359,202,119040,1,2,0:0:0:0:
319,211,119144,1,2,0:0:0:0:
278,212,119247,1,2,0:0:0:0:
237,210,119351,1,2,0:0:0:0:
196,209,119454,1,2,0:0:0:0:
179,322,119662,2,2,L|305:316,1,123.750004720688,2|0,0:0|0:0,0:0:0:0:
322,257,120076,1,10,0:0:0:0:
354,171,120491,6,2,L|232:116,1,123.750004720688,2|0,0:0|0:0,0:0:0:0:
199,166,120905,1,10,0:0:0:0:
94,173,121319,2,2,P|121:263|179:248,1,165.000006294251,2|10,0:0|0:0,0:0:0:0:
258,152,122147,2,2,P|242:59|182:67,1,165.000006294251,2|10,0:0|0:0,0:0:0:0:
139,173,122975,6,2,P|175:220|243:209,1,123.750004720688,2|0,0:0|0:0,0:0:0:0:
266,159,123389,1,10,0:0:0:0:
342,131,123596,1,10,0:0:0:0:
419,183,123803,2,2,P|398:239|332:240,1,123.750004720688,2|0,0:0|0:0,0:0:0:0:
275,231,124218,1,10,0:0:0:0:
202,196,124632,6,2,L|235:71,1,123.750004720688
316,73,125046,1,10,0:0:0:0:
316,73,125253,1,10,0:0:0:0:
316,73,125460,2,2,L|281:198,1,123.750004720688
325,237,125874,1,10,0:0:0:0:
441,254,126288,6,2,P|431:309|366:319,1,123.750004720688
306,302,126702,1,10,0:0:0:0:
335,153,127116,2,2,L|230:83,1,123.750004720688
256,30,127530,1,10,0:0:0:0:
426,130,127945,2,2,B|381:248|286:93|285:197,1,165.000006294251,2|10,0:0|0:0,0:0:0:0:
73,215,128773,2,2,B|118:333|213:178|214:282,1,165.000006294251,2|10,0:0|0:0,0:0:0:0:
296,311,129601,6,2,P|363:247|335:186,1,165.000006294251,2|10,0:0|0:0,0:0:0:0:
242,204,130429,2,2,P|261:97|312:89,1,165.000006294251,2|10,0:0|0:0,0:0:0:0:
405,135,131257,1,2,0:0:0:0:
146,185,131464,5,2,0:0:0:0:
305,224,131673,1,2,0:0:0:0:
208,68,131880,1,2,0:0:0:0:
223,319,132086,1,2,0:0:0:0:
305,224,132293,1,2,0:0:0:0:
154,241,132500,1,2,0:0:0:0:
333,102,132707,1,2,0:0:0:0:
487,208,132914,5,2,0:0:0:0:
458,178,133017,1,2,0:0:0:0:
422,159,133121,1,2,0:0:0:0:
381,160,133224,1,2,0:0:0:0:
344,176,133328,1,2,0:0:0:0:
310,201,133431,1,2,0:0:0:0:
283,234,133535,1,2,0:0:0:0:
245,265,133639,1,2,0:0:0:0:
204,294,133742,1,2,0:0:0:0:
159,315,133846,1,2,0:0:0:0:
111,324,133949,1,2,0:0:0:0:
63,314,134053,1,2,0:0:0:0:
24,284,134156,1,2,0:0:0:0:
8,248,134260,1,2,0:0:0:0:
2,208,134363,1,2,0:0:0:0:
14,169,134468,1,2,0:0:0:0:
46,144,134570,1,2,0:0:0:0:
86,139,134674,1,2,0:0:0:0:
120,148,134777,1,2,0:0:0:0:
160,159,134881,1,2,0:0:0:0:
200,167,134984,1,2,0:0:0:0:
241,168,135088,1,2,0:0:0:0:
281,159,135191,1,2,0:0:0:0:
318,140,135295,1,2,0:0:0:0:
340,112,135398,1,2,0:0:0:0:
351,73,135502,1,2,0:0:0:0:
323,45,135606,1,2,0:0:0:0:
219,75,135813,6,2,L|135:68,1,82.5000031471254
222,161,136227,2,2,L|130:181,1,82.5000031471254
189,265,136642,1,2,0:0:0:0:
199,301,136744,1,2,0:0:0:0:
221,334,136848,1,2,0:0:0:0:
259,348,136951,1,2,0:0:0:0:
300,349,137055,1,2,0:0:0:0:
340,340,137158,1,2,0:0:0:0:
377,320,137262,1,2,0:0:0:0:
405,291,137365,1,2,0:0:0:0:
423,254,137469,1,2,0:0:0:0:
431,213,137573,1,2,0:0:0:0:
430,172,137676,1,2,0:0:0:0:
418,133,137780,1,2,0:0:0:0:
263,72,138297,6,2,P|203:80|192:103,1,82.5000031471254
270,104,138711,2,2,P|210:112|199:135,1,82.5000031471254
287,139,139125,2,2,P|227:147|216:170,1,82.5000031471254
130,246,139540,1,2,0:0:0:0:
163,269,139643,1,2,0:0:0:0:
202,283,139747,1,2,0:0:0:0:
243,288,139850,1,2,0:0:0:0:
284,284,139954,1,2,0:0:0:0:
323,271,140057,1,2,0:0:0:0:
352,256,140160,1,2,0:0:0:0:
376,232,140264,1,2,0:0:0:0:
392,200,140368,1,2,0:0:0:0:
400,168,140471,1,2,0:0:0:0:
392,132,140575,1,2,0:0:0:0:
372,104,140678,1,2,0:0:0:0:
348,80,140782,1,2,0:0:0:0:
320,68,140885,1,2,0:0:0:0:
292,60,140989,1,2,0:0:0:0:
254,58,141092,1,2,0:0:0:0:
217,64,141196,1,2,0:0:0:0:
182,77,141299,1,2,0:0:0:0:
150,96,141403,1,2,0:0:0:0:
121,120,141507,1,2,0:0:0:0:
98,149,141610,1,2,0:0:0:0:
81,183,141714,1,2,0:0:0:0:
73,219,141817,1,2,0:0:0:0:
76,257,141921,1,2,0:0:0:0:
91,291,142024,1,2,0:0:0:0:
114,320,142126,1,2,0:0:0:0:
144,343,142231,1,2,0:0:0:0:
180,356,142335,1,0,0:0:0:0:
222,319,142439,6,2,L|305:296,1,82.5000031471254
287,285,142749,2,2,L|348:225,1,82.5000031471254
330,180,143267,2,2,P|273:224|181:197,6,165.000006294251
297,330,146165,1,2,0:0:0:0:
256,336,146269,1,2,0:0:0:0:
215,338,146372,1,2,0:0:0:0:
174,334,146476,1,2,0:0:0:0:
134,322,146579,1,2,0:0:0:0:
99,300,146683,1,2,0:0:0:0:
80,268,146786,1,2,0:0:0:0:
79,236,146890,1,2,0:0:0:0:
95,209,146993,1,2,0:0:0:0:
124,196,147097,1,2,0:0:0:0:
156,200,147201,1,2,0:0:0:0:
213,170,147304,1,2,0:0:0:0:
253,183,147408,1,2,0:0:0:0:
291,199,147511,1,2,0:0:0:0:
329,215,147615,1,2,0:0:0:0:
369,226,147718,1,2,0:0:0:0:
404,224,147822,1,2,0:0:0:0:
438,210,147925,1,2,0:0:0:0:
462,181,148029,1,2,0:0:0:0:
464,144,148132,1,2,0:0:0:0:
445,112,148236,1,2,0:0:0:0:
416,92,148339,1,2,0:0:0:0:
348,116,148443,1,0,0:0:0:0:
325,126,148546,1,0,0:0:0:0:
302,136,148650,1,0,0:0:0:0:
279,146,148753,1,0,0:0:0:0:
256,157,148857,1,0,0:0:0:0:
136,132,149064,2,0,L|84:212,1,82.5000031471254
241,158,149478,2,2,L|250:258,1,82.5000031471254
460,156,149892,1,0,0:0:0:0:
452,196,149996,1,0,0:0:0:0:
415,208,150099,1,2,0:0:0:0:
374,211,150203,1,2,0:0:0:0:
336,196,150306,1,2,0:0:0:0:
301,174,150410,1,2,0:0:0:0:
267,151,150513,1,2,0:0:0:0:
231,130,150617,1,2,0:0:0:0:
193,115,150720,1,2,0:0:0:0:
152,109,150824,1,2,0:0:0:0:
112,115,150927,1,2,0:0:0:0:
76,135,151031,1,2,0:0:0:0:
50,167,151135,1,2,0:0:0:0:
40,207,151238,1,2,0:0:0:0:
48,247,151342,1,2,0:0:0:0:
73,280,151445,1,2,0:0:0:0:
108,300,151549,1,2,0:0:0:0:
149,309,151652,1,2,0:0:0:0:
190,310,151756,1,2,0:0:0:0:
232,302,151858,1,2,0:0:0:0:
256,192,152066,12,0,153928,0:0:0:0:
390,262,154447,6,2,L|421:166,1,82.5000031471254,10|2,0:0|0:0,0:0:0:0:
344,236,154862,2,2,L|357:146,1,82.5000031471254,10|2,0:0|0:0,0:0:0:0:
303,221,155276,2,2,L|299:138,1,82.5000031471254,10|2,0:0|0:0,0:0:0:0:
251,209,155690,2,4,L|229:116,2,82.5000031471254,0|8|0,0:0|0:0|0:0,0:0:0:0:
