osu file format v14

[General]
AudioFilename: audio.mp3
AudioLeadIn: 0
PreviewTime: 128444
Countdown: 0
SampleSet: Normal
StackLeniency: 0.7
Mode: 3
LetterboxInBreaks: 0
SpecialStyle: 0
WidescreenStoryboard: 0

[Editor]
Bookmarks: 27261
DistanceSpacing: 0.8
BeatDivisor: 8
GridSize: 32
TimelineZoom: 2

[Metadata]
Title:Trouble Is a Friend (Nightcore Remix)
TitleUnicode:Trouble Is a Friend (Nightcore Remix)
Artist:Lenka
ArtistUnicode:Lenka
Creator:Wh1teh
Version:k
Source:
Tags:
BeatmapID:1826161
BeatmapSetID:873677

[Difficulty]
HPDrainRate:9
CircleSize:4
OverallDifficulty:9
ApproachRate:5
SliderMultiplier:1.4
SliderTickRate:1

[Events]
//Background and Video events
0,0,"BG.jpg",0,0
//Break Periods
2,55919,62424
//Storyboard Layer 0 (Background)
//Storyboard Layer 1 (Fail)
//Storyboard Layer 2 (Pass)
//Storyboard Layer 3 (Foreground)
//Storyboard Sound Samples

[TimingPoints]
1570,395.246842105263,4,1,0,100,1,0
1966,395.246842105263,4,1,0,100,1,0

[HitObjects]
64,192,1570,5,0,0:0:0:0:
320,192,1570,1,0,0:0:0:0:
192,192,1767,1,0,0:0:0:0:
448,192,1767,1,0,0:0:0:0:
64,192,1965,1,0,0:0:0:0:
448,192,1966,1,0,0:0:0:0:
320,192,1966,1,0,0:0:0:0:
192,192,2163,1,0,0:0:0:0:
64,192,2361,1,0,0:0:0:0:
448,192,2361,1,0,0:0:0:0:
320,192,2361,1,0,0:0:0:0:
64,192,2558,1,0,0:0:0:0:
192,192,2558,1,0,0:0:0:0:
320,192,2558,1,0,0:0:0:0:
192,192,2756,1,0,0:0:0:0:
64,192,2756,1,0,0:0:0:0:
448,192,2756,1,0,0:0:0:0:
320,192,2954,1,0,0:0:0:0:
192,192,3151,1,0,0:0:0:0:
64,192,3151,1,0,0:0:0:0:
448,192,3151,1,0,0:0:0:0:
192,192,3349,1,0,0:0:0:0:
448,192,3546,1,0,0:0:0:0:
320,192,3546,1,0,0:0:0:0:
64,192,3546,1,0,0:0:0:0:
64,192,3744,1,0,0:0:0:0:
192,192,3744,1,0,0:0:0:0:
448,192,3744,1,0,0:0:0:0:
320,192,3942,1,0,0:0:0:0:
192,192,3942,1,0,0:0:0:0:
448,192,3942,1,0,0:0:0:0:
320,192,4139,1,0,0:0:0:0:
192,192,4139,1,0,0:0:0:0:
64,192,4139,1,0,0:0:0:0:
64,192,4337,1,0,0:0:0:0:
448,192,4337,1,0,0:0:0:0:
192,192,4337,1,0,0:0:0:0:
320,192,4535,1,0,0:0:0:0:
64,192,4732,1,0,0:0:0:0:
320,192,4732,1,0,0:0:0:0:
448,192,4732,1,0,0:0:0:0:
64,192,4930,1,0,0:0:0:0:
192,192,4930,1,0,0:0:0:0:
448,192,4930,1,0,0:0:0:0:
192,192,5127,1,0,0:0:0:0:
320,192,5127,1,0,0:0:0:0:
448,192,5127,1,0,0:0:0:0:
64,192,5325,1,0,0:0:0:0:
192,192,5523,1,0,0:0:0:0:
320,192,5523,1,0,0:0:0:0:
448,192,5523,1,0,0:0:0:0:
448,192,5720,1,0,0:0:0:0:
192,192,5720,1,0,0:0:0:0:
64,192,5720,1,0,0:0:0:0:
64,192,5918,1,0,0:0:0:0:
192,192,5918,1,0,0:0:0:0:
320,192,5918,1,0,0:0:0:0:
448,192,6116,1,0,0:0:0:0:
64,192,6313,1,0,0:0:0:0:
320,192,6313,1,0,0:0:0:0:
448,192,6313,1,0,0:0:0:0:
192,192,6511,1,0,0:0:0:0:
192,192,6708,1,0,0:0:0:0:
320,192,6708,1,0,0:0:0:0:
448,192,6708,1,0,0:0:0:0:
64,192,6906,1,0,0:0:0:0:
448,192,6906,1,0,0:0:0:0:
192,192,6906,1,0,0:0:0:0:
64,192,7104,1,0,0:0:0:0:
320,192,7104,1,0,0:0:0:0:
448,192,7104,1,0,0:0:0:0:
320,192,7301,1,0,0:0:0:0:
64,192,7499,1,0,0:0:0:0:
192,192,7499,1,0,0:0:0:0:
448,192,7499,1,0,0:0:0:0:
320,192,7697,1,0,0:0:0:0:
64,192,7894,1,0,0:0:0:0:
320,192,7894,1,0,0:0:0:0:
192,192,7894,1,0,0:0:0:0:
192,192,8092,1,0,0:0:0:0:
64,192,8092,1,0,0:0:0:0:
448,192,8092,1,0,0:0:0:0:
64,192,8289,1,0,0:0:0:0:
448,192,8289,1,0,0:0:0:0:
320,192,8289,1,0,0:0:0:0:
192,192,8487,1,0,0:0:0:0:
64,192,8685,1,0,0:0:0:0:
448,192,8685,1,0,0:0:0:0:
320,192,8685,1,0,0:0:0:0:
64,192,8882,1,0,0:0:0:0:
192,192,8882,1,0,0:0:0:0:
320,192,8882,1,0,0:0:0:0:
192,192,9080,1,0,0:0:0:0:
64,192,9080,1,0,0:0:0:0:
448,192,9080,1,0,0:0:0:0:
320,192,9278,1,0,0:0:0:0:
192,192,9475,1,0,0:0:0:0:
64,192,9475,1,0,0:0:0:0:
448,192,9475,1,0,0:0:0:0:
192,192,9673,1,0,0:0:0:0:
448,192,9870,1,0,0:0:0:0:
320,192,9870,1,0,0:0:0:0:
64,192,9870,1,0,0:0:0:0:
64,192,10068,1,0,0:0:0:0:
192,192,10068,1,0,0:0:0:0:
448,192,10068,1,0,0:0:0:0:
320,192,10266,1,0,0:0:0:0:
192,192,10266,1,0,0:0:0:0:
448,192,10266,1,0,0:0:0:0:
320,192,10463,1,0,0:0:0:0:
192,192,10463,1,0,0:0:0:0:
64,192,10463,1,0,0:0:0:0:
64,192,10661,1,0,0:0:0:0:
448,192,10661,1,0,0:0:0:0:
192,192,10661,1,0,0:0:0:0:
320,192,10859,1,0,0:0:0:0:
64,192,11056,1,0,0:0:0:0:
320,192,11056,1,0,0:0:0:0:
448,192,11056,1,0,0:0:0:0:
64,192,11254,1,0,0:0:0:0:
192,192,11254,1,0,0:0:0:0:
448,192,11254,1,0,0:0:0:0:
320,192,11451,1,0,0:0:0:0:
192,192,11451,1,0,0:0:0:0:
64,192,11451,1,0,0:0:0:0:
448,192,11649,1,0,0:0:0:0:
320,192,11847,1,0,0:0:0:0:
192,192,11847,1,0,0:0:0:0:
64,192,11847,1,0,0:0:0:0:
448,192,12044,1,0,0:0:0:0:
448,192,12242,1,0,0:0:0:0:
64,192,12242,1,0,0:0:0:0:
192,192,12242,1,0,0:0:0:0:
192,192,12440,1,0,0:0:0:0:
64,192,12637,1,0,0:0:0:0:
320,192,12637,1,0,0:0:0:0:
448,192,12637,1,0,0:0:0:0:
192,192,12835,1,0,0:0:0:0:
320,192,13032,1,0,0:0:0:0:
64,192,13032,1,0,0:0:0:0:
192,192,13032,1,0,0:0:0:0:
448,192,13230,1,0,0:0:0:0:
320,192,13428,1,0,0:0:0:0:
64,192,13428,1,0,0:0:0:0:
192,192,13625,1,0,0:0:0:0:
448,192,13625,1,0,0:0:0:0:
64,192,13823,1,0,0:0:0:0:
320,192,13823,1,0,0:0:0:0:
192,192,14021,1,0,0:0:0:0:
64,192,14021,1,0,0:0:0:0:
192,192,14218,1,0,0:0:0:0:
64,192,14218,1,0,0:0:0:0:
320,192,14218,1,0,0:0:0:0:
192,192,14416,1,0,0:0:0:0:
64,192,14416,1,0,0:0:0:0:
448,192,14416,1,0,0:0:0:0:
64,192,14613,1,0,0:0:0:0:
320,192,14613,1,0,0:0:0:0:
448,192,14613,1,0,0:0:0:0:
192,192,14613,1,0,0:0:0:0:
192,192,14811,1,0,0:0:0:0:
320,192,15009,1,0,0:0:0:0:
448,192,15009,1,0,0:0:0:0:
64,192,15009,1,0,0:0:0:0:
320,192,15206,1,0,0:0:0:0:
192,192,15206,1,0,0:0:0:0:
64,192,15206,1,0,0:0:0:0:
448,192,15404,1,0,0:0:0:0:
64,192,15404,1,0,0:0:0:0:
192,192,15404,1,0,0:0:0:0:
320,192,15404,1,0,0:0:0:0:
320,192,15602,1,0,0:0:0:0:
448,192,15799,1,0,0:0:0:0:
64,192,15799,1,0,0:0:0:0:
192,192,15799,1,0,0:0:0:0:
192,192,15997,1,0,0:0:0:0:
64,192,16194,1,0,0:0:0:0:
320,192,16194,1,0,0:0:0:0:
448,192,16194,1,0,0:0:0:0:
192,192,16194,1,0,0:0:0:0:
448,192,16392,1,0,0:0:0:0:
192,192,16392,1,0,0:0:0:0:
64,192,16392,1,0,0:0:0:0:
448,192,16590,1,0,0:0:0:0:
192,192,16590,1,0,0:0:0:0:
320,192,16590,1,0,0:0:0:0:
64,192,16787,1,0,0:0:0:0:
192,192,16787,1,0,0:0:0:0:
320,192,16787,1,0,0:0:0:0:
192,192,16985,1,0,0:0:0:0:
448,192,16985,1,0,0:0:0:0:
64,192,16985,1,0,0:0:0:0:
320,192,16985,1,0,0:0:0:0:
320,192,17183,1,0,0:0:0:0:
448,192,17380,1,0,0:0:0:0:
320,192,17380,1,0,0:0:0:0:
64,192,17380,1,0,0:0:0:0:
448,192,17578,1,0,0:0:0:0:
192,192,17578,1,0,0:0:0:0:
64,192,17578,1,0,0:0:0:0:
448,192,17775,1,0,0:0:0:0:
320,192,17775,1,0,0:0:0:0:
192,192,17775,1,0,0:0:0:0:
64,192,17775,1,0,0:0:0:0:
64,192,17973,1,0,0:0:0:0:
448,192,18171,1,0,0:0:0:0:
320,192,18171,1,0,0:0:0:0:
192,192,18171,1,0,0:0:0:0:
64,192,18368,1,0,0:0:0:0:
192,192,18368,1,0,0:0:0:0:
448,192,18368,1,0,0:0:0:0:
320,192,18566,1,0,0:0:0:0:
192,192,18566,1,0,0:0:0:0:
64,192,18566,1,0,0:0:0:0:
448,192,18566,1,0,0:0:0:0:
448,192,18763,1,0,0:0:0:0:
448,192,18961,1,0,0:0:0:0:
320,192,18961,1,0,0:0:0:0:
64,192,18961,1,0,0:0:0:0:
192,192,19159,1,0,0:0:0:0:
448,192,19356,1,0,0:0:0:0:
320,192,19356,1,0,0:0:0:0:
192,192,19356,1,0,0:0:0:0:
64,192,19356,1,0,0:0:0:0:
192,192,19554,1,0,0:0:0:0:
448,192,19554,1,0,0:0:0:0:
64,192,19554,1,0,0:0:0:0:
448,192,19752,1,0,0:0:0:0:
320,192,19752,1,0,0:0:0:0:
64,192,19752,1,0,0:0:0:0:
192,192,19949,1,0,0:0:0:0:
448,192,20147,1,0,0:0:0:0:
192,192,20147,1,0,0:0:0:0:
64,192,20147,1,0,0:0:0:0:
320,192,20147,1,0,0:0:0:0:
320,192,20344,1,0,0:0:0:0:
192,192,20542,1,0,0:0:0:0:
320,192,20542,1,0,0:0:0:0:
64,192,20542,1,0,0:0:0:0:
448,192,20740,1,0,0:0:0:0:
64,192,20740,1,0,0:0:0:0:
192,192,20740,1,0,0:0:0:0:
64,192,20937,1,0,0:0:0:0:
448,192,20937,1,0,0:0:0:0:
320,192,20937,1,0,0:0:0:0:
192,192,20937,1,0,0:0:0:0:
192,192,21135,1,0,0:0:0:0:
64,192,21333,1,0,0:0:0:0:
448,192,21333,1,0,0:0:0:0:
320,192,21333,1,0,0:0:0:0:
64,192,21530,1,0,0:0:0:0:
192,192,21530,1,0,0:0:0:0:
320,192,21530,1,0,0:0:0:0:
192,192,21728,1,0,0:0:0:0:
64,192,21728,1,0,0:0:0:0:
448,192,21728,1,0,0:0:0:0:
320,192,21728,1,0,0:0:0:0:
320,192,21925,1,0,0:0:0:0:
192,192,22123,1,0,0:0:0:0:
64,192,22123,1,0,0:0:0:0:
448,192,22123,1,0,0:0:0:0:
192,192,22321,1,0,0:0:0:0:
448,192,22518,1,0,0:0:0:0:
320,192,22518,1,0,0:0:0:0:
64,192,22518,1,0,0:0:0:0:
192,192,22518,1,0,0:0:0:0:
64,192,22716,1,0,0:0:0:0:
192,192,22716,1,0,0:0:0:0:
448,192,22716,1,0,0:0:0:0:
320,192,22914,1,0,0:0:0:0:
192,192,22914,1,0,0:0:0:0:
448,192,22914,1,0,0:0:0:0:
320,192,23111,1,0,0:0:0:0:
192,192,23111,1,0,0:0:0:0:
64,192,23111,1,0,0:0:0:0:
64,192,23309,1,0,0:0:0:0:
448,192,23309,1,0,0:0:0:0:
192,192,23309,1,0,0:0:0:0:
320,192,23309,1,0,0:0:0:0:
192,192,23506,1,0,0:0:0:0:
64,192,23704,1,0,0:0:0:0:
320,192,23704,1,0,0:0:0:0:
448,192,23704,1,0,0:0:0:0:
64,192,23902,1,0,0:0:0:0:
192,192,23902,1,0,0:0:0:0:
448,192,23902,1,0,0:0:0:0:
320,192,24099,1,0,0:0:0:0:
192,192,24099,1,0,0:0:0:0:
64,192,24099,1,0,0:0:0:0:
448,192,24099,1,0,0:0:0:0:
448,192,24297,1,0,0:0:0:0:
320,192,24495,1,0,0:0:0:0:
192,192,24495,1,0,0:0:0:0:
64,192,24495,1,0,0:0:0:0:
448,192,24692,1,0,0:0:0:0:
448,192,24890,1,0,0:0:0:0:
64,192,24890,1,0,0:0:0:0:
192,192,24890,1,0,0:0:0:0:
320,192,24890,1,0,0:0:0:0:
192,192,25087,1,0,0:0:0:0:
64,192,25285,1,0,0:0:0:0:
320,192,25285,1,0,0:0:0:0:
448,192,25285,1,0,0:0:0:0:
192,192,25483,1,0,0:0:0:0:
320,192,25680,1,0,0:0:0:0:
64,192,25680,1,0,0:0:0:0:
448,192,25878,1,0,0:0:0:0:
320,192,26076,1,0,0:0:0:0:
64,192,26076,1,0,0:0:0:0:
192,192,26273,1,0,0:0:0:0:
448,192,26273,1,0,0:0:0:0:
64,192,26471,1,0,0:0:0:0:
320,192,26471,1,0,0:0:0:0:
192,192,26668,1,0,0:0:0:0:
320,192,26866,1,0,0:0:0:0:
448,192,26866,1,0,0:0:0:0:
64,192,27064,1,0,0:0:0:0:
320,192,27261,1,0,0:0:0:0:
448,192,27261,1,0,0:0:0:0:
64,192,27327,1,0,0:0:0:0:
192,192,27426,1,0,0:0:0:0:
320,192,27508,1,0,0:0:0:0:
448,192,27508,1,0,0:0:0:0:
64,192,27591,1,0,0:0:0:0:
192,192,27657,1,0,0:0:0:0:
320,192,27706,1,0,0:0:0:0:
448,192,27706,1,0,0:0:0:0:
64,192,27788,1,0,0:0:0:0:
192,192,27887,1,0,0:0:0:0:
320,192,27953,1,0,0:0:0:0:
448,192,27953,1,0,0:0:0:0:
64,192,28019,1,0,0:0:0:0:
192,192,28118,1,0,0:0:0:0:
320,192,28200,1,0,0:0:0:0:
448,192,28200,1,0,0:0:0:0:
64,192,28282,1,0,0:0:0:0:
320,192,28348,1,0,0:0:0:0:
448,192,28348,1,0,0:0:0:0:
192,192,28398,1,0,0:0:0:0:
64,192,28447,1,0,0:0:0:0:
448,192,28496,1,0,0:0:0:0:
192,192,28546,1,0,0:0:0:0:
320,192,28595,1,0,0:0:0:0:
64,192,28645,1,0,0:0:0:0:
192,192,28694,1,0,0:0:0:0:
320,192,28743,1,0,0:0:0:0:
448,192,28793,1,0,0:0:0:0:
64,192,28842,1,0,0:0:0:0:
320,192,28892,1,0,0:0:0:0:
192,192,28941,1,0,0:0:0:0:
448,192,28991,1,0,0:0:0:0:
64,192,29040,1,0,0:0:0:0:
320,192,29089,1,0,0:0:0:0:
192,192,29139,1,0,0:0:0:0:
64,192,29188,1,0,0:0:0:0:
448,192,29238,1,0,0:0:0:0:
192,192,29287,1,0,0:0:0:0:
320,192,29336,1,0,0:0:0:0:
448,192,29386,1,0,0:0:0:0:
64,192,29435,1,0,0:0:0:0:
320,192,29485,1,0,0:0:0:0:
192,192,29534,1,0,0:0:0:0:
448,192,29583,1,0,0:0:0:0:
320,192,29633,1,0,0:0:0:0:
192,192,29682,1,0,0:0:0:0:
64,192,29732,1,0,0:0:0:0:
448,192,29781,1,0,0:0:0:0:
64,192,29830,1,0,0:0:0:0:
192,192,29880,1,0,0:0:0:0:
320,192,29929,1,0,0:0:0:0:
448,192,29979,1,0,0:0:0:0:
64,192,30028,1,0,0:0:0:0:
448,192,30077,1,0,0:0:0:0:
320,192,30127,1,0,0:0:0:0:
192,192,30176,1,0,0:0:0:0:
448,192,30226,1,0,0:0:0:0:
64,192,30275,1,0,0:0:0:0:
192,192,30324,1,0,0:0:0:0:
320,192,30374,1,0,0:0:0:0:
448,192,30423,1,0,0:0:0:0:
64,192,30473,1,0,0:0:0:0:
320,192,30522,1,0,0:0:0:0:
192,192,30571,1,0,0:0:0:0:
64,192,30621,1,0,0:0:0:0:
448,192,30670,1,0,0:0:0:0:
320,192,30720,1,0,0:0:0:0:
192,192,30769,1,0,0:0:0:0:
64,192,30819,1,0,0:0:0:0:
192,192,30868,1,0,0:0:0:0:
320,192,30917,1,0,0:0:0:0:
448,192,30967,1,0,0:0:0:0:
320,192,31016,1,0,0:0:0:0:
192,192,31066,1,0,0:0:0:0:
64,192,31115,1,0,0:0:0:0:
448,192,31164,1,0,0:0:0:0:
192,192,31214,1,0,0:0:0:0:
320,192,31263,1,0,0:0:0:0:
448,192,31313,1,0,0:0:0:0:
64,192,31362,1,0,0:0:0:0:
192,192,31411,1,0,0:0:0:0:
448,192,31461,1,0,0:0:0:0:
64,192,31510,1,0,0:0:0:0:
320,192,31560,1,0,0:0:0:0:
448,192,31609,1,0,0:0:0:0:
192,192,31658,1,0,0:0:0:0:
64,192,31708,1,0,0:0:0:0:
320,192,31757,1,0,0:0:0:0:
448,192,31807,1,0,0:0:0:0:
192,192,31856,1,0,0:0:0:0:
320,192,31905,1,0,0:0:0:0:
64,192,31955,1,0,0:0:0:0:
192,192,32004,1,0,0:0:0:0:
448,192,32054,1,0,0:0:0:0:
64,192,32103,1,0,0:0:0:0:
320,192,32152,1,0,0:0:0:0:
192,192,32202,1,0,0:0:0:0:
448,192,32251,1,0,0:0:0:0:
320,192,32301,1,0,0:0:0:0:
192,192,32350,1,0,0:0:0:0:
64,192,32400,1,0,0:0:0:0:
448,192,32449,1,0,0:0:0:0:
192,192,32498,1,0,0:0:0:0:
320,192,32548,1,0,0:0:0:0:
64,192,32597,1,0,0:0:0:0:
448,192,32647,1,0,0:0:0:0:
192,192,32696,1,0,0:0:0:0:
320,192,32745,1,0,0:0:0:0:
448,192,32795,1,0,0:0:0:0:
64,192,32844,1,0,0:0:0:0:
320,192,32894,1,0,0:0:0:0:
192,192,32943,1,0,0:0:0:0:
64,192,32992,1,0,0:0:0:0:
448,192,33042,1,0,0:0:0:0:
192,192,33091,1,0,0:0:0:0:
320,192,33141,1,0,0:0:0:0:
64,192,33190,1,0,0:0:0:0:
192,192,33239,1,0,0:0:0:0:
320,192,33289,1,0,0:0:0:0:
448,192,33338,1,0,0:0:0:0:
64,192,33388,1,0,0:0:0:0:
448,192,33437,1,0,0:0:0:0:
320,192,33486,1,0,0:0:0:0:
192,192,33536,1,0,0:0:0:0:
64,192,33585,1,0,0:0:0:0:
448,192,33635,1,0,0:0:0:0:
64,192,33684,1,0,0:0:0:0:
192,192,33733,1,0,0:0:0:0:
320,192,33783,1,0,0:0:0:0:
64,192,33832,1,0,0:0:0:0:
448,192,33882,1,0,0:0:0:0:
320,192,33931,1,0,0:0:0:0:
192,192,33980,1,0,0:0:0:0:
64,192,34030,1,0,0:0:0:0:
448,192,34079,1,0,0:0:0:0:
192,192,34129,1,0,0:0:0:0:
320,192,34178,1,0,0:0:0:0:
448,192,34228,1,0,0:0:0:0:
64,192,34277,1,0,0:0:0:0:
192,192,34326,1,0,0:0:0:0:
320,192,34376,1,0,0:0:0:0:
448,192,34425,1,0,0:0:0:0:
320,192,34475,1,0,0:0:0:0:
192,192,34524,1,0,0:0:0:0:
64,192,34573,1,0,0:0:0:0:
192,192,34623,1,0,0:0:0:0:
320,192,34672,1,0,0:0:0:0:
448,192,34722,1,0,0:0:0:0:
64,192,34771,1,0,0:0:0:0:
320,192,34820,1,0,0:0:0:0:
192,192,34870,1,0,0:0:0:0:
64,192,34919,1,0,0:0:0:0:
448,192,34969,1,0,0:0:0:0:
320,192,35018,1,0,0:0:0:0:
64,192,35067,1,0,0:0:0:0:
448,192,35117,1,0,0:0:0:0:
192,192,35166,1,0,0:0:0:0:
64,192,35216,1,0,0:0:0:0:
320,192,35265,1,0,0:0:0:0:
448,192,35314,1,0,0:0:0:0:
192,192,35364,1,0,0:0:0:0:
64,192,35413,1,0,0:0:0:0:
320,192,35463,1,0,0:0:0:0:
192,192,35512,1,0,0:0:0:0:
448,192,35561,1,0,0:0:0:0:
320,192,35611,1,0,0:0:0:0:
64,192,35660,1,0,0:0:0:0:
448,192,35710,1,0,0:0:0:0:
192,192,35759,1,0,0:0:0:0:
320,192,35809,1,0,0:0:0:0:
64,192,35858,1,0,0:0:0:0:
192,192,35907,1,0,0:0:0:0:
320,192,35957,1,0,0:0:0:0:
448,192,36006,1,0,0:0:0:0:
64,192,36056,1,0,0:0:0:0:
320,192,36105,1,0,0:0:0:0:
192,192,36154,1,0,0:0:0:0:
448,192,36204,1,0,0:0:0:0:
64,192,36253,1,0,0:0:0:0:
320,192,36303,1,0,0:0:0:0:
192,192,36352,1,0,0:0:0:0:
64,192,36401,1,0,0:0:0:0:
448,192,36451,1,0,0:0:0:0:
192,192,36500,1,0,0:0:0:0:
320,192,36550,1,0,0:0:0:0:
448,192,36599,1,0,0:0:0:0:
64,192,36648,1,0,0:0:0:0:
320,192,36698,1,0,0:0:0:0:
192,192,36747,1,0,0:0:0:0:
448,192,36797,1,0,0:0:0:0:
320,192,36846,1,0,0:0:0:0:
192,192,36895,1,0,0:0:0:0:
64,192,36945,1,0,0:0:0:0:
448,192,36994,1,0,0:0:0:0:
64,192,37044,1,0,0:0:0:0:
192,192,37093,1,0,0:0:0:0:
320,192,37142,1,0,0:0:0:0:
448,192,37192,1,0,0:0:0:0:
64,192,37241,1,0,0:0:0:0:
448,192,37291,1,0,0:0:0:0:
320,192,37340,1,0,0:0:0:0:
192,192,37389,1,0,0:0:0:0:
448,192,37439,1,0,0:0:0:0:
64,192,37488,1,0,0:0:0:0:
192,192,37538,1,0,0:0:0:0:
320,192,37587,1,0,0:0:0:0:
448,192,37637,1,0,0:0:0:0:
64,192,37686,1,0,0:0:0:0:
320,192,37735,1,0,0:0:0:0:
192,192,37785,1,0,0:0:0:0:
64,192,37834,1,0,0:0:0:0:
448,192,37884,1,0,0:0:0:0:
320,192,37933,1,0,0:0:0:0:
192,192,37982,1,0,0:0:0:0:
64,192,38032,1,0,0:0:0:0:
192,192,38081,1,0,0:0:0:0:
320,192,38131,1,0,0:0:0:0:
448,192,38180,1,0,0:0:0:0:
320,192,38229,1,0,0:0:0:0:
192,192,38279,1,0,0:0:0:0:
64,192,38328,1,0,0:0:0:0:
448,192,38378,1,0,0:0:0:0:
192,192,38427,1,0,0:0:0:0:
320,192,38476,1,0,0:0:0:0:
448,192,38526,1,0,0:0:0:0:
64,192,38575,1,0,0:0:0:0:
192,192,38625,1,0,0:0:0:0:
448,192,38674,1,0,0:0:0:0:
64,192,38723,1,0,0:0:0:0:
320,192,38773,1,0,0:0:0:0:
448,192,38822,1,0,0:0:0:0:
192,192,38872,1,0,0:0:0:0:
64,192,38921,1,0,0:0:0:0:
320,192,38970,1,0,0:0:0:0:
448,192,39020,1,0,0:0:0:0:
192,192,39069,1,0,0:0:0:0:
320,192,39119,1,0,0:0:0:0:
64,192,39168,1,0,0:0:0:0:
192,192,39218,1,0,0:0:0:0:
448,192,39267,1,0,0:0:0:0:
64,192,39316,1,0,0:0:0:0:
320,192,39366,1,0,0:0:0:0:
192,192,39415,1,0,0:0:0:0:
448,192,39465,1,0,0:0:0:0:
320,192,39514,1,0,0:0:0:0:
192,192,39563,1,0,0:0:0:0:
64,192,39613,1,0,0:0:0:0:
448,192,39662,1,0,0:0:0:0:
192,192,39712,1,0,0:0:0:0:
320,192,39761,1,0,0:0:0:0:
64,192,39810,1,0,0:0:0:0:
448,192,39860,1,0,0:0:0:0:
192,192,39909,1,0,0:0:0:0:
320,192,39959,1,0,0:0:0:0:
448,192,40008,1,0,0:0:0:0:
64,192,40057,1,0,0:0:0:0:
320,192,40107,1,0,0:0:0:0:
192,192,40156,1,0,0:0:0:0:
64,192,40206,1,0,0:0:0:0:
448,192,40255,1,0,0:0:0:0:
192,192,40304,1,0,0:0:0:0:
320,192,40354,1,0,0:0:0:0:
64,192,40403,1,0,0:0:0:0:
192,192,40453,1,0,0:0:0:0:
320,192,40502,1,0,0:0:0:0:
448,192,40551,1,0,0:0:0:0:
64,192,40601,1,0,0:0:0:0:
448,192,40650,1,0,0:0:0:0:
320,192,40700,1,0,0:0:0:0:
192,192,40749,1,0,0:0:0:0:
64,192,40799,1,0,0:0:0:0:
448,192,40848,1,0,0:0:0:0:
64,192,40897,1,0,0:0:0:0:
192,192,40947,1,0,0:0:0:0:
320,192,40996,1,0,0:0:0:0:
64,192,41046,1,0,0:0:0:0:
448,192,41095,1,0,0:0:0:0:
320,192,41144,1,0,0:0:0:0:
192,192,41194,1,0,0:0:0:0:
64,192,41243,1,0,0:0:0:0:
448,192,41293,1,0,0:0:0:0:
192,192,41342,1,0,0:0:0:0:
320,192,41391,1,0,0:0:0:0:
448,192,41441,1,0,0:0:0:0:
64,192,41490,1,0,0:0:0:0:
192,192,41540,1,0,0:0:0:0:
320,192,41589,1,0,0:0:0:0:
448,192,41638,1,0,0:0:0:0:
320,192,41688,1,0,0:0:0:0:
192,192,41737,1,0,0:0:0:0:
64,192,41787,1,0,0:0:0:0:
192,192,41836,1,0,0:0:0:0:
320,192,41885,1,0,0:0:0:0:
448,192,41935,1,0,0:0:0:0:
64,192,41984,1,0,0:0:0:0:
320,192,42034,1,0,0:0:0:0:
192,192,42083,1,0,0:0:0:0:
64,192,42132,1,0,0:0:0:0:
448,192,42182,1,0,0:0:0:0:
320,192,42231,1,0,0:0:0:0:
64,192,42281,1,0,0:0:0:0:
448,192,42330,1,0,0:0:0:0:
192,192,42379,1,0,0:0:0:0:
64,192,42429,1,0,0:0:0:0:
320,192,42478,1,0,0:0:0:0:
448,192,42528,1,0,0:0:0:0:
192,192,42577,1,0,0:0:0:0:
64,192,42627,1,0,0:0:0:0:
320,192,42676,1,0,0:0:0:0:
192,192,42725,1,0,0:0:0:0:
448,192,42775,1,0,0:0:0:0:
320,192,42824,1,0,0:0:0:0:
64,192,42874,1,0,0:0:0:0:
448,192,42923,1,0,0:0:0:0:
192,192,42972,1,0,0:0:0:0:
320,192,43022,1,0,0:0:0:0:
64,192,43071,1,0,0:0:0:0:
192,192,43121,1,0,0:0:0:0:
320,192,43170,1,0,0:0:0:0:
448,192,43219,1,0,0:0:0:0:
64,192,43269,1,0,0:0:0:0:
320,192,43318,1,0,0:0:0:0:
192,192,43368,1,0,0:0:0:0:
448,192,43417,1,0,0:0:0:0:
64,192,43466,1,0,0:0:0:0:
320,192,43516,1,0,0:0:0:0:
192,192,43565,1,0,0:0:0:0:
64,192,43615,1,0,0:0:0:0:
448,192,43664,1,0,0:0:0:0:
192,192,43713,1,0,0:0:0:0:
320,192,43763,1,0,0:0:0:0:
448,192,43812,1,0,0:0:0:0:
64,192,43862,1,0,0:0:0:0:
320,192,43911,1,0,0:0:0:0:
192,192,43960,1,0,0:0:0:0:
448,192,44010,1,0,0:0:0:0:
320,192,44059,1,0,0:0:0:0:
192,192,44109,1,0,0:0:0:0:
64,192,44158,1,0,0:0:0:0:
448,192,44208,1,0,0:0:0:0:
64,192,44257,1,0,0:0:0:0:
192,192,44306,1,0,0:0:0:0:
320,192,44356,1,0,0:0:0:0:
448,192,44405,1,0,0:0:0:0:
64,192,44455,1,0,0:0:0:0:
448,192,44504,1,0,0:0:0:0:
320,192,44553,1,0,0:0:0:0:
192,192,44603,1,0,0:0:0:0:
448,192,44652,1,0,0:0:0:0:
64,192,44702,1,0,0:0:0:0:
192,192,44751,1,0,0:0:0:0:
320,192,44800,1,0,0:0:0:0:
448,192,44850,1,0,0:0:0:0:
64,192,44899,1,0,0:0:0:0:
320,192,44949,1,0,0:0:0:0:
192,192,44998,1,0,0:0:0:0:
64,192,45047,1,0,0:0:0:0:
448,192,45097,1,0,0:0:0:0:
320,192,45146,1,0,0:0:0:0:
192,192,45196,1,0,0:0:0:0:
64,192,45245,1,0,0:0:0:0:
192,192,45294,1,0,0:0:0:0:
320,192,45344,1,0,0:0:0:0:
448,192,45393,1,0,0:0:0:0:
320,192,45443,1,0,0:0:0:0:
192,192,45492,1,0,0:0:0:0:
64,192,45541,1,0,0:0:0:0:
448,192,45591,1,0,0:0:0:0:
192,192,45640,1,0,0:0:0:0:
320,192,45690,1,0,0:0:0:0:
448,192,45739,1,0,0:0:0:0:
64,192,45788,1,0,0:0:0:0:
192,192,45838,1,0,0:0:0:0:
448,192,45887,1,0,0:0:0:0:
64,192,45937,1,0,0:0:0:0:
320,192,45986,1,0,0:0:0:0:
448,192,46036,1,0,0:0:0:0:
192,192,46085,1,0,0:0:0:0:
64,192,46134,1,0,0:0:0:0:
320,192,46184,1,0,0:0:0:0:
448,192,46233,1,0,0:0:0:0:
192,192,46283,1,0,0:0:0:0:
320,192,46332,1,0,0:0:0:0:
64,192,46381,1,0,0:0:0:0:
192,192,46431,1,0,0:0:0:0:
448,192,46480,1,0,0:0:0:0:
64,192,46530,1,0,0:0:0:0:
320,192,46579,1,0,0:0:0:0:
192,192,46628,1,0,0:0:0:0:
448,192,46678,1,0,0:0:0:0:
320,192,46727,1,0,0:0:0:0:
192,192,46777,1,0,0:0:0:0:
64,192,46826,1,0,0:0:0:0:
448,192,46875,1,0,0:0:0:0:
192,192,46925,1,0,0:0:0:0:
320,192,46974,1,0,0:0:0:0:
64,192,47024,1,0,0:0:0:0:
448,192,47073,1,0,0:0:0:0:
192,192,47122,1,0,0:0:0:0:
320,192,47172,1,0,0:0:0:0:
448,192,47221,1,0,0:0:0:0:
64,192,47271,1,0,0:0:0:0:
320,192,47320,1,0,0:0:0:0:
192,192,47369,1,0,0:0:0:0:
64,192,47419,1,0,0:0:0:0:
448,192,47468,1,0,0:0:0:0:
192,192,47518,1,0,0:0:0:0:
320,192,47567,1,0,0:0:0:0:
64,192,47617,1,0,0:0:0:0:
192,192,47666,1,0,0:0:0:0:
320,192,47715,1,0,0:0:0:0:
448,192,47765,1,0,0:0:0:0:
64,192,47814,1,0,0:0:0:0:
448,192,47864,1,0,0:0:0:0:
320,192,47913,1,0,0:0:0:0:
192,192,47962,1,0,0:0:0:0:
64,192,48012,1,0,0:0:0:0:
448,192,48061,1,0,0:0:0:0:
64,192,48111,1,0,0:0:0:0:
192,192,48160,1,0,0:0:0:0:
320,192,48209,1,0,0:0:0:0:
64,192,48259,1,0,0:0:0:0:
448,192,48308,1,0,0:0:0:0:
320,192,48358,1,0,0:0:0:0:
192,192,48407,1,0,0:0:0:0:
64,192,48456,1,0,0:0:0:0:
448,192,48506,1,0,0:0:0:0:
192,192,48555,1,0,0:0:0:0:
320,192,48605,1,0,0:0:0:0:
448,192,48654,1,0,0:0:0:0:
64,192,48703,1,0,0:0:0:0:
192,192,48753,1,0,0:0:0:0:
320,192,48802,1,0,0:0:0:0:
448,192,48852,1,0,0:0:0:0:
320,192,48901,1,0,0:0:0:0:
192,192,48950,1,0,0:0:0:0:
64,192,49000,1,0,0:0:0:0:
192,192,49049,1,0,0:0:0:0:
320,192,49099,1,0,0:0:0:0:
448,192,49148,1,0,0:0:0:0:
64,192,49197,1,0,0:0:0:0:
320,192,49247,1,0,0:0:0:0:
192,192,49296,1,0,0:0:0:0:
64,192,49346,1,0,0:0:0:0:
448,192,49395,1,0,0:0:0:0:
320,192,49445,1,0,0:0:0:0:
64,192,49494,1,0,0:0:0:0:
448,192,49543,1,0,0:0:0:0:
192,192,49593,1,0,0:0:0:0:
64,192,49642,1,0,0:0:0:0:
320,192,49692,1,0,0:0:0:0:
448,192,49741,1,0,0:0:0:0:
192,192,49790,1,0,0:0:0:0:
64,192,49840,1,0,0:0:0:0:
320,192,49889,1,0,0:0:0:0:
192,192,49939,1,0,0:0:0:0:
448,192,49988,1,0,0:0:0:0:
320,192,50037,1,0,0:0:0:0:
64,192,50087,1,0,0:0:0:0:
448,192,50136,1,0,0:0:0:0:
192,192,50186,1,0,0:0:0:0:
320,192,50235,1,0,0:0:0:0:
64,192,50284,1,0,0:0:0:0:
192,192,50334,1,0,0:0:0:0:
320,192,50383,1,0,0:0:0:0:
448,192,50433,1,0,0:0:0:0:
64,192,50482,1,0,0:0:0:0:
320,192,50531,1,0,0:0:0:0:
192,192,50581,1,0,0:0:0:0:
448,192,50630,1,0,0:0:0:0:
64,192,50680,1,0,0:0:0:0:
320,192,50729,1,0,0:0:0:0:
192,192,50778,1,0,0:0:0:0:
64,192,50828,1,0,0:0:0:0:
448,192,50877,1,0,0:0:0:0:
192,192,50927,1,0,0:0:0:0:
320,192,50976,1,0,0:0:0:0:
448,192,51026,1,0,0:0:0:0:
64,192,51075,1,0,0:0:0:0:
320,192,51124,1,0,0:0:0:0:
192,192,51174,1,0,0:0:0:0:
448,192,51223,1,0,0:0:0:0:
320,192,51273,1,0,0:0:0:0:
192,192,51322,1,0,0:0:0:0:
64,192,51371,1,0,0:0:0:0:
448,192,51421,1,0,0:0:0:0:
64,192,51470,1,0,0:0:0:0:
192,192,51520,1,0,0:0:0:0:
320,192,51569,1,0,0:0:0:0:
448,192,51618,1,0,0:0:0:0:
64,192,51668,1,0,0:0:0:0:
448,192,51717,1,0,0:0:0:0:
320,192,51767,1,0,0:0:0:0:
192,192,51816,1,0,0:0:0:0:
448,192,51865,1,0,0:0:0:0:
64,192,51915,1,0,0:0:0:0:
192,192,51964,1,0,0:0:0:0:
320,192,52014,1,0,0:0:0:0:
448,192,52063,1,0,0:0:0:0:
64,192,52112,1,0,0:0:0:0:
320,192,52162,1,0,0:0:0:0:
192,192,52211,1,0,0:0:0:0:
64,192,52261,1,0,0:0:0:0:
448,192,52310,1,0,0:0:0:0:
320,192,52359,1,0,0:0:0:0:
192,192,52409,1,0,0:0:0:0:
64,192,52458,1,0,0:0:0:0:
192,192,52508,1,0,0:0:0:0:
320,192,52557,1,0,0:0:0:0:
448,192,52607,1,0,0:0:0:0:
320,192,52656,1,0,0:0:0:0:
192,192,52705,1,0,0:0:0:0:
64,192,52755,1,0,0:0:0:0:
448,192,52804,1,0,0:0:0:0:
192,192,52854,1,0,0:0:0:0:
320,192,52903,1,0,0:0:0:0:
448,192,52952,1,0,0:0:0:0:
64,192,53002,1,0,0:0:0:0:
192,192,53051,1,0,0:0:0:0:
448,192,53101,1,0,0:0:0:0:
64,192,53150,1,0,0:0:0:0:
320,192,53199,1,0,0:0:0:0:
448,192,53249,1,0,0:0:0:0:
192,192,53298,1,0,0:0:0:0:
64,192,53348,1,0,0:0:0:0:
320,192,53397,1,0,0:0:0:0:
448,192,53446,1,0,0:0:0:0:
192,192,53496,1,0,0:0:0:0:
320,192,53545,1,0,0:0:0:0:
64,192,53595,1,0,0:0:0:0:
320,192,53644,1,0,0:0:0:0:
448,192,53693,1,0,0:0:0:0:
64,192,53743,1,0,0:0:0:0:
320,192,53792,1,0,0:0:0:0:
192,192,53842,1,0,0:0:0:0:
448,192,53891,1,0,0:0:0:0:
320,192,53940,1,0,0:0:0:0:
192,192,53990,1,0,0:0:0:0:
64,192,54039,1,0,0:0:0:0:
448,192,54089,1,0,0:0:0:0:
192,192,54138,1,0,0:0:0:0:
320,192,54187,1,0,0:0:0:0:
64,192,54237,1,0,0:0:0:0:
448,192,54286,1,0,0:0:0:0:
192,192,54336,1,0,0:0:0:0:
320,192,54385,1,0,0:0:0:0:
448,192,54435,1,0,0:0:0:0:
64,192,54484,1,0,0:0:0:0:
320,192,54533,1,0,0:0:0:0:
192,192,54583,1,0,0:0:0:0:
64,192,54632,1,0,0:0:0:0:
448,192,54682,1,0,0:0:0:0:
192,192,54731,1,0,0:0:0:0:
320,192,54780,1,0,0:0:0:0:
64,192,54830,1,0,0:0:0:0:
192,192,54879,1,0,0:0:0:0:
320,192,54929,1,0,0:0:0:0:
448,192,54978,1,0,0:0:0:0:
64,192,55027,1,0,0:0:0:0:
448,192,55077,1,0,0:0:0:0:
320,192,55126,1,0,0:0:0:0:
192,192,55176,1,0,0:0:0:0:
64,192,55225,1,0,0:0:0:0:
448,192,55274,1,0,0:0:0:0:
64,192,55324,1,0,0:0:0:0:
448,192,55521,1,0,0:0:0:0:
64,192,55521,1,0,0:0:0:0:
192,192,55521,1,0,0:0:0:0:
320,192,55521,1,0,0:0:0:0:
192,192,55620,1,0,0:0:0:0:
320,192,55620,1,0,0:0:0:0:
448,192,55620,1,0,0:0:0:0:
64,192,55620,1,0,0:0:0:0:
448,192,55719,1,0,0:0:0:0:
64,192,55719,1,0,0:0:0:0:
192,192,55719,1,0,0:0:0:0:
320,192,55719,1,0,0:0:0:0:
448,192,61253,1,0,0:0:0:0:
320,192,61277,1,0,0:0:0:0:
192,192,61302,1,0,0:0:0:0:
64,192,61327,1,0,0:0:0:0:
448,192,61351,1,0,0:0:0:0:
320,192,61376,1,0,0:0:0:0:
192,192,61401,1,0,0:0:0:0:
64,192,61425,1,0,0:0:0:0:
64,192,61714,1,0,0:0:0:0:
192,192,61780,1,0,0:0:0:0:
320,192,61845,1,0,0:0:0:0:
448,192,61911,1,0,0:0:0:0:
192,192,61977,1,0,0:0:0:0:
320,192,62043,1,0,0:0:0:0:
64,192,62109,1,0,0:0:0:0:
192,192,62175,1,0,0:0:0:0:
448,192,62241,1,0,0:0:0:0:
448,192,62438,5,0,0:0:0:0:
320,192,62438,1,0,0:0:0:0:
320,192,62636,1,0,0:0:0:0:
448,192,62636,1,0,0:0:0:0:
320,192,62735,1,0,0:0:0:0:
448,192,62735,1,0,0:0:0:0:
320,192,62834,1,0,0:0:0:0:
448,192,62834,1,0,0:0:0:0:
64,192,63525,1,0,0:0:0:0:
192,192,63525,1,0,0:0:0:0:
320,192,63525,1,0,0:0:0:0:
448,192,63525,1,0,0:0:0:0:
448,192,63624,5,0,0:0:0:0:
320,192,63624,1,0,0:0:0:0:
192,192,63624,1,0,0:0:0:0:
64,192,63624,1,0,0:0:0:0:
64,192,63723,1,0,0:0:0:0:
192,192,63723,1,0,0:0:0:0:
320,192,63723,1,0,0:0:0:0:
448,192,63723,1,0,0:0:0:0:
448,192,63822,1,0,0:0:0:0:
320,192,63822,1,0,0:0:0:0:
192,192,63822,1,0,0:0:0:0:
64,192,63822,1,0,0:0:0:0:
64,192,63920,1,0,0:0:0:0:
192,192,63920,1,0,0:0:0:0:
320,192,63920,1,0,0:0:0:0:
448,192,63920,1,0,0:0:0:0:
448,192,64019,1,0,0:0:0:0:
64,192,64069,1,0,0:0:0:0:
320,192,64118,1,0,0:0:0:0:
448,192,64167,1,0,0:0:0:0:
192,192,64217,1,0,0:0:0:0:
64,192,64266,1,0,0:0:0:0:
320,192,64316,1,0,0:0:0:0:
192,192,64365,1,0,0:0:0:0:
448,192,64415,1,0,0:0:0:0:
320,192,64464,1,0,0:0:0:0:
64,192,64513,1,0,0:0:0:0:
448,192,64563,1,0,0:0:0:0:
192,192,64612,1,0,0:0:0:0:
320,192,64662,1,0,0:0:0:0:
64,192,64711,1,0,0:0:0:0:
192,192,64760,1,0,0:0:0:0:
320,192,64810,1,0,0:0:0:0:
448,192,64859,1,0,0:0:0:0:
64,192,64909,1,0,0:0:0:0:
320,192,64958,1,0,0:0:0:0:
192,192,65007,1,0,0:0:0:0:
448,192,65057,1,0,0:0:0:0:
64,192,65106,1,0,0:0:0:0:
320,192,65156,1,0,0:0:0:0:
192,192,65205,1,0,0:0:0:0:
64,192,65254,1,0,0:0:0:0:
448,192,65304,1,0,0:0:0:0:
192,192,65353,1,0,0:0:0:0:
320,192,65403,1,0,0:0:0:0:
448,192,65452,1,0,0:0:0:0:
64,192,65501,1,0,0:0:0:0:
320,192,65551,1,0,0:0:0:0:
192,192,65600,1,0,0:0:0:0:
448,192,65650,1,0,0:0:0:0:
320,192,65699,1,0,0:0:0:0:
192,192,65748,1,0,0:0:0:0:
64,192,65798,1,0,0:0:0:0:
448,192,65847,1,0,0:0:0:0:
64,192,65897,1,0,0:0:0:0:
192,192,65946,1,0,0:0:0:0:
320,192,65995,1,0,0:0:0:0:
448,192,66045,1,0,0:0:0:0:
64,192,66094,1,0,0:0:0:0:
448,192,66144,1,0,0:0:0:0:
320,192,66193,1,0,0:0:0:0:
192,192,66243,1,0,0:0:0:0:
448,192,66292,1,0,0:0:0:0:
64,192,66341,1,0,0:0:0:0:
192,192,66391,1,0,0:0:0:0:
320,192,66440,1,0,0:0:0:0:
448,192,66490,1,0,0:0:0:0:
64,192,66539,1,0,0:0:0:0:
320,192,66588,1,0,0:0:0:0:
192,192,66638,1,0,0:0:0:0:
64,192,66687,1,0,0:0:0:0:
448,192,66737,1,0,0:0:0:0:
320,192,66786,1,0,0:0:0:0:
192,192,66835,1,0,0:0:0:0:
64,192,66885,1,0,0:0:0:0:
192,192,66934,1,0,0:0:0:0:
320,192,66984,1,0,0:0:0:0:
448,192,67033,1,0,0:0:0:0:
320,192,67082,1,0,0:0:0:0:
192,192,67132,1,0,0:0:0:0:
64,192,67181,1,0,0:0:0:0:
448,192,67231,1,0,0:0:0:0:
192,192,67280,1,0,0:0:0:0:
320,192,67329,1,0,0:0:0:0:
448,192,67379,1,0,0:0:0:0:
64,192,67428,1,0,0:0:0:0:
192,192,67478,1,0,0:0:0:0:
448,192,67527,1,0,0:0:0:0:
64,192,67576,1,0,0:0:0:0:
320,192,67626,1,0,0:0:0:0:
448,192,67675,1,0,0:0:0:0:
192,192,67725,1,0,0:0:0:0:
64,192,67774,1,0,0:0:0:0:
320,192,67824,1,0,0:0:0:0:
448,192,67873,1,0,0:0:0:0:
192,192,67922,1,0,0:0:0:0:
320,192,67972,1,0,0:0:0:0:
64,192,68021,1,0,0:0:0:0:
192,192,68071,1,0,0:0:0:0:
448,192,68120,1,0,0:0:0:0:
64,192,68169,1,0,0:0:0:0:
320,192,68219,1,0,0:0:0:0:
192,192,68268,1,0,0:0:0:0:
448,192,68318,1,0,0:0:0:0:
320,192,68367,1,0,0:0:0:0:
192,192,68416,1,0,0:0:0:0:
64,192,68466,1,0,0:0:0:0:
448,192,68515,1,0,0:0:0:0:
192,192,68565,1,0,0:0:0:0:
320,192,68614,1,0,0:0:0:0:
64,192,68663,1,0,0:0:0:0:
448,192,68713,1,0,0:0:0:0:
192,192,68762,1,0,0:0:0:0:
320,192,68812,1,0,0:0:0:0:
448,192,68861,1,0,0:0:0:0:
64,192,68910,1,0,0:0:0:0:
320,192,68960,1,0,0:0:0:0:
192,192,69009,1,0,0:0:0:0:
64,192,69059,1,0,0:0:0:0:
448,192,69108,1,0,0:0:0:0:
192,192,69157,1,0,0:0:0:0:
320,192,69207,1,0,0:0:0:0:
64,192,69256,1,0,0:0:0:0:
192,192,69306,1,0,0:0:0:0:
320,192,69355,1,0,0:0:0:0:
448,192,69404,1,0,0:0:0:0:
64,192,69454,1,0,0:0:0:0:
448,192,69503,1,0,0:0:0:0:
320,192,69553,1,0,0:0:0:0:
192,192,69602,1,0,0:0:0:0:
64,192,69652,1,0,0:0:0:0:
448,192,69701,1,0,0:0:0:0:
64,192,69750,1,0,0:0:0:0:
192,192,69800,1,0,0:0:0:0:
320,192,69849,1,0,0:0:0:0:
64,192,69899,1,0,0:0:0:0:
448,192,69948,1,0,0:0:0:0:
320,192,69997,1,0,0:0:0:0:
192,192,70047,1,0,0:0:0:0:
64,192,70096,1,0,0:0:0:0:
448,192,70146,1,0,0:0:0:0:
192,192,70195,1,0,0:0:0:0:
320,192,70244,1,0,0:0:0:0:
448,192,70294,1,0,0:0:0:0:
64,192,70343,1,0,0:0:0:0:
192,192,70393,1,0,0:0:0:0:
320,192,70442,1,0,0:0:0:0:
448,192,70491,1,0,0:0:0:0:
320,192,70541,1,0,0:0:0:0:
192,192,70590,1,0,0:0:0:0:
64,192,70640,1,0,0:0:0:0:
192,192,70689,1,0,0:0:0:0:
320,192,70738,1,0,0:0:0:0:
448,192,70788,1,0,0:0:0:0:
64,192,70837,1,0,0:0:0:0:
320,192,70887,1,0,0:0:0:0:
192,192,70936,1,0,0:0:0:0:
64,192,70985,1,0,0:0:0:0:
448,192,71035,1,0,0:0:0:0:
320,192,71084,1,0,0:0:0:0:
64,192,71134,1,0,0:0:0:0:
448,192,71183,1,0,0:0:0:0:
192,192,71233,1,0,0:0:0:0:
64,192,71282,1,0,0:0:0:0:
320,192,71331,1,0,0:0:0:0:
448,192,71381,1,0,0:0:0:0:
192,192,71430,1,0,0:0:0:0:
64,192,71480,1,0,0:0:0:0:
320,192,71529,1,0,0:0:0:0:
192,192,71578,1,0,0:0:0:0:
448,192,71628,1,0,0:0:0:0:
320,192,71677,1,0,0:0:0:0:
64,192,71727,1,0,0:0:0:0:
448,192,71776,1,0,0:0:0:0:
192,192,71825,1,0,0:0:0:0:
320,192,71875,1,0,0:0:0:0:
64,192,71924,1,0,0:0:0:0:
192,192,71974,1,0,0:0:0:0:
320,192,72023,1,0,0:0:0:0:
448,192,72072,1,0,0:0:0:0:
64,192,72122,1,0,0:0:0:0:
320,192,72171,1,0,0:0:0:0:
192,192,72221,1,0,0:0:0:0:
448,192,72270,1,0,0:0:0:0:
64,192,72319,1,0,0:0:0:0:
320,192,72369,1,0,0:0:0:0:
192,192,72418,1,0,0:0:0:0:
64,192,72468,1,0,0:0:0:0:
448,192,72517,1,0,0:0:0:0:
192,192,72566,1,0,0:0:0:0:
320,192,72616,1,0,0:0:0:0:
448,192,72665,1,0,0:0:0:0:
64,192,72715,1,0,0:0:0:0:
320,192,72764,1,0,0:0:0:0:
192,192,72813,1,0,0:0:0:0:
448,192,72863,1,0,0:0:0:0:
320,192,72912,1,0,0:0:0:0:
192,192,72962,1,0,0:0:0:0:
64,192,73011,1,0,0:0:0:0:
448,192,73061,1,0,0:0:0:0:
64,192,73110,1,0,0:0:0:0:
192,192,73159,1,0,0:0:0:0:
320,192,73209,1,0,0:0:0:0:
448,192,73258,1,0,0:0:0:0:
64,192,73308,1,0,0:0:0:0:
448,192,73357,1,0,0:0:0:0:
320,192,73406,1,0,0:0:0:0:
192,192,73456,1,0,0:0:0:0:
448,192,73505,1,0,0:0:0:0:
64,192,73555,1,0,0:0:0:0:
192,192,73604,1,0,0:0:0:0:
320,192,73653,1,0,0:0:0:0:
448,192,73703,1,0,0:0:0:0:
64,192,73752,1,0,0:0:0:0:
320,192,73802,1,0,0:0:0:0:
192,192,73851,1,0,0:0:0:0:
64,192,73900,1,0,0:0:0:0:
448,192,73950,1,0,0:0:0:0:
320,192,73999,1,0,0:0:0:0:
192,192,74049,1,0,0:0:0:0:
64,192,74098,1,0,0:0:0:0:
192,192,74147,1,0,0:0:0:0:
320,192,74197,1,0,0:0:0:0:
448,192,74246,1,0,0:0:0:0:
320,192,74296,1,0,0:0:0:0:
192,192,74345,1,0,0:0:0:0:
64,192,74394,1,0,0:0:0:0:
448,192,74444,1,0,0:0:0:0:
192,192,74493,1,0,0:0:0:0:
320,192,74543,1,0,0:0:0:0:
448,192,74592,1,0,0:0:0:0:
64,192,74642,1,0,0:0:0:0:
192,192,74691,1,0,0:0:0:0:
448,192,74740,1,0,0:0:0:0:
64,192,74790,1,0,0:0:0:0:
320,192,74839,1,0,0:0:0:0:
448,192,74889,1,0,0:0:0:0:
192,192,74938,1,0,0:0:0:0:
64,192,74987,1,0,0:0:0:0:
320,192,75037,1,0,0:0:0:0:
448,192,75086,1,0,0:0:0:0:
192,192,75136,1,0,0:0:0:0:
320,192,75185,1,0,0:0:0:0:
64,192,75234,1,0,0:0:0:0:
192,192,75284,1,0,0:0:0:0:
448,192,75333,1,0,0:0:0:0:
64,192,75383,1,0,0:0:0:0:
320,192,75432,1,0,0:0:0:0:
192,192,75481,1,0,0:0:0:0:
448,192,75531,1,0,0:0:0:0:
320,192,75580,1,0,0:0:0:0:
192,192,75630,1,0,0:0:0:0:
64,192,75679,1,0,0:0:0:0:
448,192,75728,1,0,0:0:0:0:
192,192,75778,1,0,0:0:0:0:
320,192,75827,1,0,0:0:0:0:
64,192,75877,1,0,0:0:0:0:
448,192,75926,1,0,0:0:0:0:
192,192,75975,1,0,0:0:0:0:
320,192,76025,1,0,0:0:0:0:
448,192,76074,1,0,0:0:0:0:
64,192,76124,1,0,0:0:0:0:
320,192,76173,1,0,0:0:0:0:
192,192,76223,1,0,0:0:0:0:
64,192,76272,1,0,0:0:0:0:
448,192,76321,1,0,0:0:0:0:
192,192,76371,1,0,0:0:0:0:
320,192,76420,1,0,0:0:0:0:
64,192,76470,1,0,0:0:0:0:
192,192,76519,1,0,0:0:0:0:
320,192,76568,1,0,0:0:0:0:
448,192,76618,1,0,0:0:0:0:
64,192,76667,1,0,0:0:0:0:
448,192,76717,1,0,0:0:0:0:
320,192,76766,1,0,0:0:0:0:
192,192,76815,1,0,0:0:0:0:
64,192,76865,1,0,0:0:0:0:
448,192,76914,1,0,0:0:0:0:
64,192,76964,1,0,0:0:0:0:
192,192,77013,1,0,0:0:0:0:
320,192,77062,1,0,0:0:0:0:
64,192,77112,1,0,0:0:0:0:
448,192,77161,1,0,0:0:0:0:
320,192,77211,1,0,0:0:0:0:
192,192,77260,1,0,0:0:0:0:
64,192,77309,1,0,0:0:0:0:
448,192,77359,1,0,0:0:0:0:
192,192,77408,1,0,0:0:0:0:
320,192,77458,1,0,0:0:0:0:
448,192,77507,1,0,0:0:0:0:
64,192,77556,1,0,0:0:0:0:
192,192,77606,1,0,0:0:0:0:
320,192,77655,1,0,0:0:0:0:
448,192,77705,1,0,0:0:0:0:
320,192,77754,1,0,0:0:0:0:
192,192,77803,1,0,0:0:0:0:
64,192,77853,1,0,0:0:0:0:
192,192,77902,1,0,0:0:0:0:
320,192,77952,1,0,0:0:0:0:
448,192,78001,1,0,0:0:0:0:
64,192,78051,1,0,0:0:0:0:
320,192,78100,1,0,0:0:0:0:
192,192,78149,1,0,0:0:0:0:
64,192,78199,1,0,0:0:0:0:
448,192,78248,1,0,0:0:0:0:
320,192,78298,1,0,0:0:0:0:
64,192,78347,1,0,0:0:0:0:
448,192,78396,1,0,0:0:0:0:
192,192,78446,1,0,0:0:0:0:
64,192,78495,1,0,0:0:0:0:
320,192,78545,1,0,0:0:0:0:
448,192,78594,1,0,0:0:0:0:
192,192,78643,1,0,0:0:0:0:
64,192,78693,1,0,0:0:0:0:
320,192,78742,1,0,0:0:0:0:
192,192,78792,1,0,0:0:0:0:
448,192,78841,1,0,0:0:0:0:
320,192,78890,1,0,0:0:0:0:
64,192,78940,1,0,0:0:0:0:
448,192,78989,1,0,0:0:0:0:
192,192,79039,1,0,0:0:0:0:
320,192,79088,1,0,0:0:0:0:
64,192,79137,1,0,0:0:0:0:
192,192,79187,1,0,0:0:0:0:
320,192,79236,1,0,0:0:0:0:
448,192,79286,1,0,0:0:0:0:
64,192,79335,1,0,0:0:0:0:
320,192,79384,1,0,0:0:0:0:
192,192,79434,1,0,0:0:0:0:
448,192,79483,1,0,0:0:0:0:
64,192,79533,1,0,0:0:0:0:
320,192,79582,1,0,0:0:0:0:
192,192,79632,1,0,0:0:0:0:
64,192,79681,1,0,0:0:0:0:
448,192,79730,1,0,0:0:0:0:
192,192,79780,1,0,0:0:0:0:
320,192,79829,1,0,0:0:0:0:
448,192,79879,1,0,0:0:0:0:
64,192,79928,1,0,0:0:0:0:
320,192,79977,1,0,0:0:0:0:
192,192,80027,1,0,0:0:0:0:
448,192,80076,1,0,0:0:0:0:
320,192,80126,1,0,0:0:0:0:
192,192,80175,1,0,0:0:0:0:
64,192,80224,1,0,0:0:0:0:
448,192,80274,1,0,0:0:0:0:
64,192,80323,1,0,0:0:0:0:
192,192,80373,1,0,0:0:0:0:
320,192,80422,1,0,0:0:0:0:
448,192,80471,1,0,0:0:0:0:
64,192,80521,1,0,0:0:0:0:
448,192,80570,1,0,0:0:0:0:
320,192,80620,1,0,0:0:0:0:
192,192,80669,1,0,0:0:0:0:
448,192,80718,1,0,0:0:0:0:
64,192,80768,1,0,0:0:0:0:
192,192,80817,1,0,0:0:0:0:
320,192,80867,1,0,0:0:0:0:
448,192,80916,1,0,0:0:0:0:
64,192,80965,1,0,0:0:0:0:
320,192,81015,1,0,0:0:0:0:
192,192,81064,1,0,0:0:0:0:
64,192,81114,1,0,0:0:0:0:
448,192,81163,1,0,0:0:0:0:
320,192,81212,1,0,0:0:0:0:
192,192,81262,1,0,0:0:0:0:
64,192,81311,1,0,0:0:0:0:
192,192,81361,1,0,0:0:0:0:
320,192,81410,1,0,0:0:0:0:
448,192,81460,1,0,0:0:0:0:
320,192,81509,1,0,0:0:0:0:
192,192,81558,1,0,0:0:0:0:
64,192,81608,1,0,0:0:0:0:
448,192,81657,1,0,0:0:0:0:
192,192,81707,1,0,0:0:0:0:
320,192,81756,1,0,0:0:0:0:
448,192,81805,1,0,0:0:0:0:
64,192,81855,1,0,0:0:0:0:
192,192,81904,1,0,0:0:0:0:
448,192,81954,1,0,0:0:0:0:
64,192,82003,1,0,0:0:0:0:
320,192,82052,1,0,0:0:0:0:
448,192,82102,1,0,0:0:0:0:
192,192,82151,1,0,0:0:0:0:
64,192,82201,1,0,0:0:0:0:
320,192,82250,1,0,0:0:0:0:
448,192,82299,1,0,0:0:0:0:
192,192,82349,1,0,0:0:0:0:
320,192,82398,1,0,0:0:0:0:
64,192,82448,1,0,0:0:0:0:
320,192,82497,1,0,0:0:0:0:
448,192,82546,1,0,0:0:0:0:
64,192,82596,1,0,0:0:0:0:
320,192,82645,1,0,0:0:0:0:
192,192,82695,1,0,0:0:0:0:
448,192,82744,1,0,0:0:0:0:
320,192,82793,1,0,0:0:0:0:
192,192,82843,1,0,0:0:0:0:
64,192,82892,1,0,0:0:0:0:
448,192,82942,1,0,0:0:0:0:
192,192,82991,1,0,0:0:0:0:
320,192,83041,1,0,0:0:0:0:
64,192,83090,1,0,0:0:0:0:
448,192,83139,1,0,0:0:0:0:
192,192,83189,1,0,0:0:0:0:
320,192,83238,1,0,0:0:0:0:
448,192,83288,1,0,0:0:0:0:
64,192,83337,1,0,0:0:0:0:
320,192,83386,1,0,0:0:0:0:
192,192,83436,1,0,0:0:0:0:
64,192,83485,1,0,0:0:0:0:
448,192,83535,1,0,0:0:0:0:
192,192,83584,1,0,0:0:0:0:
320,192,83633,1,0,0:0:0:0:
64,192,83683,1,0,0:0:0:0:
192,192,83732,1,0,0:0:0:0:
320,192,83782,1,0,0:0:0:0:
448,192,83831,1,0,0:0:0:0:
64,192,83880,1,0,0:0:0:0:
448,192,83930,1,0,0:0:0:0:
320,192,83979,1,0,0:0:0:0:
192,192,84029,1,0,0:0:0:0:
64,192,84078,1,0,0:0:0:0:
448,192,84127,1,0,0:0:0:0:
64,192,84177,1,0,0:0:0:0:
192,192,84226,1,0,0:0:0:0:
320,192,84276,1,0,0:0:0:0:
64,192,84325,1,0,0:0:0:0:
448,192,84374,1,0,0:0:0:0:
320,192,84424,1,0,0:0:0:0:
192,192,84473,1,0,0:0:0:0:
64,192,84523,1,0,0:0:0:0:
448,192,84572,1,0,0:0:0:0:
192,192,84621,1,0,0:0:0:0:
320,192,84671,1,0,0:0:0:0:
448,192,84720,1,0,0:0:0:0:
64,192,84770,1,0,0:0:0:0:
192,192,84819,1,0,0:0:0:0:
320,192,84869,1,0,0:0:0:0:
448,192,84918,1,0,0:0:0:0:
320,192,84967,1,0,0:0:0:0:
192,192,85017,1,0,0:0:0:0:
64,192,85066,1,0,0:0:0:0:
192,192,85116,1,0,0:0:0:0:
320,192,85165,1,0,0:0:0:0:
448,192,85214,1,0,0:0:0:0:
64,192,85264,1,0,0:0:0:0:
320,192,85313,1,0,0:0:0:0:
192,192,85363,1,0,0:0:0:0:
64,192,85412,1,0,0:0:0:0:
448,192,85461,1,0,0:0:0:0:
320,192,85511,1,0,0:0:0:0:
64,192,85560,1,0,0:0:0:0:
448,192,85610,1,0,0:0:0:0:
192,192,85659,1,0,0:0:0:0:
64,192,85708,1,0,0:0:0:0:
320,192,85758,1,0,0:0:0:0:
448,192,85807,1,0,0:0:0:0:
192,192,85857,1,0,0:0:0:0:
64,192,85906,1,0,0:0:0:0:
320,192,85955,1,0,0:0:0:0:
192,192,86005,1,0,0:0:0:0:
448,192,86054,1,0,0:0:0:0:
320,192,86104,1,0,0:0:0:0:
64,192,86153,1,0,0:0:0:0:
448,192,86202,1,0,0:0:0:0:
192,192,86252,1,0,0:0:0:0:
320,192,86301,1,0,0:0:0:0:
64,192,86351,1,0,0:0:0:0:
192,192,86400,1,0,0:0:0:0:
320,192,86450,1,0,0:0:0:0:
448,192,86499,1,0,0:0:0:0:
64,192,86548,1,0,0:0:0:0:
320,192,86598,1,0,0:0:0:0:
192,192,86647,1,0,0:0:0:0:
448,192,86697,1,0,0:0:0:0:
64,192,86746,1,0,0:0:0:0:
320,192,86795,1,0,0:0:0:0:
192,192,86845,1,0,0:0:0:0:
64,192,86894,1,0,0:0:0:0:
448,192,86944,1,0,0:0:0:0:
192,192,86993,1,0,0:0:0:0:
320,192,87042,1,0,0:0:0:0:
448,192,87092,1,0,0:0:0:0:
64,192,87141,1,0,0:0:0:0:
320,192,87191,1,0,0:0:0:0:
192,192,87240,1,0,0:0:0:0:
448,192,87289,1,0,0:0:0:0:
320,192,87339,1,0,0:0:0:0:
192,192,87388,1,0,0:0:0:0:
64,192,87438,1,0,0:0:0:0:
448,192,87487,1,0,0:0:0:0:
64,192,87536,1,0,0:0:0:0:
192,192,87586,1,0,0:0:0:0:
320,192,87635,1,0,0:0:0:0:
448,192,87685,1,0,0:0:0:0:
64,192,87734,1,0,0:0:0:0:
448,192,87783,1,0,0:0:0:0:
320,192,87833,1,0,0:0:0:0:
192,192,87882,1,0,0:0:0:0:
448,192,87932,1,0,0:0:0:0:
64,192,87981,1,0,0:0:0:0:
192,192,88030,1,0,0:0:0:0:
320,192,88080,1,0,0:0:0:0:
448,192,88129,1,0,0:0:0:0:
64,192,88179,1,0,0:0:0:0:
320,192,88228,1,0,0:0:0:0:
192,192,88278,1,0,0:0:0:0:
64,192,88327,1,0,0:0:0:0:
448,192,88376,1,0,0:0:0:0:
320,192,88426,1,0,0:0:0:0:
192,192,88475,1,0,0:0:0:0:
64,192,88525,1,0,0:0:0:0:
192,192,88574,1,0,0:0:0:0:
320,192,88623,1,0,0:0:0:0:
448,192,88673,1,0,0:0:0:0:
320,192,88722,1,0,0:0:0:0:
192,192,88772,1,0,0:0:0:0:
64,192,88821,1,0,0:0:0:0:
448,192,88870,1,0,0:0:0:0:
192,192,88920,1,0,0:0:0:0:
320,192,88969,1,0,0:0:0:0:
448,192,89019,1,0,0:0:0:0:
64,192,89068,1,0,0:0:0:0:
192,192,89117,1,0,0:0:0:0:
448,192,89167,1,0,0:0:0:0:
64,192,89216,1,0,0:0:0:0:
320,192,89266,1,0,0:0:0:0:
448,192,89315,1,0,0:0:0:0:
192,192,89364,1,0,0:0:0:0:
64,192,89414,1,0,0:0:0:0:
320,192,89463,1,0,0:0:0:0:
448,192,89513,1,0,0:0:0:0:
192,192,89562,1,0,0:0:0:0:
320,192,89611,1,0,0:0:0:0:
64,192,89661,1,0,0:0:0:0:
192,192,89710,1,0,0:0:0:0:
448,192,89760,1,0,0:0:0:0:
64,192,89809,1,0,0:0:0:0:
320,192,89859,1,0,0:0:0:0:
192,192,89908,1,0,0:0:0:0:
448,192,89957,1,0,0:0:0:0:
320,192,90007,1,0,0:0:0:0:
192,192,90056,1,0,0:0:0:0:
64,192,90106,1,0,0:0:0:0:
448,192,90155,1,0,0:0:0:0:
192,192,90204,1,0,0:0:0:0:
320,192,90254,1,0,0:0:0:0:
64,192,90303,1,0,0:0:0:0:
448,192,90353,1,0,0:0:0:0:
192,192,90402,1,0,0:0:0:0:
320,192,90451,1,0,0:0:0:0:
448,192,90501,1,0,0:0:0:0:
64,192,90501,1,0,0:0:0:0:
192,192,90550,1,0,0:0:0:0:
320,192,90600,1,0,0:0:0:0:
448,192,90649,1,0,0:0:0:0:
64,192,90698,1,0,0:0:0:0:
192,192,90748,1,0,0:0:0:0:
320,192,90797,1,0,0:0:0:0:
448,192,90847,1,0,0:0:0:0:
64,192,90896,1,0,0:0:0:0:
192,192,90945,1,0,0:0:0:0:
320,192,90995,1,0,0:0:0:0:
448,192,91044,1,0,0:0:0:0:
64,192,91094,1,0,0:0:0:0:
192,192,91143,1,0,0:0:0:0:
320,192,91192,1,0,0:0:0:0:
448,192,91242,1,0,0:0:0:0:
64,192,91291,1,0,0:0:0:0:
192,192,91341,1,0,0:0:0:0:
320,192,91390,1,0,0:0:0:0:
448,192,91440,1,0,0:0:0:0:
64,192,91440,1,0,0:0:0:0:
192,192,91489,1,0,0:0:0:0:
320,192,91538,1,0,0:0:0:0:
448,192,91588,1,0,0:0:0:0:
64,192,91588,1,0,0:0:0:0:
192,192,91637,1,0,0:0:0:0:
320,192,91687,1,0,0:0:0:0:
448,192,91687,1,0,0:0:0:0:
192,192,91687,1,0,0:0:0:0:
64,192,91687,1,0,0:0:0:0:
