osu file format v14

[General]
AudioFilename: sound.mp3
AudioLeadIn: 0
PreviewTime: 40646
Countdown: 0
SampleSet: Normal
StackLeniency: 0.7
Mode: 0
LetterboxInBreaks: 0
EpilepsyWarning: 1
WidescreenStoryboard: 1

[Editor]
Bookmarks: 8135,40135,64135,66021,80146,96146,112146,131146
DistanceSpacing: 1.1
BeatDivisor: 3
GridSize: 4
TimelineZoom: 1

[Metadata]
Title:Knock Knock
TitleUnicode:Knock Knock
Artist:Lenka
ArtistUnicode:Lenka
Creator:Bakari
Version:Advanced
Source:
Tags:Kripac
BeatmapID:700000
BeatmapSetID:313572

[Difficulty]
HPDrainRate:6
CircleSize:4
OverallDifficulty:6
ApproachRate:7
SliderMultiplier:1.6
SliderTickRate:1

[Events]
//Background and Video events
0,0,"notbg.jpg",0,0
//Break Periods
2,37846,39246
2,64346,78746
//Storyboard Layer 0 (Background)
//Storyboard Layer 1 (Fail)
//Storyboard Layer 2 (Pass)
//Storyboard Layer 3 (Foreground)
//Storyboard Sound Samples

[TimingPoints]
146,500,4,2,1,35,1,0
24146,-100,4,2,1,25,0,0
24646,-100,4,2,1,35,0,0
37646,-100,4,2,1,55,0,0
40146,-86.9565217391304,4,1,1,55,0,1
42979,-86.9565217391304,4,1,1,40,0,1
43146,-86.9565217391304,4,1,1,45,0,1
43312,-86.9565217391304,4,1,1,50,0,1
43479,-86.9565217391304,4,1,1,55,0,1
55979,-86.9565217391304,4,1,1,55,0,0
56146,-86.9565217391304,4,1,1,55,0,1
63312,-86.9565217391304,4,1,1,45,0,1
63479,-86.9565217391304,4,1,1,35,0,1
63646,-86.9565217391304,4,1,1,55,0,1
64146,-100,4,2,1,65,0,0
79646,-100,4,1,1,55,0,0
80146,-100,4,2,1,45,0,0
95646,-100,4,2,1,35,0,0
96146,-86.9565217391304,4,1,1,55,0,1
98979,-100,4,1,1,40,0,1
99146,-100,4,1,1,45,0,1
99312,-100,4,1,1,50,0,1
99479,-86.9565217391304,4,1,1,55,0,1
111979,-86.9565217391304,4,1,1,55,0,0
112146,-86.9565217391304,4,1,1,55,0,1
120146,-100,4,1,1,55,0,0
128145,-100,4,1,1,70,0,0

[Colours]
Combo1 : 234,216,115
Combo2 : 99,180,82
Combo3 : 164,162,96
Combo4 : 162,185,164
SliderTrackOverride : 200,100,150
SliderBorder : 100,200,120

[HitObjects]
328,152,8146,6,0,P|371:130|370:11,2,160,2|0|0,0:0|0:0|0:0,0:0:0:0:
192,180,9479,2,0,P|212:196|234:229,1,53.3333333333333,0|2,0:0|0:0,0:0:0:0:
304,380,10146,1,0,0:1:0:0:
472,256,10646,2,0,P|492:208|436:108,2,160,2|0|2,0:0|0:0|0:0,0:0:0:0:
272,312,12146,5,0,0:0:0:0:
68,344,12646,2,0,P|68:304|100:224,1,106.666666666667,2|0,0:0|0:0,0:0:0:0:
208,72,13479,1,0,0:0:0:0:
240,132,13646,1,2,0:0:0:0:
240,132,14146,2,0,P|292:109|310:-9,2,160,0|2|0,0:0|0:0|0:0,0:0:0:0:
112,188,15479,2,0,L|36:180,1,53.3333333333333,0|2,0:0|0:0,0:0:0:0:
180,348,16146,5,0,0:0:0:0:
388,340,16646,2,0,P|416:332|456:200,2,160,2|0|2,0:0|0:0|0:0,0:0:0:0:
192,268,18146,1,0,0:0:0:0:
140,68,18646,2,0,P|184:52|296:112,2,160,2|0|2,0:0|0:0|0:0,0:0:0:0:
280,220,20146,6,0,P|344:216|408:140,1,160,0|2,0:0|0:0,0:0:0:0:
208,88,21146,2,0,P|172:112|148:196,1,106.666666666667,0|0,0:0|0:0,0:0:0:0:
158,238,21646,1,2,0:0:0:0:
348,328,22146,2,0,P|346:249|298:186,1,160,0|2,0:0|0:0,0:0:0:0:
204,84,22979,2,0,P|184:56|176:25,1,53.3333333333333,0|0,0:0|0:0,0:0:0:0:
316,20,23479,2,0,P|336:48|343:78,1,53.3333333333333,0|2,0:0|0:0,0:0:0:0:
200,220,24146,5,4,1:0:0:0:
400,168,24646,2,0,P|412:208|376:332,2,160,2|0|2,0:3|0:0|0:3,0:0:0:0:
220,64,26146,1,2,0:0:0:0:
152,260,26646,2,0,L|340:256,2,160,2|0|2,0:3|0:0|0:3,0:0:0:0:
184,124,27979,1,0,0:0:0:0:
132,172,28146,6,0,P|84:184|12:100,2,160,2|2|0,0:0|0:3|0:0,0:0:0:0:
216,64,29479,2,0,L|276:60,1,53.3333333333333,0|2,0:0|0:3,0:0:0:0:
320,264,30146,2,0,L|144:248,2,160,2|2|0,0:0|0:3|0:0,0:0:0:0:
408,156,31479,1,0,0:0:0:0:
448,212,31646,2,0,P|452:252|408:312,1,106.666666666667,2|0,0:3|0:0,0:0:0:0:
352,324,32146,6,0,L|176:312,2,160,2|2|0,0:0|0:3|0:0,0:0:0:0:
448,212,33479,2,0,L|376:216,1,53.3333333333333,0|2,0:0|0:3,0:0:0:0:
244,72,34146,2,0,P|288:44|408:56,2,160,2|2|0,0:0|0:3|0:3,0:0:0:0:
104,88,35479,2,0,P|88:72|76:44,1,53.3333333333333,0|2,0:0|0:3,0:0:0:0:
195,127,35979,1,0,0:0:0:0:
244,72,36146,6,0,P|268:124|192:200,2,160,2|2|0,0:0|0:3|0:0,0:0:0:0:
44,12,37646,1,2,2:0:0:0:
116,324,40146,6,0,L|112:132,1,184.000003509522,6|10,0:0|0:0,0:0:0:0:
316,56,41146,2,0,P|336:96|324:180,1,122.666669006348,2|0,0:0|2:0,0:0:0:0:
280,228,41646,2,0,P|269:287|292:343,1,122.666669006348,10|0,0:0|2:0,0:0:0:0:
368,348,42146,6,0,P|360:312|224:308,1,184.000003509522,2|10,0:0|0:0,0:0:0:0:
92,272,42979,2,0,P|80:244|44:212,2,61.3333345031739,2|0|0,0:0|0:0|0:0,0:0:0:0:
76,344,43479,1,2,0:0:0:0:
148,360,43646,2,0,P|188:328|192:248,1,122.666669006348,10|0,0:0|2:0,0:0:0:0:
248,208,44146,6,0,P|312:200|352:148,1,122.666669006348,4|0,0:0|2:0,0:0:0:0:
336,84,44646,2,0,P|288:76|188:160,2,184.000003509522,10|2|10,0:0|0:0|0:0,0:0:0:0:
472,256,46146,5,4,0:0:0:0:
256,216,46646,2,0,P|216:236|180:308,1,122.666669006348,10|0,0:0|2:0,0:0:0:0:
108,312,47146,2,0,P|100:284|69:246,1,61.3333345031739,10|0,0:0|2:0,0:0:0:0:
28,208,47479,1,2,0:0:0:0:
36,136,47646,2,0,P|74:99|157:94,1,122.666669006348,10|0,0:0|2:0,0:0:0:0:
216,112,48146,6,0,L|360:104,1,122.666669006348,6|0,0:0|2:0,0:0:0:0:
393,196,48646,2,0,L|265:188,1,122.666669006348,10|0,0:0|2:0,0:0:0:0:
205,274,49146,2,0,L|349:266,1,122.666669006348,2|0,0:0|2:0,0:0:0:0:
386,358,49646,2,0,L|258:350,1,122.666669006348,10|0,0:0|2:0,0:0:0:0:
192,364,50146,6,0,P|152:348|140:220,2,184.000003509522,2|10|2,0:0|0:0|0:0,0:0:0:0:
332,316,51479,1,2,0:0:0:0:
300,248,51646,2,0,P|292:200|316:120,1,122.666669006348,10|0,0:0|2:0,0:0:0:0:
372,79,52146,6,0,B|409:55|469:49|509:104|488:151|488:151|512:232|453:266|377:233,1,368.000007019043,4|0,0:0|0:3,0:0:0:0:
152,229,53646,2,0,L|24:217,1,122.666669006348,10|2,0:0|2:1,0:0:0:0:
9,141,54146,6,0,P|45:85|161:85,1,184.000003509522,4|10,0:0|0:0,0:0:0:0:
240,208,54979,1,2,0:0:0:0:
300,164,55146,2,0,P|308:236|268:276,1,122.666669006348,2|2,0:0|0:0,0:0:0:0:
204,276,55646,2,0,P|216:316|236:340,2,61.3333345031739,10|8|4,0:0|0:3|0:3,0:0:0:0:
164,216,56146,6,0,P|120:220|64:284,1,122.666669006348,4|0,0:0|2:0,0:0:0:0:
84,344,56646,2,0,L|292:360,1,184.000003509522,10|2,0:0|0:0,0:0:0:0:
384,268,57479,1,2,0:0:0:0:
448,232,57646,2,0,P|416:204|336:216,1,122.666669006348,10|0,0:0|2:0,0:0:0:0:
308,280,58146,6,0,L|164:272,1,122.666669006348,2|0,0:0|2:0,0:0:0:0:
124,236,58646,2,0,P|88:188|96:120,1,122.666669006348,10|0,0:0|2:0,0:0:0:0:
156,88,59146,2,0,P|188:92|228:124,2,61.3333345031739,2|0|2,0:0|0:0|0:0,0:0:0:0:
160,160,59646,2,0,P|216:180|276:144,1,122.666669006348,10|0,0:0|2:0,0:0:0:0:
344,158,60146,6,0,P|368:206|356:282,1,122.666669006348,4|0,0:0|2:0,0:0:0:0:
292,293,60646,2,0,L|152:273,1,122.666669006348,10|0,0:0|2:0,0:0:0:0:
176,199,61146,2,0,L|304:219,1,122.666669006348,2|0,0:0|2:0,0:0:0:0:
344,158,61646,2,0,P|352:124|348:88,2,61.3333345031739,10|0|2,0:0|0:0|0:0,0:0:0:0:
380,224,62146,6,0,P|420:208|480:128,1,122.666669006348,2|0,0:0|2:0,0:0:0:0:
480,72,62646,2,0,P|444:28|360:0,1,122.666669006348,10|0,0:0|2:0,0:0:0:0:
312,32,63146,2,0,L|244:24,2,61.3333345031739,2|0|2,0:0|0:0|0:0,0:0:0:0:
336,108,63646,1,10,0:0:0:0:
336,108,64146,1,4,0:1:0:0:
192,212,79646,6,0,P|224:164|228:112,1,106.666666666667,4|0,0:1|2:0,0:0:0:0:
208,48,80146,6,0,L|376:28,1,160,4|8,0:2|0:0,0:0:0:0:
504,188,81146,2,0,P|500:224|464:288,1,106.666666666667,0|0,0:0|0:0,0:0:0:0:
396,296,81646,2,0,P|364:284|280:276,1,106.666666666667,8|0,0:0|0:0,0:0:0:0:
236,316,82146,1,2,0:0:0:0:
132,136,82646,1,8,0:0:0:0:
0,312,83146,2,0,L|124:304,1,106.666666666667,0|0,0:0|0:0,0:0:0:0:
168,340,83646,1,8,0:0:0:0:
132,136,84146,5,2,0:0:0:0:
328,204,84646,2,0,P|340:172|328:96,1,106.666666666667,8|0,0:0|0:0,0:0:0:0:
272,57,85146,1,0,0:0:0:0:
204,252,85646,2,0,L|80:240,1,106.666666666667,8|0,0:0|0:0,0:0:0:0:
60,184,86146,2,0,P|44:120|112:40,1,160,2|8,0:0|0:0,0:0:0:0:
280,140,87146,2,0,L|332:132,2,53.3333333333333,2|0|0,0:0|0:0|0:0,0:0:0:0:
224,100,87646,1,8,0:0:0:0:
196,308,88146,5,4,0:1:0:0:
380,212,88646,2,0,P|404:256|396:368,2,160,8|0|8,0:0|0:0|0:0,0:0:0:0:
196,116,90146,1,2,0:0:0:0:
92,296,90646,2,0,L|204:272,1,106.666666666667,8|0,0:0|0:0,0:0:0:0:
225,339,91146,2,0,L|112:363,1,106.666666666667,0|0,0:0|0:0,0:0:0:0:
52,354,91646,1,8,0:0:0:0:
52,354,92146,5,2,0:0:0:0:
152,172,92646,2,0,L|140:56,1,106.666666666667,8|0,0:0|0:0,0:0:0:0:
188,12,93146,1,0,0:0:0:0:
20,136,93646,1,8,0:0:0:0:
176,272,94146,2,0,P|208:260|264:200,1,106.666666666667,2|0,0:0|0:0,0:0:0:0:
320,176,94646,2,0,P|360:196|400:256,1,106.666666666667,8|0,0:0|1:0,0:0:0:0:
396,316,95146,1,4,0:1:0:0:
192,352,95646,2,0,L|182:281,2,53.3333333333333,8|0|0,0:0|0:0|0:0,0:0:0:0:
264,356,96146,6,0,L|240:224,1,122.666669006348,6|0,0:0|2:0,0:0:0:0:
163,191,96646,2,0,L|143:319,1,122.666669006348,10|0,0:0|2:0,0:0:0:0:
81,373,97146,2,0,L|57:241,1,122.666669006348,2|0,0:0|2:0,0:0:0:0:
16,192,97646,1,10,0:0:0:0:
180,44,98146,6,0,P|224:64|272:152,1,122.666669006348,2|0,0:0|2:0,0:0:0:0:
264,196,98646,2,0,L|408:176,1,122.666669006348,10|0,0:0|2:0,0:0:0:0:
427,270,99146,2,0,L|364:264,2,53.3333333333333,0|0|2,0:0|0:0|0:0,0:0:0:0:
363,343,99646,2,0,L|172:376,1,184.000003509522,10|4,0:0|0:0,0:0:0:0:
20,224,100646,5,10,0:0:0:0:
184,76,101146,2,0,P|220:128|232:216,1,122.666669006348,2|0,0:0|2:0,0:0:0:0:
104,224,101646,2,0,P|88:184|92:100,1,122.666669006348,10|0,0:0|2:0,0:0:0:0:
160,176,102146,5,4,0:0:0:0:
156,182,102646,2,0,P|208:170|292:190,1,122.666669006348,10|0,0:0|2:0,0:0:0:0:
332,232,103146,2,0,L|344:300,2,61.3333345031739,10|0|2,0:0|2:0|0:0,0:0:0:0:
388,184,103646,2,0,L|368:60,1,122.666669006348,10|0,0:0|2:0,0:0:0:0:
424,12,104146,5,6,0:0:0:0:
248,144,104646,2,0,P|216:120|184:40,1,122.666669006348,10|0,0:0|2:0,0:0:0:0:
116,16,105146,2,0,P|72:56|40:124,1,122.666669006348,2|0,0:0|2:0,0:0:0:0:
56,184,105646,1,10,0:0:0:0:
98,332,105979,1,0,0:0:0:0:
165,374,106146,6,0,L|305:362,1,122.666669006348,2|0,0:0|2:0,0:0:0:0:
369,299,106646,2,0,L|233:283,1,122.666669006348,10|0,0:0|2:0,0:0:0:0:
172,212,107146,2,0,L|314:197,1,122.666669006348,2|0,0:0|2:0,0:0:0:0:
367,223,107646,1,10,0:0:0:0:
192,104,108146,6,0,B|156:68|164:12|184:-8|236:-8|264:16|264:16|300:-4|328:-4|364:16|376:48|344:96|304:124,1,368.000007019043,4|2,0:0|0:0,0:0:0:0:
257,316,109646,1,10,0:0:0:0:
52,264,110146,6,0,P|44:296|40:344,1,61.3333345031739,4|0,0:0|2:0,0:0:0:0:
181,346,110646,2,0,P|177:302|141:226,1,122.666669006348,2|0,0:3|0:0,0:0:0:0:
180,168,111146,2,0,P|228:160|288:108,1,122.666669006348,2|2,0:0|0:0,0:0:0:0:
228,64,111646,2,0,P|194:78|170:103,2,61.3333345031739,10|8|4,0:0|0:3|0:3,0:0:0:0:
284,114,112146,6,0,P|300:166|268:298,1,184.000003509522,4|10,0:0|0:0,0:0:0:0:
56,332,113146,2,0,P|40:288|40:200,1,122.666669006348,2|2,0:0|0:0,0:0:0:0:
92,164,113646,2,0,L|220:168,1,122.666669006348,10|0,0:0|2:0,0:0:0:0:
260,108,114146,1,2,0:0:0:0:
376,296,114646,1,10,0:0:0:0:
156,296,115146,2,0,P|140:312|112:352,2,61.3333345031739,2|0|2,0:0|0:0|0:0,0:0:0:0:
228,292,115646,2,0,P|244:232|300:176,1,122.666669006348,10|0,0:0|2:0,0:0:0:0:
356,172,116146,5,4,0:0:0:0:
172,52,116646,1,10,0:0:0:0:
260,256,117146,2,0,L|408:264,1,122.666669006348,2|0,0:0|2:0,0:0:0:0:
432,208,117646,1,10,0:0:0:0:
216,160,118146,2,0,L|76:152,1,122.666669006348,2|0,0:0|2:0,0:0:0:0:
48,96,118646,1,10,0:0:0:0:
268,90,119146,2,0,P|300:150|216:258,1,184.000003509522,2|14,0:0|0:2,0:0:0:0:
92,352,120146,5,4,0:0:0:0:
92,172,120646,1,10,0:0:0:0:
92,172,121146,2,0,L|80:40,1,106.666666666667,2|0,0:0|2:0,0:0:0:0:
137,19,121646,2,0,P|164:48|188:136,1,106.666666666667,10|0,0:0|2:0,0:0:0:0:
164,176,122146,1,4,0:0:0:0:
344,276,122646,1,10,0:0:0:0:
312,72,123146,2,0,P|340:68|380:68,2,53.3333333333333,2|0|2,0:0|2:0|0:0,0:0:0:0:
260,120,123646,1,10,0:0:0:0:
284,328,124146,6,0,P|332:352|420:292,2,160,4|10|2,0:0|0:0|0:0,0:0:0:0:
196,140,125646,2,0,L|172:256,1,106.666666666667,12|0,0:0|2:0,0:0:0:0:
278,307,126146,2,0,L|266:191,1,106.666666666667,4|0,0:0|2:0,0:0:0:0:
374,151,126646,2,0,L|350:267,1,106.666666666667,12|0,0:0|2:0,0:0:0:0:
416,328,127146,2,0,P|440:292|436:216,1,106.666666666667,6|0,0:0|2:0,0:0:0:0:
374,151,127646,2,0,P|370:111|374:87,2,53.3333333333333,14|8|10,0:0|0:3|0:0,0:0:0:0:
327,212,128146,1,4,0:0:0:0:
256,192,128312,12,2,131146,2:0:0:0:
