osu file format v14

[General]
AudioFilename: audio.mp3
AudioLeadIn: 0
PreviewTime: 44295
Countdown: 0
SampleSet: Normal
StackLeniency: 0.3
Mode: 0
LetterboxInBreaks: 0
WidescreenStoryboard: 1

[Editor]
Bookmarks: 4258,49258
DistanceSpacing: 2.5
BeatDivisor: 4
GridSize: 4
TimelineZoom: 2

[Metadata]
Title:Blue Skies (REVOKE Remix)
TitleUnicode:Blue Skies (REVOKE Remix)
Artist:Lenka
ArtistUnicode:Lenka
Creator:L u m ii n a
Version:Sky
Source:
Tags:
BeatmapID:1495636
BeatmapSetID:707251

[Difficulty]
HPDrainRate:6
CircleSize:4
OverallDifficulty:9
ApproachRate:9.7
SliderMultiplier:2
SliderTickRate:1

[Events]
//Background and Video events
0,0,"bg.png",0,0
//Break Periods
2,65341,66410
//Storyboard Layer 0 (Background)
//Storyboard Layer 1 (Fail)
//Storyboard Layer 2 (Pass)
//Storyboard Layer 3 (Foreground)
//Storyboard Layer 4 (Overlay)
//Storyboard Sound Samples

[TimingPoints]
200,352.941176470588,4,2,0,50,1,0
552,-133.333333333333,4,2,0,35,0,0
4258,-133.333333333333,4,2,0,35,0,0
5758,-133.333333333333,4,2,0,5,0,0
6199,-133.333333333333,4,2,0,35,0,0
8141,-133.333333333333,4,2,0,5,0,0
8317,-133.333333333333,4,2,0,35,0,0
8494,-133.333333333333,4,2,0,5,0,0
8670,-133.333333333333,4,2,0,35,0,0
8847,-133.333333333333,4,2,0,5,0,0
9023,-133.333333333333,4,2,0,35,0,0
9199,-133.333333333333,4,2,0,5,0,0
9376,-133.333333333333,4,2,0,35,0,0
11317,-133.333333333333,4,2,0,50,0,0
14494,-133.333333333333,4,2,0,5,0,0
14670,-133.333333333333,4,2,0,50,0,0
14847,-133.333333333333,4,2,0,5,0,0
15023,-133.333333333333,4,2,0,50,0,0
15199,-133.333333333333,4,2,0,5,0,0
15376,-133.333333333333,4,2,0,50,0,0
15905,-133.333333333333,4,2,0,5,0,0
16082,-133.333333333333,4,2,0,50,0,0
16258,-133.333333333333,4,2,0,5,0,0
16435,-133.333333333333,4,2,0,50,0,0
21288,-133.333333333333,4,2,0,5,0,0
21729,-133.333333333333,4,2,0,50,0,0
22788,-200,4,2,0,50,0,0
29847,-100,4,2,0,50,0,0
30023,-100,4,2,0,5,0,0
30199,-100,4,2,0,50,0,0
30376,-100,4,2,0,5,0,0
30552,-100,4,2,0,50,0,0
30729,-100,4,2,0,5,0,0
30905,-100,4,2,0,50,0,0
32494,-100,4,2,0,30,0,0
32582,-100,4,2,0,40,0,0
32670,-100,4,2,0,50,0,0
33905,-100,4,2,0,5,0,0
34082,-100,4,2,0,50,0,0
36552,-133.333333333333,4,2,0,50,0,0
36905,-100,4,2,0,50,0,0
38141,-100,4,2,0,5,0,0
38317,-100,4,2,0,50,0,0
42552,-200,4,2,0,50,0,0
44670,-133.333333333333,4,2,0,50,0,0
44847,-133.333333333333,4,2,0,5,0,0
45023,-100,4,2,0,50,0,0
45199,-100,4,2,0,5,0,0
45376,-200,4,1,0,50,0,1
45552,-100,4,1,0,5,0,1
45729,-66.6666666666667,4,1,0,50,0,1
45905,-100,4,1,0,5,0,1
46082,-100,4,1,0,50,0,1
47141,-200,4,1,0,50,0,1
47317,-200,4,2,0,5,0,1
47494,-100,4,1,0,50,0,1
48199,-200,4,1,0,50,0,1
48376,-100,4,2,0,5,0,1
48552,-100,4,1,0,50,0,1
48729,-100,4,2,0,5,0,1
48905,-100,4,1,0,50,0,1
49788,-100,4,2,0,5,0,1
49964,-100,4,1,0,50,0,1
51023,-200,4,1,0,50,0,1
51199,-100,4,2,0,5,0,1
51376,-66.6666666666667,4,1,0,50,0,1
51552,-100,4,2,0,5,0,1
51729,-100,4,1,0,50,0,1
52435,-200,4,1,0,50,0,1
52611,-100,4,2,0,5,0,1
52788,-66.6666666666667,4,1,0,50,0,1
52964,-100,4,2,0,5,0,1
53141,-100,4,1,0,50,0,1
53847,-200,4,1,0,50,0,1
54023,-100,4,2,0,5,0,1
54199,-66.6666666666667,4,1,0,50,0,1
54376,-100,4,2,0,5,0,1
54552,-100,4,1,0,50,0,1
55258,-200,4,1,0,50,0,1
55435,-83.3333333333333,4,2,0,5,0,1
55611,-100,4,1,0,50,0,1
56670,-200,4,1,0,50,0,1
56847,-100,4,2,0,5,0,1
57023,-66.6666666666667,4,1,0,50,0,1
57199,-100,4,2,0,5,0,1
57376,-100,4,1,0,50,0,1
58082,-200,4,1,0,50,0,1
58258,-100,4,2,0,5,0,1
58435,-66.6666666666667,4,1,0,50,0,1
58611,-100,4,2,0,5,0,1
58788,-100,4,1,0,50,0,1
59494,-200,4,1,0,50,0,1
59670,-100,4,2,0,5,0,1
59847,-66.6666666666667,4,1,0,50,0,1
60023,-100,4,2,0,5,0,1
60199,-100,4,1,0,50,0,1
60905,-200,4,1,0,50,0,1
61082,-100,4,2,0,5,0,1
61258,-100,4,1,0,50,0,1
62317,-200,4,1,0,50,0,1
62494,-100,4,2,0,5,0,1
62670,-66.6666666666667,4,1,0,50,0,1
62847,-100,4,2,0,5,0,1
63023,-100,4,1,0,50,0,1
63729,-200,4,1,0,50,0,1
63905,-100,4,2,0,5,0,1
64082,-66.6666666666667,4,1,0,50,0,1
64258,-100,4,2,0,5,0,1
64435,-100,4,1,0,50,0,1
65141,-100,4,1,0,50,0,0
66905,-100,4,2,0,50,0,0
67788,-100,4,2,0,5,0,0
67964,-200,4,1,0,50,0,1
68141,-100,4,2,0,5,0,1
68317,-66.6666666666667,4,1,0,50,0,1
68494,-100,4,2,0,5,0,1
68670,-100,4,1,0,50,0,1
69376,-200,4,1,0,50,0,1
69552,-100,4,2,0,5,0,1
69729,-66.6666666666667,4,1,0,50,0,1
69905,-100,4,2,0,5,0,1
70082,-100,4,1,0,50,0,1
70788,-200,4,1,0,50,0,1
70964,-100,4,2,0,5,0,1
71141,-66.6666666666667,4,1,0,50,0,1
71317,-100,4,2,0,5,0,1
71494,-100,4,1,0,50,0,1
72199,-133.333333333333,4,1,0,50,0,1
72376,-100,4,2,0,5,0,1
72552,-100,4,1,0,50,0,1
73611,-200,4,1,0,50,0,1
73788,-200,4,2,0,5,0,1
73964,-66.6666666666667,4,1,0,50,0,1
74141,-66.6666666666667,4,2,0,5,0,1
74317,-66.6666666666667,4,1,0,50,0,1
75023,-200,4,1,0,50,0,1
75199,-200,4,2,0,5,0,1
75376,-66.6666666666667,4,1,0,50,0,1
75552,-66.6666666666667,4,2,0,5,0,1
75729,-66.6666666666667,4,1,0,50,0,1
76435,-200,4,1,0,50,0,1
76611,-200,4,2,0,5,0,1
76788,-66.6666666666667,4,1,0,50,0,1
76964,-66.6666666666667,4,2,0,5,0,1
77141,-100,4,1,0,50,0,1
77847,-133.333333333333,4,1,0,50,0,1
78023,-133.333333333333,4,2,0,5,0,1
78199,-133.333333333333,4,1,0,50,0,1
79258,-200,4,1,0,50,0,1
79435,-200,4,2,0,5,0,1
79611,-66.6666666666667,4,1,0,50,0,1
79788,-66.6666666666667,4,2,0,5,0,1
79964,-66.6666666666667,4,1,0,50,0,1
80670,-200,4,1,0,50,0,1
80847,-200,4,2,0,5,0,1
81023,-66.6666666666667,4,1,0,50,0,1
81199,-66.6666666666667,4,2,0,5,0,1
81376,-66.6666666666667,4,1,0,50,0,1
82082,-200,4,1,0,50,0,1
82258,-200,4,2,0,5,0,1
82435,-66.6666666666667,4,1,0,50,0,1
82611,-66.6666666666667,4,2,0,5,0,1
82788,-100,4,1,0,50,0,1
83494,-133.333333333333,4,1,0,50,0,1
83670,-133.333333333333,4,2,0,5,0,1
83847,-100,4,1,0,50,0,1
85082,-133.333333333333,4,2,0,5,0,1
85258,-133.333333333333,4,2,0,50,0,1
85435,-133.333333333333,4,2,0,5,0,1
85611,-133.333333333333,4,2,0,50,0,1
86494,-133.333333333333,4,2,0,5,0,1
86670,-133.333333333333,4,2,0,50,0,1
86847,-133.333333333333,4,2,0,5,0,1
87023,-79.9999999999999,4,2,0,50,0,1
87199,-133.333333333333,4,2,0,5,0,1
87376,-133.333333333333,4,1,0,50,0,1
87729,-100,4,1,0,50,0,0

[Colours]
Combo1 : 74,74,255
Combo2 : 0,0,255
Combo3 : 121,121,255
Combo4 : 0,0,128

[HitObjects]
44,36,552,6,0,L|55:111,1,75.0000028610231
260,87,905,2,0,P|197:49|126:66,1,150.000005722046
244,170,1788,6,0,L|322:164,1,75.0000028610231
402,89,2141,1,0,0:0:0:0:
318,164,2317,2,0,P|298:234|336:296,1,150.000005722046
389,222,3023,5,0,0:0:0:0:
77,188,3376,2,0,L|227:173,1,150.000005722046
317,164,3905,1,0,0:0:0:0:
2,196,4258,6,0,B|0:161|12:132|40:98|79:91|128:97|165:127|170:177|168:219|133:253|101:262|101:262|171:246|217:282|217:282|266:322|346:301|346:301|292:308|264:264,1,675.000025749208
348,228,6199,6,0,P|354:264|346:301,1,75.0000028610231
240,168,6552,2,0,P|213:99|247:20,1,150.000005722046
62,142,7611,5,0,0:0:0:0:
151,155,7788,1,0,0:0:0:0:
240,168,7964,2,0,L|363:159,1,112.500004291535
419,104,8317,2,0,P|430:49|406:0,1,112.500004291535
352,159,8670,6,0,P|340:213|364:263,1,112.500004291535
352,159,9023,2,0,P|300:172|238:166,1,112.500004291535
151,155,9376,1,2,0:0:0:0:
62,142,9552,2,2,L|52:42,1,75.0000028610231
75,254,9905,6,0,B|76:318|38:358|38:358|106:286|189:330|189:330|270:374|366:305,1,450.000017166138
449,279,11317,5,0,0:0:0:0:
313,214,11494,2,0,L|308:139,1,75.0000028610231,2|0,0:0|0:0,0:0:0:0:
407,207,11847,1,0,0:0:0:0:
250,279,12023,1,0,0:0:0:0:
308,139,12199,5,2,0:0:0:0:
349,316,12376,1,0,0:0:0:0:
227,181,12552,1,0,0:0:0:0:
406,125,12729,1,0,0:0:0:0:
313,214,12905,5,2,0:0:0:0:
333,32,13082,1,0,0:0:0:0:
408,207,13258,1,0,0:0:0:0:
235,84,13435,1,0,0:0:0:0:
492,38,13611,2,0,L|418:51,1,75.0000028610231,2|0,0:0|0:0,0:0:0:0:
235,84,13964,5,0,0:0:0:0:
227,181,14141,1,0,0:0:0:0:
218,277,14317,6,0,P|163:267|113:292,1,112.500004291535,2|0,0:0|0:0,0:0:0:0:
34,234,14670,2,0,P|69:191|72:136,1,112.500004291535,2|0,0:0|0:0,0:0:0:0:
161,98,15023,2,0,P|180:149|226:180,1,112.500004291535,2|0,0:0|0:0,0:0:0:0:
310,110,15376,6,0,L|315:16,1,75.0000028610231
504,75,15729,2,0,P|450:63|396:78,1,112.500004291535,2|0,0:0|0:0,0:0:0:0:
312,204,16082,2,0,P|366:216|420:201,1,112.500004291535,2|0,0:0|0:0,0:0:0:0:
310,110,16435,1,2,0:0:0:0:
352,307,16611,1,0,0:0:0:0:
70,301,17141,5,2,0:0:0:0:
186,161,17317,1,0,0:0:0:0:
204,332,17494,1,0,0:0:0:0:
87,205,17670,1,0,0:0:0:0:
253,252,17847,5,2,0:0:0:0:
70,301,18023,1,0,0:0:0:0:
115,118,18199,1,0,0:0:0:0:
161,252,18376,1,0,0:0:0:0:
5,123,18552,5,2,0:0:0:0:
207,131,18729,1,0,0:0:0:0:
15,228,18905,1,0,0:0:0:0:
92,40,19082,1,0,0:0:0:0:
161,252,19258,5,2,0:0:0:0:
5,123,19435,1,0,0:0:0:0:
209,51,19611,1,0,0:0:0:0:
97,195,19788,2,0,B|68:226|65:268|74:306|103:344|154:355|203:342|232:300|232:300|267:248|323:226|373:242|373:242|321:202|260:198|199:215|161:251,1,675.000025749208
474,111,21729,5,0,0:0:0:0:
362,99,21905,1,0,0:0:0:0:
138,75,22082,5,8,0:0:0:0:
250,33,22258,1,0,0:0:0:0:
221,218,22435,2,0,L|232:143,1,75.0000028610231
221,218,22788,6,0,B|280:215|321:256|321:256|318:240|318:240|346:262|388:275|439:262,1,250,10|0,0:0|0:0,0:0:0:0:
412,164,23847,1,2,0:0:0:0:
434,262,24023,1,2,0:0:0:0:
411,163,24199,2,0,P|460:112|488:204,1,200,2|2,0:0|0:0,0:0:0:0:
327,124,25258,6,0,P|303:121|278:129,1,50
98,149,25611,2,0,P|150:149|194:123,1,100,2|0,0:0|0:0,0:0:0:0:
77,230,26141,1,0,0:0:0:0:
120,50,26317,1,2,0:0:0:0:
220,217,26670,2,0,P|221:242|216:267,1,50
147,349,27023,6,0,P|234:306|328:332,1,200,2|2,0:0|0:0,0:0:0:0:
413,236,28082,5,0,0:0:0:0:
330,108,28258,1,0,0:0:0:0:
259,250,28435,1,2,0:0:0:0:
441,147,28611,5,0,0:0:0:0:
252,168,28788,1,0,0:0:0:0:
336,299,28964,1,0,0:0:0:0:
405,79,29141,5,2,0:0:0:0:
252,168,29317,1,0,0:0:0:0:
489,210,29494,1,2,0:0:0:0:
336,299,29670,1,0,0:0:0:0:
330,108,29847,6,0,P|260:83|190:104,1,150,2|0,0:0|0:0,0:0:0:0:
75,153,30199,2,0,P|22:117|56:37,1,150,2|0,0:0|0:0,0:0:0:0:
148,180,30552,2,0,B|138:219|154:250|154:250|146:259|146:259|156:292|144:327,1,150,2|0,0:0|0:0,0:0:0:0:
70,247,30905,5,2,0:0:0:0:
237,207,31082,1,2,0:0:0:0:
77,93,31258,1,2,0:0:0:0:
375,279,32494,5,8,0:0:0:0:
375,279,32582,1,8,0:0:0:0:
375,279,32670,1,8,0:0:0:0:
460,209,32847,1,8,0:0:0:0:
212,175,33023,6,0,L|311:188,1,100,0|8,0:0|0:0,0:0:0:0:
200,64,33376,1,8,0:0:0:0:
272,292,33552,1,0,0:0:0:0:
326,85,33729,2,0,P|382:58|466:101,1,150
443,224,34082,6,0,B|418:241|407:275|407:275|428:210|390:144,1,200,14|0,0:0|0:0,0:0:0:0:
506,306,34611,1,12,0:0:0:0:
302,219,34788,1,12,0:0:0:0:
512,152,34964,1,0,0:0:0:0:
407,274,35141,6,0,P|404:324|424:371,1,100,12|0,0:0|0:0,0:0:0:0:
384,184,35494,1,0,0:0:0:0:
314,352,35670,1,12,0:0:0:0:
506,306,35847,1,12,0:0:0:0:
124,189,36199,1,12,0:0:0:0:
124,189,36552,2,0,P|159:199|197:198,1,75.0000028610231,0|12,0:0|0:0,0:0:0:0:
56,145,36905,6,0,B|32:127|24:95|24:95|43:173|15:233,1,200,12|0,0:0|0:0,0:0:0:0:
83,320,37435,1,12,0:0:0:0:
112,77,37611,2,0,P|159:61|206:73,1,100,12|0,0:0|0:0,0:0:0:0:
345,85,37964,2,0,P|269:102|198:65,1,150,12|0,0:0|0:0,0:0:0:0:
418,27,38317,6,0,B|434:70|434:70|424:135,1,100,0|8,0:0|0:0,0:0:0:0:
349,189,38582,1,8,0:0:0:0:
349,189,38670,2,4,B|340:242|340:242|356:285,1,100,12|4,0:0|0:0,0:0:0:0:
510,337,39023,1,12,0:0:0:0:
263,255,39376,1,12,0:0:0:0:
164,272,39552,1,0,0:0:0:0:
66,290,39729,6,0,P|128:349|162:268,1,200,12|0,0:0|0:0,0:0:0:0:
100,193,40258,1,12,0:0:0:0:
297,230,40435,2,0,L|290:333,1,100,12|0,0:0|0:0,0:0:0:0:
207,192,40788,1,12,0:0:0:0:
383,225,40964,1,0,0:0:0:0:
220,371,41141,5,4,0:0:0:0:
297,230,41317,1,0,0:0:0:0:
378,353,41494,1,8,0:0:0:0:
163,272,41670,1,12,0:0:0:0:
421,142,41847,5,8,0:0:0:0:
290,329,42023,1,4,0:0:0:0:
207,192,42199,1,12,0:0:0:0:
383,225,42376,1,8,0:0:0:0:
383,225,42552,6,0,L|492:220,1,100,12|0,0:0|0:0,0:0:0:0:
437,310,43082,1,8,0:0:0:0:
330,141,43258,1,12,0:0:0:0:
383,225,43611,6,0,L|492:220,1,100,12|8,0:0|0:0,0:0:0:0:
437,310,44141,1,12,0:0:0:0:
383,225,44317,1,12,0:0:0:0:
330,141,44494,1,12,0:0:0:0:
277,57,44670,6,2,L|148:71,1,112.500004291535,14|2,0:0|0:0,0:0:0:0:
282,40,45023,2,2,L|129:56,1,150
56,172,45376,6,0,P|44:136|50:100,1,75,12|0,0:0|0:0,0:0:0:0:
149,156,45729,6,0,B|163:204|138:241|138:241|149:240|149:240|112:292|119:347|148:376,1,225.000008583069
49,253,46082,5,8,0:0:0:0:
245,221,46258,1,0,0:0:0:0:
116,294,46435,5,0,0:0:0:0:
342,191,46611,1,8,0:0:0:0:
201,306,46788,5,0,0:0:0:0:
439,108,46964,1,8,0:0:0:0:
431,272,47141,6,0,P|422:236|425:199,1,75,12|0,0:0|0:0,0:0:0:0:
439,108,47494,5,8,0:0:0:0:
141,81,47670,1,0,0:0:0:0:
429,93,47847,5,0,0:0:0:0:
131,66,48023,1,0,0:0:0:0:
418,77,48199,6,0,P|386:89|340:88,1,75
429,92,48552,6,0,P|355:107|282:91,1,150
344,15,48905,5,8,0:0:0:0:
303,327,49082,1,0,0:0:0:0:
463,14,49258,5,0,0:0:0:0:
510,318,49435,1,8,0:0:0:0:
490,187,49611,2,0,P|424:165|349:187,1,150
419,285,49964,5,0,0:0:0:0:
463,14,50141,1,0,0:0:0:0:
350,187,50317,5,8,0:0:0:0:
75,47,50494,1,0,0:0:0:0:
346,90,50670,5,0,0:0:0:0:
39,162,50847,1,0,0:0:0:0:
362,161,51023,6,0,L|361:87,1,75,8|0,0:0|0:0,0:0:0:0:
346,90,51376,6,0,L|351:338,1,225.000008583069
472,283,51729,5,8,0:0:0:0:
225,122,51905,1,0,0:0:0:0:
467,122,52082,1,0,0:0:0:0:
228,282,52258,1,8,0:0:0:0:
509,201,52435,6,0,P|474:191|437:198,1,75
245,201,52788,6,0,P|151:157|176:56,1,225.000008583069,8|0,0:0|0:0,0:0:0:0:
290,113,53141,5,8,0:0:0:0:
340,357,53317,1,0,0:0:0:0:
176,56,53494,5,0,0:0:0:0:
143,382,53670,1,0,0:0:0:0:
21,156,53847,6,0,P|58:162|97:156,1,75
12,143,54199,6,0,B|71:158|126:135|126:135|118:147|118:147|168:125|212:143,1,225.000008583069,8|0,0:0|0:0,0:0:0:0:
171,252,54552,5,0,0:0:0:0:
419,197,54729,1,0,0:0:0:0:
175,340,54905,5,0,0:0:0:0:
503,349,55082,1,8,0:0:0:0:
294,255,55258,6,0,P|283:220|287:183,1,75
344,21,55611,6,0,P|359:68|345:119,1,100,8|0,0:0|0:0,0:0:0:0:
105,48,55964,1,8,0:0:0:0:
236,19,56141,5,8,0:0:0:0:
184,313,56317,1,8,0:0:0:0:
215,27,56494,5,8,0:0:0:0:
163,320,56670,2,0,P|143:288|145:251,1,75,8|0,0:0|0:0,0:0:0:0:
184,312,57023,6,0,B|269:282|269:282|293:297|293:297|301:272|301:272|378:244,1,225.000008583069
293,296,57376,5,8,0:0:0:0:
332,72,57552,1,0,0:0:0:0:
184,312,57729,5,0,0:0:0:0:
175,0,57905,1,8,0:0:0:0:
307,198,58082,6,0,P|349:201|383:186,1,75
434,107,58435,6,0,B|445:44|445:44|437:134|481:223,1,225.000008583069,8|0,0:0|0:0,0:0:0:0:
418,284,58788,5,8,0:0:0:0:
144,162,58964,1,8,0:0:0:0:
470,200,59141,5,8,0:0:0:0:
58,275,59317,1,8,0:0:0:0:
188,81,59494,6,0,P|191:33|176:0,1,75
144,162,59847,6,0,P|252:146|271:43,1,225,8|0,0:0|0:0,0:0:0:0:
188,81,60199,5,8,0:0:0:0:
470,200,60376,1,0,0:0:0:0:
374,23,60552,5,0,0:0:0:0:
347,377,60729,1,0,0:0:0:0:
307,198,60905,6,0,L|326:282,1,75
159,332,61258,6,0,L|164:212,1,100,8|8,0:0|0:0,0:0:0:0:
323,271,61611,5,8,0:0:0:0:
32,326,61788,1,0,0:0:0:0:
328,291,61964,5,0,0:0:0:0:
37,346,62141,1,0,0:0:0:0:
131,170,62317,6,0,P|116:203|118:243,1,75,8|0,0:0|0:0,0:0:0:0:
115,177,62670,6,0,P|115:273|261:277,1,225.000008583069
307,241,63023,5,8,0:0:0:0:
171,28,63199,1,0,0:0:0:0:
189,225,63376,5,0,0:0:0:0:
465,37,63552,1,8,0:0:0:0:
319,21,63729,6,0,P|310:63|327:109,1,75
398,154,64082,6,0,B|414:196|399:243|399:243|411:227|411:227|377:298|428:359,1,225.000008583069,8|0,0:0|0:0,0:0:0:0:
509,281,64435,5,8,0:0:0:0:
297,200,64611,1,8,0:0:0:0:
512,141,64788,1,8,0:0:0:0:
217,69,65141,5,8,0:0:0:0:
122,341,66905,5,0,0:0:0:0:
157,236,67082,1,0,0:0:0:0:
232,20,67258,5,8,0:0:0:0:
192,131,67611,2,0,P|252:134|311:62,1,150
108,90,67964,6,0,B|97:133|97:133|112:182,1,75,8|0,0:0|0:0,0:0:0:0:
247,137,68317,6,0,P|324:206|284:313,1,225.000008583069
230,232,68670,5,8,0:0:0:0:
504,56,68847,1,0,0:0:0:0:
467,282,69023,5,0,0:0:0:0:
143,54,69199,1,8,0:0:0:0:
349,64,69376,6,0,P|342:100|312:129,1,75
332,62,69729,6,8,P|258:121|239:29,1,225.000008583069
491,110,70082,5,8,0:0:0:0:
199,176,70258,1,0,0:0:0:0:
427,240,70435,5,0,0:0:0:0:
98,226,70611,1,0,0:0:0:0:
427,240,70788,6,0,P|428:283|414:323,1,75
339,236,71141,6,0,P|406:155|503:196,1,225,8|0,0:0|0:0,0:0:0:0:
339,335,71494,5,8,0:0:0:0:
369,8,71670,1,0,0:0:0:0:
427,240,71847,5,0,0:0:0:0:
214,43,72023,1,8,0:0:0:0:
145,254,72199,6,0,P|167:203|158:148,1,112.500004291535
255,244,72552,1,0,0:0:0:0:
67,192,72729,1,0,0:0:0:0:
468,92,72905,5,8,0:0:0:0:
168,20,73082,1,0,0:0:0:0:
508,8,73258,5,0,0:0:0:0:
228,112,73435,1,0,0:0:0:0:
345,174,73611,6,0,P|333:138|340:102,1,75,8|0,0:0|0:0,0:0:0:0:
337,171,73964,6,0,P|360:69|466:101,1,225.000008583069
444,189,74317,5,8,0:0:0:0:
58,122,74494,1,0,0:0:0:0:
383,101,74670,5,0,0:0:0:0:
26,228,74847,1,8,0:0:0:0:
259,307,75023,6,0,L|185:294,1,75
161,298,75376,6,0,B|299:322|299:322|314:316|314:316|389:328,1,225.000008583069,8|0,0:0|0:0,0:0:0:0:
478,369,75729,5,8,0:0:0:0:
378,8,75905,1,0,0:0:0:0:
381,326,76082,5,0,0:0:0:0:
496,55,76258,1,0,0:0:0:0:
433,204,76435,6,0,P|396:213|361:202,1,75
285,127,76788,6,0,B|223:115|223:115|210:122|210:122|131:106|131:106|118:94|118:94|70:81,1,225.000008583069,8|0,0:0|0:0,0:0:0:0:
183,30,77141,5,8,0:0:0:0:
260,354,77317,1,0,0:0:0:0:
285,127,77494,5,0,0:0:0:0:
127,336,77670,1,8,0:0:0:0:
99,130,77847,6,0,P|154:125|211:150,1,112.500004291535
235,221,78199,6,0,L|224:295,1,75.0000028610231,8|0,0:0|0:0,0:0:0:0:
49,362,78552,1,8,0:0:0:0:
363,324,78729,5,8,0:0:0:0:
62,285,78905,1,8,0:0:0:0:
374,312,79082,5,8,0:0:0:0:
73,273,79258,6,0,L|66:190,1,75,8|0,0:0|0:0,0:0:0:0:
179,139,79611,6,0,L|156:408,1,225.000008583069
73,273,79964,5,8,0:0:0:0:
443,338,80141,1,0,0:0:0:0:
66,198,80317,5,0,0:0:0:0:
485,159,80494,1,8,0:0:0:0:
193,161,80670,6,0,L|186:258,1,75
160,363,81023,6,0,L|179:139,1,225.000008583069,8|0,0:0|0:0,0:0:0:0:
501,92,81376,5,8,0:0:0:0:
208,28,81552,1,8,0:0:0:0:
488,76,81729,5,8,0:0:0:0:
195,12,81905,1,8,0:0:0:0:
501,92,82082,6,0,P|512:131|503:173,1,75
364,272,82435,6,0,P|333:184|423:207,1,225.000008583069,8|0,0:0|0:0,0:0:0:0:
453,308,82788,5,8,0:0:0:0:
99,186,82964,1,0,0:0:0:0:
422,204,83141,5,0,0:0:0:0:
136,297,83317,1,0,0:0:0:0:
219,253,83494,6,0,P|238:202|226:147,1,112.500004291535
149,11,83847,6,8,P|138:44|167:113,1,100
371,32,84199,5,8,0:0:0:0:
58,65,84376,1,0,0:0:0:0:
363,44,84552,5,0,0:0:0:0:
50,77,84729,1,0,0:0:0:0:
354,56,84905,6,0,L|365:169,1,112.500004291535,8|0,0:0|0:0,0:0:0:0:
346,68,85258,2,0,L|357:181,1,112.500004291535
428,281,85611,5,0,0:0:0:0:
462,57,85788,1,0,0:0:0:0:
441,274,85964,5,0,0:0:0:0:
475,50,86141,1,0,0:0:0:0:
453,267,86317,6,0,L|337:255,1,112.500004291535
441,274,86670,2,0,L|324:261,1,112.500004291535
316,269,87023,6,0,L|530:291,1,187.5
101,246,87376,5,8,0:0:0:0:
237,260,87729,1,0,0:0:0:0:
