osu file format v14

[General]
AudioFilename: audio.mp3
AudioLeadIn: 0
PreviewTime: 47923
Countdown: 0
SampleSet: Soft
StackLeniency: 0.7
Mode: 3
LetterboxInBreaks: 0
SpecialStyle: 0
WidescreenStoryboard: 0

[Editor]
Bookmarks: 8048,16048,32048,48048,64048,80048,96048
DistanceSpacing: 1
BeatDivisor: 4
GridSize: 16
TimelineZoom: 1.5

[Metadata]
Title:Spirit of Hospitality
TitleUnicode:Spirit of Hospitality
Artist:Lena Raine
ArtistUnicode:Lena Raine
Creator:DealerOfMelons
Version:10th Suite
Source:Celeste
Tags:Kuraine Lena Chappelle Radical Dreamland instrumental electronic original soundtrack ost digital fusion video game music vgm action adventure indie melodic 8-bit 8 bit chiptune Madeline Mr. Oshiro chapter 3 Celestial Resort Presidential Suite
BeatmapID:3619067
BeatmapSetID:1768027

[Difficulty]
HPDrainRate:7
CircleSize:10
OverallDifficulty:7
ApproachRate:5
SliderMultiplier:1.4
SliderTickRate:1

[Events]
//Background and Video events
0,0,"background.jpg",0,0
//Break Periods
//Storyboard Layer 0 (Background)
//Storyboard Layer 1 (Fail)
//Storyboard Layer 2 (Pass)
//Storyboard Layer 3 (Foreground)
//Storyboard Layer 4 (Overlay)
//Storyboard Sound Samples

[TimingPoints]
48,500,4,2,1,15,1,0

[HitObjects]
25,192,48,5,0,0:0:0:0:
128,192,798,1,0,0:0:0:0:
230,192,1048,1,0,0:0:0:0:
384,192,1548,1,0,0:0:0:0:
281,192,2048,1,0,0:0:0:0:
435,192,2548,1,0,0:0:0:0:
332,192,2798,1,0,0:0:0:0:
179,192,3048,1,0,0:0:0:0:
281,192,3548,1,0,0:0:0:0:
25,192,4048,1,0,0:0:0:0:
332,192,4548,1,0,0:0:0:0:
230,192,4798,1,0,0:0:0:0:
76,192,5048,1,0,0:0:0:0:
179,192,5548,1,0,0:0:0:0:
128,192,6048,1,0,0:0:0:0:
486,192,6548,1,0,0:0:0:0:
384,192,6798,1,0,0:0:0:0:
230,192,7048,1,0,0:0:0:0:
128,192,7548,1,0,0:0:0:0:
76,192,7798,1,0,0:0:0:0:
384,192,8048,1,0,0:0:0:0:
128,192,8048,1,0,0:0:0:0:
332,192,8798,1,0,0:0:0:0:
486,192,9048,1,0,0:0:0:0:
25,192,9048,1,0,0:0:0:0:
384,192,9548,1,0,0:0:0:0:
76,192,9798,1,0,0:0:0:0:
332,192,10048,1,0,0:0:0:0:
128,192,10048,1,0,0:0:0:0:
435,192,10548,1,0,0:0:0:0:
384,192,10798,1,0,0:0:0:0:
128,192,10798,1,0,0:0:0:0:
332,192,11048,1,0,0:0:0:0:
179,192,11048,1,0,0:0:0:0:
25,192,11548,1,0,0:0:0:0:
230,192,11548,1,0,0:0:0:0:
128,192,11798,1,0,0:0:0:0:
486,192,12048,1,0,0:0:0:0:
281,192,12048,1,0,0:0:0:0:
179,192,12548,1,0,0:0:0:0:
435,192,12548,1,0,0:0:0:0:
128,192,12798,1,0,0:0:0:0:
25,192,13048,1,0,0:0:0:0:
281,192,13048,1,0,0:0:0:0:
384,192,13548,1,0,0:0:0:0:
179,192,13548,1,0,0:0:0:0:
332,192,14048,1,0,0:0:0:0:
128,192,14048,1,0,0:0:0:0:
486,192,14548,1,0,0:0:0:0:
384,192,14798,1,0,0:0:0:0:
179,192,14798,1,0,0:0:0:0:
25,192,15048,1,0,0:0:0:0:
230,192,15048,1,0,0:0:0:0:
76,192,15298,1,0,0:0:0:0:
128,192,15548,1,0,0:0:0:0:
435,192,15548,1,0,0:0:0:0:
332,192,15798,1,0,0:0:0:0:
128,192,16048,128,0,17048:0:0:0:0:
384,192,16048,1,0,0:0:0:0:
332,192,16798,1,0,0:0:0:0:
179,192,17048,128,0,18048:0:0:0:0:
435,192,17048,1,0,0:0:0:0:
486,192,17548,1,0,0:0:0:0:
332,192,17798,1,0,0:0:0:0:
230,192,18048,128,0,19048:0:0:0:0:
281,192,18048,1,0,0:0:0:0:
384,192,18548,1,0,0:0:0:0:
435,192,18798,1,0,0:0:0:0:
76,192,18798,1,0,0:0:0:0:
281,192,19048,128,0,20048:0:0:0:0:
486,192,19048,1,0,0:0:0:0:
128,192,19548,1,0,0:0:0:0:
384,192,19548,1,0,0:0:0:0:
435,192,19798,1,0,0:0:0:0:
25,192,20048,128,0,21048:0:0:0:0:
230,192,20048,1,0,0:0:0:0:
179,192,20548,1,0,0:0:0:0:
332,192,20548,1,0,0:0:0:0:
435,192,20798,1,0,0:0:0:0:
230,192,21048,128,0,21548:0:0:0:0:
384,192,21048,1,0,0:0:0:0:
179,192,21548,128,0,22048:0:0:0:0:
435,192,21548,1,0,0:0:0:0:
128,192,22048,128,0,23048:0:0:0:0:
384,192,22048,1,0,0:0:0:0:
486,192,22548,1,0,0:0:0:0:
384,192,22798,1,0,0:0:0:0:
281,192,22798,1,0,0:0:0:0:
76,192,23048,128,0,24048:0:0:0:0:
332,192,23048,1,0,0:0:0:0:
179,192,23298,1,0,0:0:0:0:
384,192,23548,1,0,0:0:0:0:
128,192,23548,1,0,0:0:0:0:
230,192,23798,1,0,0:0:0:0:
25,192,24048,128,0,25048:0:0:0:0:
281,192,24048,1,0,0:0:0:0:
332,192,24798,1,0,0:0:0:0:
230,192,25048,128,0,25548:0:0:0:0:
384,192,25048,1,0,0:0:0:0:
179,192,25548,128,0,26048:0:0:0:0:
332,192,25798,1,0,0:0:0:0:
128,192,26048,128,0,27048:0:0:0:0:
384,192,26048,1,0,0:0:0:0:
435,192,26548,1,0,0:0:0:0:
179,192,26798,1,0,0:0:0:0:
76,192,27048,128,0,28048:0:0:0:0:
332,192,27048,1,0,0:0:0:0:
384,192,27548,1,0,0:0:0:0:
179,192,27548,1,0,0:0:0:0:
435,192,27798,1,0,0:0:0:0:
25,192,28048,128,0,29048:0:0:0:0:
230,192,28048,1,0,0:0:0:0:
179,192,28548,1,0,0:0:0:0:
435,192,28548,1,0,0:0:0:0:
384,192,28798,1,0,0:0:0:0:
281,192,29048,128,0,29548:0:0:0:0:
128,192,29048,1,0,0:0:0:0:
179,192,29548,128,0,30048:0:0:0:0:
435,192,29548,1,0,0:0:0:0:
128,192,30048,128,0,31048:0:0:0:0:
384,192,30048,1,0,0:0:0:0:
486,192,30548,1,0,0:0:0:0:
179,192,30798,1,0,0:0:0:0:
435,192,30798,1,0,0:0:0:0:
332,192,31048,1,0,0:0:0:0:
76,192,31048,128,0,31548:0:0:0:0:
384,192,31298,1,0,0:0:0:0:
281,192,31548,1,0,0:0:0:0:
25,192,31548,128,0,32048:0:0:0:0:
128,192,31798,1,0,0:0:0:0:
332,192,32048,128,0,33048:0:0:0:0:
179,192,32048,1,0,0:0:0:0:
76,192,32798,1,0,0:0:0:0:
384,192,33048,128,0,34048:0:0:0:0:
128,192,33048,1,0,0:0:0:0:
281,192,33548,1,0,0:0:0:0:
25,192,33798,1,0,0:0:0:0:
435,192,34048,128,0,35048:0:0:0:0:
179,192,34048,1,0,0:0:0:0:
76,192,34548,1,0,0:0:0:0:
25,192,34798,1,0,0:0:0:0:
230,192,34798,1,0,0:0:0:0:
486,192,35048,128,0,36048:0:0:0:0:
281,192,35048,1,0,0:0:0:0:
179,192,35548,1,0,0:0:0:0:
76,192,35548,1,0,0:0:0:0:
332,192,35798,1,0,0:0:0:0:
230,192,36048,128,0,37048:0:0:0:0:
25,192,36048,1,0,0:0:0:0:
486,192,36548,1,0,0:0:0:0:
281,192,36548,1,0,0:0:0:0:
384,192,36798,1,0,0:0:0:0:
435,192,37048,128,0,37548:0:0:0:0:
179,192,37048,1,0,0:0:0:0:
384,192,37548,128,0,38048:0:0:0:0:
128,192,37548,1,0,0:0:0:0:
332,192,38048,128,0,39048:0:0:0:0:
76,192,38048,1,0,0:0:0:0:
128,192,38548,1,0,0:0:0:0:
230,192,38798,1,0,0:0:0:0:
25,192,38798,1,0,0:0:0:0:
281,192,39048,128,0,40048:0:0:0:0:
486,192,39048,1,0,0:0:0:0:
128,192,39298,1,0,0:0:0:0:
76,192,39548,1,0,0:0:0:0:
435,192,39548,1,0,0:0:0:0:
384,192,39798,1,0,0:0:0:0:
230,192,40048,128,0,41048:0:0:0:0:
25,192,40048,1,0,0:0:0:0:
281,192,40798,1,0,0:0:0:0:
435,192,41048,128,0,41548:0:0:0:0:
179,192,41048,1,0,0:0:0:0:
384,192,41548,128,0,42048:0:0:0:0:
128,192,41798,1,0,0:0:0:0:
332,192,42048,128,0,43048:0:0:0:0:
76,192,42048,1,0,0:0:0:0:
435,192,42548,1,0,0:0:0:0:
179,192,42798,1,0,0:0:0:0:
486,192,43048,1,0,0:0:0:0:
281,192,43048,128,0,44048:0:0:0:0:
76,192,43548,1,0,0:0:0:0:
384,192,43548,1,0,0:0:0:0:
179,192,43798,1,0,0:0:0:0:
230,192,44048,128,0,45048:0:0:0:0:
25,192,44048,1,0,0:0:0:0:
435,192,44548,1,0,0:0:0:0:
128,192,44548,1,0,0:0:0:0:
332,192,44798,1,0,0:0:0:0:
486,192,45048,128,0,45548:0:0:0:0:
281,192,45048,1,0,0:0:0:0:
384,192,45548,128,0,46048:0:0:0:0:
128,192,45548,1,0,0:0:0:0:
332,192,46048,128,0,47048:0:0:0:0:
76,192,46048,1,0,0:0:0:0:
435,192,46548,1,0,0:0:0:0:
76,192,46798,1,0,0:0:0:0:
179,192,46798,1,0,0:0:0:0:
281,192,47048,128,0,47548:0:0:0:0:
486,192,47048,1,0,0:0:0:0:
128,192,47298,1,0,0:0:0:0:
230,192,47548,128,0,48048:0:0:0:0:
25,192,47548,1,0,0:0:0:0:
384,192,47798,1,0,0:0:0:0:
281,192,48048,128,0,49048:0:0:0:0:
25,192,48048,128,0,49048:0:0:0:0:
384,192,48798,1,0,0:0:0:0:
76,192,49048,128,0,50048:0:0:0:0:
332,192,49048,128,0,50048:0:0:0:0:
435,192,49548,1,0,0:0:0:0:
179,192,49798,1,0,0:0:0:0:
128,192,50048,128,0,51048:0:0:0:0:
384,192,50048,128,0,51048:0:0:0:0:
435,192,50548,1,0,0:0:0:0:
76,192,50798,1,0,0:0:0:0:
486,192,51048,128,0,52048:0:0:0:0:
179,192,51048,128,0,52048:0:0:0:0:
25,192,51548,1,0,0:0:0:0:
281,192,51548,1,0,0:0:0:0:
384,192,51798,1,0,0:0:0:0:
230,192,52048,128,0,53048:0:0:0:0:
435,192,52048,128,0,53048:0:0:0:0:
332,192,52548,1,0,0:0:0:0:
76,192,52548,1,0,0:0:0:0:
281,192,52798,1,0,0:0:0:0:
486,192,53048,128,0,53548:0:0:0:0:
128,192,53048,128,0,53548:0:0:0:0:
435,192,53548,128,0,54048:0:0:0:0:
179,192,53548,128,0,54048:0:0:0:0:
384,192,54048,128,0,55048:0:0:0:0:
76,192,54048,128,0,55048:0:0:0:0:
332,192,54548,1,0,0:0:0:0:
230,192,54798,1,0,0:0:0:0:
281,192,54798,1,0,0:0:0:0:
128,192,55048,128,0,55548:0:0:0:0:
332,192,55048,128,0,56048:0:0:0:0:
230,192,55298,1,0,0:0:0:0:
179,192,55548,128,0,56048:0:0:0:0:
486,192,55548,1,0,0:0:0:0:
25,192,55798,1,0,0:0:0:0:
281,192,56048,128,0,57048:0:0:0:0:
230,192,56048,128,0,57048:0:0:0:0:
384,192,56798,1,0,0:0:0:0:
128,192,57048,128,0,58048:0:0:0:0:
486,192,57048,128,0,57548:0:0:0:0:
435,192,57548,128,0,58048:0:0:0:0:
230,192,57798,1,0,0:0:0:0:
384,192,58048,128,0,59048:0:0:0:0:
179,192,58048,128,0,59048:0:0:0:0:
332,192,58548,1,0,0:0:0:0:
76,192,58798,1,0,0:0:0:0:
332,192,59048,128,0,60048:0:0:0:0:
25,192,59048,128,0,60048:0:0:0:0:
435,192,59548,1,0,0:0:0:0:
179,192,59548,1,0,0:0:0:0:
128,192,59798,1,0,0:0:0:0:
281,192,60048,128,0,61048:0:0:0:0:
179,192,60048,128,0,60548:0:0:0:0:
128,192,60548,128,0,61048:0:0:0:0:
435,192,60548,1,0,0:0:0:0:
230,192,60798,1,0,0:0:0:0:
486,192,61048,128,0,61548:0:0:0:0:
76,192,61048,128,0,62048:0:0:0:0:
435,192,61548,128,0,62048:0:0:0:0:
179,192,61548,1,0,0:0:0:0:
384,192,62048,128,0,63048:0:0:0:0:
25,192,62048,128,0,63048:0:0:0:0:
179,192,62548,1,0,0:0:0:0:
128,192,62798,1,0,0:0:0:0:
486,192,62798,1,0,0:0:0:0:
332,192,63048,128,0,64048:0:0:0:0:
179,192,63048,128,0,63548:0:0:0:0:
281,192,63298,1,0,0:0:0:0:
435,192,63548,1,0,0:0:0:0:
76,192,63548,128,0,64048:0:0:0:0:
230,192,63798,1,0,0:0:0:0:
25,192,64048,128,0,65048:0:0:0:0:
281,192,64048,128,0,65048:0:0:0:0:
486,192,64048,1,0,0:0:0:0:
76,192,65048,128,0,66048:0:0:0:0:
332,192,65048,128,0,66048:0:0:0:0:
179,192,65048,1,0,0:0:0:0:
230,192,65798,1,0,0:0:0:0:
128,192,66048,128,0,67048:0:0:0:0:
384,192,66048,128,0,67048:0:0:0:0:
281,192,66048,1,0,0:0:0:0:
179,192,66798,1,0,0:0:0:0:
230,192,67048,128,0,68048:0:0:0:0:
435,192,67048,128,0,68048:0:0:0:0:
25,192,67048,1,0,0:0:0:0:
128,192,67548,1,0,0:0:0:0:
384,192,67798,1,0,0:0:0:0:
179,192,68048,128,0,69048:0:0:0:0:
486,192,68048,128,0,69048:0:0:0:0:
281,192,68048,1,0,0:0:0:0:
76,192,68548,1,0,0:0:0:0:
332,192,68798,1,0,0:0:0:0:
230,192,69048,128,0,69548:0:0:0:0:
384,192,69048,128,0,69548:0:0:0:0:
25,192,69048,1,0,0:0:0:0:
179,192,69548,128,0,70048:0:0:0:0:
435,192,69548,128,0,70048:0:0:0:0:
76,192,69548,1,0,0:0:0:0:
128,192,70048,128,0,71048:0:0:0:0:
332,192,70048,128,0,71048:0:0:0:0:
486,192,70048,1,0,0:0:0:0:
230,192,70798,1,0,0:0:0:0:
76,192,71048,128,0,72048:0:0:0:0:
384,192,71048,128,0,71548:0:0:0:0:
281,192,71048,1,0,0:0:0:0:
230,192,71298,1,0,0:0:0:0:
435,192,71548,128,0,72048:0:0:0:0:
179,192,71548,1,0,0:0:0:0:
25,192,72048,128,0,73048:0:0:0:0:
486,192,72048,128,0,73048:0:0:0:0:
281,192,72048,1,0,0:0:0:0:
230,192,73048,128,0,73548:0:0:0:0:
384,192,73048,128,0,74048:0:0:0:0:
76,192,73048,1,0,0:0:0:0:
179,192,73548,128,0,74048:0:0:0:0:
332,192,73798,1,0,0:0:0:0:
128,192,74048,128,0,75048:0:0:0:0:
435,192,74048,128,0,75048:0:0:0:0:
281,192,74048,1,0,0:0:0:0:
230,192,74798,1,0,0:0:0:0:
76,192,75048,128,0,76048:0:0:0:0:
281,192,75048,128,0,76048:0:0:0:0:
486,192,75048,1,0,0:0:0:0:
179,192,75548,1,0,0:0:0:0:
384,192,75798,1,0,0:0:0:0:
25,192,76048,128,0,77048:0:0:0:0:
435,192,76048,128,0,76548:0:0:0:0:
230,192,76048,1,0,0:0:0:0:
384,192,76548,128,0,77048:0:0:0:0:
128,192,76548,1,0,0:0:0:0:
179,192,76798,1,0,0:0:0:0:
230,192,77048,128,0,77548:0:0:0:0:
332,192,77048,128,0,78048:0:0:0:0:
435,192,77048,1,0,0:0:0:0:
179,192,77548,128,0,78048:0:0:0:0:
76,192,77548,1,0,0:0:0:0:
128,192,78048,128,0,79048:0:0:0:0:
281,192,78048,128,0,79048:0:0:0:0:
486,192,78048,1,0,0:0:0:0:
230,192,78798,1,0,0:0:0:0:
76,192,79048,128,0,80048:0:0:0:0:
332,192,79048,1,0,0:0:0:0:
486,192,79048,128,0,79548:0:0:0:0:
281,192,79298,1,0,0:0:0:0:
230,192,79548,1,0,0:0:0:0:
435,192,79548,128,0,80048:0:0:0:0:
281,192,80048,1,0,0:0:0:0:
25,192,80048,128,0,81048:0:0:0:0:
435,192,81048,1,0,0:0:0:0:
179,192,81048,128,0,82048:0:0:0:0:
332,192,81798,1,0,0:0:0:0:
25,192,82048,1,0,0:0:0:0:
281,192,82048,128,0,83048:0:0:0:0:
128,192,82798,1,0,0:0:0:0:
230,192,83048,1,0,0:0:0:0:
486,192,83048,128,0,84048:0:0:0:0:
128,192,83548,1,0,0:0:0:0:
384,192,83798,1,0,0:0:0:0:
76,192,84048,1,0,0:0:0:0:
332,192,84048,128,0,85048:0:0:0:0:
230,192,84548,1,0,0:0:0:0:
281,192,84798,1,0,0:0:0:0:
179,192,85048,1,0,0:0:0:0:
435,192,85048,128,0,85548:0:0:0:0:
25,192,85548,1,0,0:0:0:0:
281,192,85548,128,0,86048:0:0:0:0:
435,192,86048,1,0,0:0:0:0:
179,192,86048,128,0,87048:0:0:0:0:
128,192,86798,1,0,0:0:0:0:
332,192,87048,1,0,0:0:0:0:
76,192,87048,128,0,88048:0:0:0:0:
281,192,87298,1,0,0:0:0:0:
179,192,87548,1,0,0:0:0:0:
486,192,88048,1,0,0:0:0:0:
25,192,88048,128,0,89048:0:0:0:0:
128,192,88798,1,0,0:0:0:0:
435,192,89048,128,0,89548:0:0:0:0:
179,192,89048,1,0,0:0:0:0:
332,192,89548,128,0,90048:0:0:0:0:
76,192,89548,1,0,0:0:0:0:
230,192,90048,128,0,91048:0:0:0:0:
486,192,90048,1,0,0:0:0:0:
332,192,90548,1,0,0:0:0:0:
179,192,90798,1,0,0:0:0:0:
128,192,91048,128,0,92048:0:0:0:0:
384,192,91048,1,0,0:0:0:0:
281,192,91548,1,0,0:0:0:0:
76,192,92048,128,0,93048:0:0:0:0:
332,192,92048,1,0,0:0:0:0:
384,192,92548,1,0,0:0:0:0:
281,192,92798,1,0,0:0:0:0:
486,192,93048,128,0,93548:0:0:0:0:
230,192,93048,1,0,0:0:0:0:
384,192,93548,128,0,94048:0:0:0:0:
128,192,93548,1,0,0:0:0:0:
230,192,94048,128,0,95048:0:0:0:0:
486,192,94048,1,0,0:0:0:0:
435,192,94548,1,0,0:0:0:0:
332,192,94798,1,0,0:0:0:0:
384,192,95048,1,0,0:0:0:0:
128,192,95048,128,0,95548:0:0:0:0:
332,192,95548,1,0,0:0:0:0:
76,192,95548,128,0,96048:0:0:0:0:
281,192,95798,1,0,0:0:0:0:
25,192,96048,1,0,0:0:0:0:
128,192,96798,1,0,0:0:0:0:
230,192,97048,1,0,0:0:0:0:
384,192,97548,1,0,0:0:0:0:
281,192,98048,1,0,0:0:0:0:
435,192,98548,1,0,0:0:0:0:
332,192,98798,1,0,0:0:0:0:
179,192,99048,1,0,0:0:0:0:
281,192,99548,1,0,0:0:0:0:
25,192,100048,1,0,0:0:0:0:
332,192,100548,1,0,0:0:0:0:
230,192,100798,1,0,0:0:0:0:
76,192,101048,1,0,0:0:0:0:
179,192,101548,1,0,0:0:0:0:
128,192,102048,1,0,0:0:0:0:
486,192,102548,1,0,0:0:0:0:
384,192,102798,1,0,0:0:0:0:
230,192,103048,1,0,0:0:0:0:
128,192,103548,1,0,0:0:0:0:
76,192,103798,1,0,0:0:0:0:
