osu file format v14

[General]
AudioFilename: audio.mp3
AudioLeadIn: 0
PreviewTime: 151815
Countdown: 1
SampleSet: Soft
StackLeniency: 0.5
Mode: 0
LetterboxInBreaks: 0
WidescreenStoryboard: 1

[Editor]
Bookmarks: 29443,49034,73524,93116,102912,117606,132300,151892,176381,195973,205769,215565,225361,244952,264544,284136,303728,313524,323320,342912
DistanceSpacing: 1.5
BeatDivisor: 4
GridSize: 8
TimelineZoom: 2.899999

[Metadata]
Title:Scattered and Lost
TitleUnicode:Scattered and Lost
Artist:Lena Raine
ArtistUnicode:Lena Raine
Creator:waefwerf
Version:Illusioned
Source:Celeste
Tags:stage 3 theme videogame original soundtrack ost instrumental
BeatmapID:2130396
BeatmapSetID:984409

[Difficulty]
HPDrainRate:5
CircleSize:4.2
OverallDifficulty:9
ApproachRate:9.4
SliderMultiplier:1.8
SliderTickRate:1

[Events]
//Background and Video events
0,0,"7KMrQ7F.jpg",0,0
//Break Periods
2,196173,204004
//Storyboard Layer 0 (Background)
//Storyboard Layer 1 (Fail)
//Storyboard Layer 2 (Pass)
//Storyboard Layer 3 (Foreground)
//Storyboard Layer 4 (Overlay)
//Storyboard Sound Samples

[TimingPoints]
55,306.122448979592,4,2,0,35,1,0
55,-212.765957446809,4,2,0,35,0,0
13524,-111.111111111111,4,2,0,35,0,0
14748,-188.679245283019,4,2,0,35,0,0
28218,-100,4,2,0,35,0,0
29442,-100,4,2,0,40,0,0
48881,-111.111111111111,4,2,0,44,0,0
71381,-111.111111111111,4,2,0,50,0,0
72299,-111.111111111111,4,2,0,60,0,0
73524,-100,4,2,0,55,0,0
83320,-100,4,2,0,60,0,0
97401,-133.333333333333,4,2,0,40,0,0
98014,-133.333333333333,4,2,0,60,0,0
101840,-133.333333333333,4,2,0,55,0,0
102912,-133.333333333333,4,2,0,50,0,0
104136,-133.333333333333,4,2,0,45,0,0
117606,-66.6666666666667,4,2,0,65,0,0
118524,-125,4,2,0,55,0,0
119442,-83.3333333333333,4,2,0,65,0,0
120055,-66.6666666666667,4,2,0,65,0,0
120973,-125,4,2,0,55,0,0
121891,-66.6666666666667,4,2,0,65,0,0
122197,-50,4,2,0,70,0,0
122503,-66.6666666666667,4,2,0,65,0,0
123116,-125,4,2,0,55,0,0
124340,-83.3333333333333,4,2,0,65,0,0
125565,-125,4,2,0,55,0,0
126483,-66.6666666666667,4,2,0,65,0,0
126789,-200,4,2,0,55,0,0
127095,-66.6666666666667,4,2,0,65,0,0
127401,-100,4,2,0,55,0,0
129238,-83.3333333333333,4,2,0,65,0,0
129850,-100,4,2,0,60,0,0
131381,-83.3333333333333,4,2,0,65,0,0
131993,-66.6666666666667,4,2,0,60,0,0
132299,-100,4,2,0,70,0,0
134136,-66.6666666666667,4,2,0,70,0,0
134748,-100,4,2,0,70,0,0
135667,-66.6666666666667,4,2,0,70,0,0
136585,-100,4,2,0,70,0,0
136891,-50,4,2,0,70,0,0
137197,-100,4,2,0,70,0,0
139034,-66.6666666666667,4,2,0,70,0,0
140565,-66.6666666666667,4,2,0,70,0,0
141024,-100,4,2,0,70,0,0
141789,-55.5555555555556,4,2,0,70,0,0
143014,-100,4,2,0,70,0,0
143932,-66.6666666666667,4,2,0,70,0,0
145463,-57.1428571428571,4,2,0,70,0,0
146687,-50,4,2,0,70,0,0
148218,-100,4,2,0,70,0,0
148830,-66.6666666666667,4,2,0,70,0,0
150361,-62.5,4,2,0,70,0,0
150820,-83.3333333333333,4,2,0,70,0,0
151279,-62.5,4,2,0,70,0,0
151891,-83.3333333333333,4,2,0,70,0,1
154340,-83.3333333333333,4,2,0,70,0,1
158014,-66.6666666666667,4,2,0,70,0,1
158320,-83.3333333333333,4,2,0,70,0,1
158932,-66.6666666666667,4,2,0,70,0,1
159544,-83.3333333333333,4,2,0,70,0,1
161687,-66.6666666666667,4,2,0,70,0,1
161993,-83.3333333333333,4,2,0,70,0,1
165361,-62.5,4,2,0,70,0,1
165667,-83.3333333333333,4,2,0,70,0,1
169034,-66.6666666666667,4,2,0,70,0,1
169340,-83.3333333333333,4,2,0,70,0,1
173320,-90.9090909090909,4,2,0,70,0,1
176381,-66.6666666666667,4,2,0,70,0,0
177146,-133.333333333333,4,2,0,70,0,0
177452,-66.6666666666667,4,2,0,70,0,0
177759,-111.111111111111,4,2,0,70,0,0
178065,-55.5555555555556,4,2,0,70,0,0
178371,-111.111111111111,4,2,0,70,0,0
178830,-66.6666666666667,4,2,0,70,0,0
179595,-133.333333333333,4,2,0,70,0,0
180208,-111.111111111111,4,2,0,70,0,0
180514,-55.5555555555556,4,2,0,70,0,0
180667,-66.6666666666667,4,2,0,70,0,0
182044,-133.333333333333,4,2,0,70,0,0
182350,-66.6666666666667,4,2,0,70,0,0
182657,-111.111111111111,4,2,0,70,0,0
182963,-55.5555555555556,4,2,0,70,0,0
183269,-111.111111111111,4,2,0,70,0,0
183575,-66.6666666666667,4,2,0,70,0,0
184493,-100,4,2,0,70,0,0
185106,-111.111111111111,4,2,0,70,0,0
185412,-55.5555555555556,4,2,0,70,0,0
186177,-66.6666666666667,4,2,0,70,0,0
186942,-133.333333333333,4,2,0,70,0,0
187248,-66.6666666666667,4,2,0,70,0,0
187555,-111.111111111111,4,2,0,70,0,0
187861,-55.5555555555556,4,2,0,70,0,0
188167,-111.111111111111,4,2,0,70,0,0
188626,-66.6666666666667,4,2,0,70,0,0
189391,-133.333333333333,4,2,0,70,0,0
189697,-66.6666666666667,4,2,0,70,0,0
190003,-111.111111111111,4,2,0,70,0,0
190310,-55.5555555555556,4,2,0,70,0,0
190616,-111.111111111111,4,2,0,70,0,0
191075,-66.6666666666667,4,2,0,70,0,0
191840,-133.333333333333,4,2,0,70,0,0
192146,-66.6666666666667,4,2,0,70,0,0
192452,-111.111111111111,4,2,0,70,0,0
192759,-55.5555555555556,4,2,0,70,0,0
193065,-111.111111111111,4,2,0,70,0,0
193524,-66.6666666666667,4,2,0,70,0,0
194289,-133.333333333333,4,2,0,70,0,0
194595,-66.6666666666667,4,2,0,70,0,0
194901,-111.111111111111,4,2,0,70,0,0
195208,-55.5555555555556,4,2,0,70,0,0
205769,-55.5555555555556,4,2,0,75,0,1
206993,-83.3333333333333,4,2,0,75,0,1
208218,-66.6666666666667,4,2,0,75,0,1
208677,-55.5555555555556,4,2,0,75,0,1
209136,-166.666666666667,4,2,0,55,0,1
209442,-166.666666666667,4,2,0,75,0,1
209595,-66.6666666666667,4,2,0,75,0,1
210055,-125,4,2,0,75,0,1
210667,-71.4285714285714,4,2,0,75,0,1
211585,-66.6666666666667,4,2,0,75,0,1
213728,-100,4,2,0,75,0,1
215565,-125,4,2,0,60,0,0
220463,-100,4,2,0,60,0,0
220922,-125,4,2,0,60,0,0
225361,-83.3333333333333,4,2,0,75,0,1
225973,-55.5555555555556,4,2,0,75,0,1
226585,-83.3333333333333,4,2,0,75,0,1
228728,-125,4,2,0,75,0,1
229187,-83.3333333333333,4,2,0,75,0,1
229952,-125,4,2,0,75,0,1
230871,-100,4,2,0,75,0,1
232708,-78.125,4,2,0,75,0,1
235157,-78.125,4,2,0,80,0,1
235769,-68.9655172413793,4,2,0,80,0,1
236381,-83.3333333333333,4,2,0,80,0,1
238524,-166.666666666667,4,2,0,80,0,1
238983,-66.6666666666667,4,2,0,80,0,1
240055,-78.125,4,2,0,80,0,1
244952,-133.333333333333,4,2,0,70,0,0
245412,-133.333333333333,4,2,0,50,0,0
254748,-125,4,2,0,55,0,0
264544,-100,4,2,0,63,0,0
264850,-125,4,2,0,60,0,0
266381,-83.3333333333333,4,2,0,70,0,0
266993,-100,4,2,0,60,0,0
267452,-117.647058823529,4,2,0,60,0,0
268830,-66.6666666666667,4,2,0,80,0,0
269442,-100,4,2,0,70,0,0
270055,-117.647058823529,4,2,0,60,0,0
271279,-117.647058823529,4,2,0,65,0,0
271891,-117.647058823529,4,2,0,60,0,0
274340,-111.111111111111,4,2,0,65,0,0
274952,-100,4,2,0,65,0,0
276177,-74.0740740740739,4,2,0,70,0,0
276789,-105.263157894737,4,2,0,65,0,0
278626,-79.9999999999998,4,2,0,73,0,0
278932,-55.5555555555556,4,2,0,80,0,0
279238,-90.9090909090909,4,2,0,70,0,0
279697,-111.111111111111,4,2,0,65,0,0
281075,-83.3333333333333,4,2,0,72,0,0
281687,-100,4,2,0,65,0,0
283830,-76.9230769230769,4,2,0,65,0,0
284136,-90.9090909090909,4,2,0,80,0,1
284748,-66.6666666666667,4,2,0,80,0,1
285361,-83.3333333333333,4,2,0,80,0,1
286585,-100,4,2,0,80,0,1
287197,-89.2857142857143,4,2,0,80,0,1
289034,-83.3333333333333,4,2,0,80,0,1
293932,-100,4,2,0,80,0,1
294544,-66.6666666666667,4,2,0,80,0,1
295157,-83.3333333333333,4,2,0,80,0,1
296381,-71.4285714285714,4,2,0,80,0,1
296993,-76.9230769230769,4,2,0,80,0,1
297299,-83.3333333333333,4,2,0,80,0,1
298830,-78.125,4,2,0,80,0,1
303728,-83.3333333333333,4,2,0,80,0,1
304340,-66.6666666666667,4,2,0,55,0,1
304799,-90.9090909090909,4,2,0,55,0,1
306177,-83.3333333333333,4,2,0,55,0,1
307095,-166.666666666667,4,2,0,55,0,1
307555,-100,4,2,0,55,0,1
309850,-83.3333333333333,4,2,0,55,0,1
313524,-111.111111111111,4,2,0,55,0,0
323320,-90.9090909090908,4,2,0,70,0,1
323932,-66.6666666666667,4,2,0,70,0,1
324544,-83.3333333333333,4,2,0,70,0,1
326687,-166.666666666667,4,2,0,70,0,1
327146,-71.4285714285714,4,2,0,70,0,1
328218,-83.3333333333333,4,2,0,70,0,1
333116,-78.125,4,2,0,75,0,1
333728,-66.6666666666667,4,2,0,75,0,1
334340,-78.125,4,2,0,75,0,1
336483,-156.25,4,2,0,75,0,1
336942,-83.3333333333333,4,2,0,75,0,1
340463,-74.0740740740741,4,2,0,75,0,1
341993,-100,4,2,0,75,0,1
342912,-66.6666666666667,4,2,0,70,0,0

[Colours]
Combo1 : 110,194,133
Combo2 : 181,56,89
Combo3 : 114,88,167
Combo4 : 92,176,219

[HitObjects]
23,190,55,5,0,3:0:0:0:
105,198,208,1,0,0:0:0:0:
190,205,361,1,0,0:0:0:0:
274,213,514,1,0,0:0:0:0:
358,220,667,2,0,L|457:229,1,84.5999987091065,0|0,3:0|0:0,0:0:0:0:
190,29,1279,5,0,3:0:0:0:
184,98,1432,1,0,0:0:0:0:
178,168,1585,1,0,0:0:0:0:
171,238,1738,1,0,0:0:0:0:
157,378,1891,5,2,3:2:0:0:
164,308,2197,1,2,0:2:0:0:
347,194,2503,5,0,3:0:0:0:
306,118,2657,1,0,0:0:0:0:
236,69,2810,1,0,0:0:0:0:
152,56,2963,1,0,0:0:0:0:
72,82,3116,2,0,L|61:181,1,84.5999987091065,0|0,3:0|0:0,0:0:0:0:
224,359,3728,5,0,3:0:0:0:
230,290,3881,1,0,0:0:0:0:
236,220,4034,1,0,0:0:0:0:
243,150,4187,1,0,0:0:0:0:
111,221,4340,5,2,3:2:0:0:
223,230,4493,1,2,0:0:0:0:
336,239,4646,1,2,0:0:0:0:
447,248,4799,1,2,0:0:0:0:
325,352,4952,5,0,3:0:0:0:
332,269,5106,1,0,0:0:0:0:
339,185,5259,1,0,0:0:0:0:
347,101,5412,1,0,0:0:0:0:
355,17,5565,2,0,L|362:101,1,84.5999987091065,0|0,3:0|0:0,0:0:0:0:
162,299,6177,5,0,3:0:0:0:
156,227,6331,1,0,0:0:0:0:
150,155,6484,1,0,0:0:0:0:
143,84,6637,1,0,0:0:0:0:
221,37,6789,5,2,3:2:0:0:
160,313,7095,1,2,0:0:0:0:
21,225,7401,5,0,3:0:0:0:
93,179,7555,1,0,0:0:0:0:
178,171,7708,1,0,0:0:0:0:
257,202,7861,1,0,0:0:0:0:
313,264,8014,2,0,L|306:359,1,84.5999987091065,0|0,3:0|0:0,0:0:0:0:
458,161,8626,5,0,3:0:0:0:
386,188,8779,1,0,0:0:0:0:
316,156,8932,1,0,0:0:0:0:
290,84,9085,1,0,0:0:0:0:
402,22,9238,5,2,3:2:0:0:
396,126,9391,1,2,0:0:0:0:
390,231,9544,1,2,0:0:0:0:
384,336,9697,1,2,0:0:0:0:
398,327,9850,5,0,3:0:0:0:
404,222,10003,1,0,0:0:0:0:
299,216,10157,1,0,0:0:0:0:
293,321,10310,1,0,0:0:0:0:
207,370,10463,2,0,L|109:360,1,84.5999987091065,0|0,3:0|0:0,0:0:0:0:
123,361,11075,5,0,3:0:0:0:
129,285,11228,1,0,0:0:0:0:
136,210,11381,1,0,0:0:0:0:
143,135,11534,1,0,0:0:0:0:
10,195,11687,5,2,3:2:0:0:
144,206,11840,1,2,0:2:0:0:
280,218,11993,1,2,0:2:0:0:
156,39,12146,1,2,0:0:0:0:
35,163,12299,5,0,3:0:0:0:
37,179,12452,1,0,0:0:0:0:
44,261,12606,1,0,0:0:0:0:
55,376,12759,1,0,0:0:0:0:
166,255,12912,2,0,L|161:340,1,84.5999987091065,0|0,3:0|0:0,0:0:0:0:
161,338,13524,5,0,3:0:0:0:
84,292,13677,2,0,L|76:390,2,80.9999975280762,0|2|0,0:0|0:0|0:0,0:0:0:0:
154,225,14136,5,0,3:0:0:0:
235,254,14289,2,0,L|225:166,2,80.9999975280762,0|2|0,0:0|0:0|0:0,0:0:0:0:
348,225,14748,6,0,L|360:125,1,95.4000001455688,0|0,3:0|0:0,0:0:0:0:
370,31,15208,1,0,0:0:0:0:
276,19,15361,2,0,L|262:121,1,95.4000001455689,0|0,3:0|0:0,0:0:0:0:
488,147,15973,5,0,3:0:0:0:
413,157,16126,1,0,0:0:0:0:
338,167,16279,1,0,0:0:0:0:
263,177,16432,1,0,0:0:0:0:
138,140,16585,5,2,3:2:0:0:
168,364,16891,1,2,0:0:0:0:
31,247,17197,6,0,L|94:240,1,47.7000000727844,0|0,3:0|0:0,0:0:0:0:
165,231,17503,1,0,0:0:0:0:
248,221,17657,1,0,0:0:0:0:
330,211,17810,2,0,L|444:199,1,95.4000001455688,0|0,3:0|0:0,0:0:0:0:
257,360,18422,5,0,3:0:0:0:
176,330,18575,1,0,0:0:0:0:
127,261,18728,1,0,0:0:0:0:
127,175,18881,1,0,0:0:0:0:
37,108,19034,5,2,3:2:0:0:
129,157,19187,1,2,0:0:0:0:
232,139,19340,1,2,0:0:0:0:
302,62,19493,1,2,0:0:0:0:
237,8,19646,6,0,L|228:71,1,47.7000000727844,0|0,3:0|0:0,0:0:0:0:
219,128,19952,1,0,0:0:0:0:
208,203,20106,1,0,0:0:0:0:
197,277,20259,2,0,L|183:372,1,95.4000001455688,0|0,3:0|0:0,0:0:0:0:
31,256,20871,5,0,3:0:0:0:
101,247,21024,1,0,0:0:0:0:
171,238,21177,1,0,0:0:0:0:
241,229,21330,1,0,0:0:0:0:
325,297,21483,5,2,3:2:0:0:
385,74,21789,1,2,0:0:0:0:
494,200,22095,5,0,3:0:0:0:
503,280,22248,1,0,0:0:0:0:
466,349,22401,1,0,0:0:0:0:
396,384,22555,1,0,0:0:0:0:
317,373,22708,2,0,L|302:267,1,95.4000001455688,0|0,3:0|0:0,0:0:0:0:
198,50,23320,5,0,3:0:0:0:
191,120,23473,1,0,0:0:0:0:
184,191,23626,1,0,0:0:0:0:
177,261,23779,1,0,0:0:0:0:
77,107,23932,5,2,3:2:0:0:
182,116,24085,1,2,0:0:0:0:
288,126,24238,1,2,0:0:0:0:
393,137,24391,1,2,0:0:0:0:
198,50,24544,5,0,3:0:0:0:
191,120,24697,1,0,0:0:0:0:
184,191,24850,1,0,0:0:0:0:
177,261,25003,1,0,0:0:0:0:
170,331,25157,2,0,L|158:215,1,95.4000001455689,0|0,3:0|0:0,0:0:0:0:
83,218,25769,5,0,3:0:0:0:
173,213,25922,1,0,0:0:0:0:
259,206,26075,1,0,0:0:0:0:
345,201,26228,1,0,0:0:0:0:
137,77,26381,5,2,3:2:0:0:
153,208,26534,1,2,0:0:0:0:
284,193,26687,1,2,0:0:0:0:
269,62,26840,1,2,0:0:0:0:
283,86,26993,5,0,3:0:0:0:
251,83,27146,1,0,0:0:0:0:
220,80,27299,1,0,0:0:0:0:
128,27,27452,1,0,0:0:0:0:
41,134,27606,2,0,L|48:237,1,95.4000001455688,0|0,3:0|0:0,0:0:0:0:
311,304,28218,5,0,3:0:0:0:
460,339,28371,2,0,L|366:352,2,90,0|2|0,0:0|0:0|0:0,0:0:0:0:
216,242,28830,5,0,3:0:0:0:
257,176,28983,2,0,L|347:190,2,90,0|2|0,0:0|0:0|0:0,0:0:0:0:
119,196,29442,6,0,L|19:211,1,90,0|0,3:0|0:0,0:0:0:0:
131,32,29748,5,2,0:0:0:0:
198,115,29901,1,0,3:0:0:0:
117,200,30055,2,0,L|12:215,1,90
130,27,30361,5,2,3:2:0:0:
200,115,30514,1,0,0:0:0:0:
115,204,30667,2,0,L|5:220,1,90
129,23,30973,5,2,3:2:0:0:
202,115,31126,1,0,0:0:0:0:
114,208,31279,1,0,0:0:0:0:
114,208,31432,1,0,3:0:0:0:
238,16,31585,5,2,0:0:0:0:
397,192,31738,1,2,3:2:0:0:
471,106,31891,6,0,L|477:5,1,90,0|0,3:0|0:0,0:0:0:0:
309,133,32197,5,2,0:0:0:0:
397,192,32350,1,0,3:0:0:0:
475,104,32504,2,0,L|480:-1,1,90
303,132,32810,5,2,3:2:0:0:
397,194,32963,1,0,0:0:0:0:
478,102,33116,2,0,L|484:-8,1,90
299,131,33422,5,2,3:2:0:0:
397,196,33575,1,0,0:0:0:0:
482,100,33728,1,0,0:0:0:0:
482,100,33881,1,0,3:0:0:0:
317,256,34034,5,2,0:0:0:0:
387,336,34187,1,0,3:0:0:0:
387,336,34340,2,0,L|486:346,1,90,0|0,3:0|0:0,0:0:0:0:
397,196,34646,5,2,0:0:0:0:
313,258,34799,1,0,3:0:0:0:
388,339,34952,2,0,L|491:350,1,90
398,192,35258,5,2,3:2:0:0:
310,257,35411,1,0,0:0:0:0:
389,343,35565,2,0,L|498:354,1,90
400,189,35871,5,2,3:2:0:0:
307,257,36024,1,0,0:0:0:0:
390,347,36177,1,0,0:0:0:0:
390,347,36330,1,0,3:0:0:0:
305,248,36483,5,2,0:0:0:0:
152,361,36636,1,2,3:2:0:0:
34,278,36789,6,0,L|27:378,1,90,0|0,3:0|0:0,0:0:0:0:
196,251,37095,5,2,0:0:0:0:
108,192,37248,1,0,3:0:0:0:
30,280,37402,2,0,L|24:385,1,90
202,252,37708,5,2,3:2:0:0:
108,190,37861,1,0,0:0:0:0:
27,282,38014,2,0,L|20:392,1,90
206,253,38320,5,2,3:2:0:0:
108,188,38473,1,0,0:0:0:0:
23,284,38626,1,0,0:0:0:0:
23,284,38779,1,0,3:0:0:0:
224,167,38932,5,2,0:0:0:0:
124,333,39085,1,2,3:2:0:0:
39,189,39238,2,0,P|36:132|42:86,1,90,0|0,3:0|0:0,0:0:0:0:
100,25,39544,5,2,0:0:0:0:
177,134,39697,1,0,3:0:0:0:
35,192,39850,2,0,P|32:132|38:84,1,90
99,20,40157,5,2,3:2:0:0:
180,134,40309,1,0,0:0:0:0:
32,196,40463,2,0,P|29:133|35:82,1,90
99,15,40769,5,2,3:2:0:0:
184,135,40922,1,0,0:0:0:0:
28,200,41075,1,0,0:0:0:0:
28,200,41228,1,0,3:0:0:0:
99,10,41381,5,2,0:0:0:0:
188,136,41534,1,2,3:2:0:0:
357,27,41687,2,0,P|339:79|340:126,1,90,0|0,3:0|0:0,0:0:0:0:
411,174,41993,5,2,0:0:0:0:
466,63,42146,1,0,3:0:0:0:
354,23,42299,2,0,P|336:77|337:127,1,90
410,178,42605,5,2,3:2:0:0:
468,61,42758,1,0,0:0:0:0:
352,19,42912,2,0,P|333:76|334:128,1,90
409,183,43218,5,2,3:2:0:0:
471,60,43371,1,0,0:0:0:0:
350,15,43524,1,0,0:0:0:0:
350,15,43677,1,0,3:0:0:0:
474,59,43830,5,2,0:0:0:0:
408,188,43983,1,0,3:2:0:0:
408,188,44136,2,0,P|360:192|321:215,1,90,0|0,3:0|0:0,0:0:0:0:
305,295,44442,5,2,0:0:0:0:
453,324,44595,1,0,3:0:0:0:
406,186,44748,2,0,P|356:190|315:214,1,90
300,296,45055,5,2,3:2:0:0:
456,326,45207,1,0,0:0:0:0:
407,182,45361,2,0,P|354:186|312:211,1,90
296,297,45667,5,2,3:2:0:0:
459,329,45820,1,0,0:0:0:0:
408,177,45973,1,0,0:0:0:0:
408,177,46126,1,0,3:0:0:0:
292,298,46279,5,2,0:0:0:0:
132,203,46432,1,2,3:2:0:0:
83,350,46585,2,0,P|146:360|188:348,1,90,0|0,3:0|0:0,0:0:0:0:
234,286,46891,5,2,0:0:0:0:
132,203,47044,1,0,3:0:0:0:
79,353,47197,2,0,P|145:363|189:351,1,90
238,286,47503,5,2,3:2:0:0:
131,199,47657,1,0,0:0:0:0:
76,357,47810,2,0,P|145:368|191:354,1,90
242,286,48116,5,2,3:2:0:0:
130,195,48269,1,0,0:0:0:0:
76,357,48422,5,0,0:0:0:0:
242,286,48575,2,0,L|251:193,1,90,2|0,3:2|0:0,0:0:0:0:
22,23,48881,2,0,L|28:77,1,40.4999987640381,2|0,0:0|0:0,0:0:0:0:
18,88,49034,6,0,B|64:92|64:92|121:55|121:55|169:60,1,161.999995056153,2|0,3:2|0:0,0:0:0:0:
264,73,49493,1,0,0:0:0:0:
38,208,49646,1,2,3:0:0:0:
38,208,49952,1,0,0:0:0:0:
12,112,50106,1,0,0:0:0:0:
176,257,50259,5,2,0:0:0:0:
258,208,50412,2,0,L|267:128,1,80.9999975280762,0|0,0:0|3:0,0:0:0:0:
268,128,50871,1,2,3:0:0:0:
357,2,51024,2,0,L|367:99,1,80.9999975280762,0|0,3:0|0:0,0:0:0:0:
407,236,51330,5,0,3:0:0:0:
508,155,51483,2,0,P|497:222|399:252,1,161.999995056152,2|0,3:2|0:0,0:0:0:0:
332,192,51942,1,0,0:0:0:0:
396,344,52095,2,0,L|488:340,1,80.9999975280762,2|0,3:0|0:0,0:0:0:0:
336,273,52401,2,0,L|244:277,1,80.9999975280762,2|0,0:0|0:0,0:0:0:0:
174,384,52708,6,0,B|180:318|180:318|170:293|170:293|177:206,1,161.999995056153,0|0,3:0|3:0,0:0:0:0:
188,151,53167,1,0,0:0:0:0:
70,209,53320,1,2,3:0:0:0:
70,209,53473,2,0,B|62:249|62:249|79:295,1,80.9999975280763,0|0,3:0|0:0,0:0:0:0:
195,142,53779,1,0,3:0:0:0:
345,317,53932,5,2,3:2:0:0:
424,270,54085,2,0,B|432:230|432:230|415:184,1,80.9999975280763
237,97,54391,1,0,3:0:0:0:
309,187,54544,2,0,B|241:197|241:197|218:178|218:178|155:186,1,161.999995056153,2|0,3:0|0:0,0:0:0:0:
371,106,55003,5,0,0:0:0:0:
384,29,55157,2,0,P|442:31|479:137,1,161.999995056153,2|0,0:0|3:0,0:0:0:0:
416,193,55616,1,0,0:0:0:0:
182,139,55769,2,0,P|168:198|177:232,1,80.9999975280763,2|0,3:0|3:0,0:0:0:0:
342,269,56075,1,2,0:0:0:0:
276,80,56228,1,0,0:0:0:0:
263,109,56305,1,2,0:0:0:0:
272,139,56381,6,0,B|294:233|226:211|255:305,1,161.999995056153,2|0,3:2|0:0,0:0:0:0:
168,350,56840,1,0,3:0:0:0:
186,179,56993,1,2,3:0:0:0:
186,179,57299,1,0,3:0:0:0:
137,259,57452,1,0,0:0:0:0:
11,61,57606,5,2,0:0:0:0:
76,0,57759,2,0,B|114:-5|114:-5|158:16,1,80.9999975280763,0|0,0:0|3:0,0:0:0:0:
152,13,58218,1,2,3:0:0:0:
76,159,58371,2,0,B|38:164|38:164|-6:143,1,80.9999975280763,0|0,3:0|0:0,0:0:0:0:
282,133,58677,5,0,3:0:0:0:
349,181,58830,2,0,P|422:128|417:56,1,161.999995056153,2|0,0:0|0:0,0:0:0:0:
219,191,59289,1,0,3:0:0:0:
137,99,59442,2,0,P|125:167|126:199,1,80.9999975280763,2|0,3:0|0:0,0:0:0:0:
261,371,59748,2,0,P|258:330|248:291,1,80.9999975280763,2|0,0:0|0:0,0:0:0:0:
158,363,60055,6,0,B|83:395|79:302|-11:345,1,161.999995056153,2|0,3:2|0:0,0:0:0:0:
44,172,60514,2,0,L|141:179,1,80.9999975280763,0|2,3:0|3:0,0:0:0:0:
219,271,60820,2,0,L|122:278,1,80.9999975280763,0|0,3:0|0:0,0:0:0:0:
215,185,61126,1,0,3:0:0:0:
431,374,61279,5,2,3:2:0:0:
302,233,61432,2,0,P|310:184|429:156,1,161.999995056153,0|0,0:0|3:0,0:0:0:0:
477,199,61891,1,2,3:0:0:0:
398,34,62197,6,0,L|308:51,1,80.9999975280763,0|0,3:0|0:0,0:0:0:0:
237,68,62503,1,2,0:0:0:0:
71,41,62810,5,0,3:0:0:0:
50,135,62963,1,0,0:0:0:0:
230,276,63116,5,2,3:0:0:0:
197,127,63269,2,0,P|235:108|282:122,1,80.9999975280763,0|0,3:0|0:0,0:0:0:0:
416,256,63575,5,0,3:0:0:0:
463,186,63728,2,0,B|386:168|386:168|319:250,1,161.999995056153,2|0,3:2|0:0,0:0:0:0:
268,146,64187,1,0,0:0:0:0:
315,384,64340,1,2,3:0:0:0:
315,384,64646,5,0,3:0:0:0:
410,229,64799,2,0,L|427:314,1,80.9999975280763,0|2,0:0|0:0,0:0:0:0:
236,232,65106,2,0,L|253:147,2,80.9999975280763,0|0|0,0:0|3:0|0:0,0:0:0:0:
483,119,65565,1,2,3:0:0:0:
512,37,65718,2,0,P|457:34|341:15,1,161.999995056153,0|0,3:0|0:0,0:0:0:0:
213,170,66177,6,0,P|268:176|374:202,1,161.999995056153,0|0,3:0|0:0,0:0:0:0:
201,263,66636,1,0,3:0:0:0:
125,208,66789,2,0,P|121:147|141:113,1,80.9999975280763,2|0,3:0|0:0,0:0:0:0:
278,17,67095,1,2,0:0:0:0:
367,111,67248,1,2,0:0:0:0:
367,111,67325,1,2,0:0:0:0:
367,111,67401,6,0,P|454:106|496:34,1,161.999995056153,2|0,3:2|0:0,0:0:0:0:
278,17,67861,1,0,3:0:0:0:
222,203,68014,1,2,3:0:0:0:
54,92,68167,2,0,L|61:4,1,80.9999975280763
153,69,68473,1,0,3:0:0:0:
12,243,68626,5,2,3:2:0:0:
113,347,68779,2,0,P|165:370|264:304,1,161.999995056153,0|0,0:0|3:0,0:0:0:0:
326,228,69238,2,0,B|355:259|355:259|346:378,1,161.999995056153,2|0,3:0|0:0,0:0:0:0:
124,228,69697,1,0,0:0:0:0:
124,228,69850,6,0,L|131:137,1,80.9999975280763,2|0,0:0|0:0,0:0:0:0:
250,20,70157,2,0,L|237:181,1,161.999995056153,0|2,3:0|3:0,0:0:0:0:
324,300,70616,2,0,L|330:219,1,80.9999975280763,0|0,3:0|0:0,0:0:0:0:
435,203,70922,1,0,3:0:0:0:
435,203,71075,2,0,L|447:41,1,161.999995056153,0|0,3:0|0:0,0:0:0:0:
447,41,71534,1,0,3:0:0:0:
333,117,71687,1,2,3:0:0:0:
250,6,71840,2,0,L|153:0,1,80.9999975280763,0|0,0:0|3:0,0:0:0:0:
113,116,72146,1,0,0:0:0:0:
113,116,72299,2,0,L|16:110,1,80.9999975280763
240,220,72606,1,0,0:0:0:0:
160,215,72759,2,0,L|79:209,1,80.9999975280763,0|2,3:0|3:0,0:0:0:0:
282,120,73065,2,0,L|202:115,1,80.9999975280763
393,202,73371,1,0,0:0:0:0:
393,202,73524,5,0,1:0:0:0:
437,315,73677,1,0,0:0:0:0:
323,359,73830,1,2,0:0:0:0:
279,246,73983,1,2,3:0:0:0:
478,131,74136,2,0,P|432:79|317:87,1,180,8|0,0:0|0:0,0:0:0:0:
244,135,74595,1,0,0:0:0:0:
231,39,74748,5,2,0:0:0:0:
382,164,74901,2,0,L|360:261,1,90,0|0,3:0|0:0,0:0:0:0:
281,323,75208,1,2,3:0:0:0:
244,135,75361,2,0,P|144:149|124:203,1,135,8|0,0:0|0:0,0:0:0:0:
121,201,75667,1,0,3:0:0:0:
210,342,75820,1,0,0:0:0:0:
27,297,75973,6,0,L|117:306,1,90,2|0,3:2|0:0,0:0:0:0:
187,254,76279,1,0,0:0:0:0:
314,359,76432,1,2,3:0:0:0:
425,238,76585,2,0,L|437:328,1,90,8|0,0:0|0:0,0:0:0:0:
268,123,76891,2,0,L|280:33,1,90,2|0,0:0|0:0,0:0:0:0:
483,78,77197,5,2,3:0:0:0:
264,150,77350,1,0,0:0:0:0:
410,251,77503,2,0,P|455:252|497:239,1,90,2|0,0:0|3:0,0:0:0:0:
261,179,77810,1,8,0:0:0:0:
389,254,77963,1,0,0:0:0:0:
206,300,78116,6,0,P|156:278|144:263,1,45,2|0,3:2|3:0,0:0:0:0:
104,212,78269,2,0,P|97:158|104:140,1,45,2|0,3:2|3:2,0:0:0:0:
197,66,78422,5,0,1:0:0:0:
125,128,78575,2,0,L|22:115,1,90,0|2,0:0|0:0,0:0:0:0:
212,39,78881,1,2,3:0:0:0:
307,167,79034,2,0,L|323:294,1,90,8|0,0:0|0:0,0:0:0:0:
226,216,79340,1,0,0:0:0:0:
479,234,79493,6,0,L|495:107,1,90,2|2,0:0|3:0,0:0:0:0:
246,49,79799,1,0,0:0:0:0:
231,155,79952,1,2,0:0:0:0:
218,262,80106,1,2,3:0:0:0:
63,164,80259,2,0,P|67:89|163:46,1,180,8|0,0:0|0:0,0:0:0:0:
241,148,80718,1,0,3:0:0:0:
149,59,80871,5,2,3:0:0:0:
305,209,81024,1,0,0:0:0:0:
282,87,81177,1,2,0:0:0:0:
146,255,81330,1,2,3:0:0:0:
401,202,81483,1,8,0:0:0:0:
411,300,81636,2,0,L|412:210,2,90,0|2|0,0:0|0:0|0:0,0:0:0:0:
285,284,82095,5,0,3:0:0:0:
499,168,82248,1,0,3:0:0:0:
329,112,82401,1,2,0:0:0:0:
411,300,82555,1,2,3:0:0:0:
374,212,82708,5,8,0:0:0:0:
191,282,82861,1,0,0:0:0:0:
327,353,83014,2,0,L|337:281,1,45,2|0,3:2|3:0,0:0:0:0:
189,266,83167,2,0,L|179:194,1,45,2|0,3:2|3:0,0:0:0:0:
180,201,83320,5,0,1:0:0:0:
113,312,83473,2,0,B|68:318|68:318|20:286,1,90,0|2,0:0|0:0,0:0:0:0:
177,185,83779,1,2,3:0:0:0:
0,104,83932,2,0,P|72:108|170:52,1,180,8|0,0:0|0:0,0:0:0:0:
291,7,84391,6,0,P|288:65|291:104,1,90,2|2,0:0|3:0,0:0:0:0:
358,160,84697,1,0,0:0:0:0:
474,90,84850,5,2,0:0:0:0:
297,216,85003,1,2,3:0:0:0:
499,271,85157,2,0,P|442:262|371:339,1,135,8|0,0:0|0:0,0:0:0:0:
368,329,85463,2,0,P|344:362|297:386,1,90,0|0,3:0|0:0,0:0:0:0:
165,346,85769,5,0,3:0:0:0:
23,198,85922,2,0,P|11:147|10:103,1,90,2|2,0:0|0:0,0:0:0:0:
46,340,86228,1,2,3:0:0:0:
198,134,86381,2,0,L|391:153,1,180,8|0,0:0|0:0,0:0:0:0:
453,116,86840,1,0,0:0:0:0:
456,201,86993,5,2,3:0:0:0:
204,33,87146,2,0,P|148:44|106:77,1,90,2|0,0:0|0:0,0:0:0:0:
239,229,87452,1,2,3:0:0:0:
260,93,87606,5,8,0:0:0:0:
249,227,87759,1,0,0:0:0:0:
238,362,87912,1,2,3:0:0:0:
76,207,88065,1,2,3:0:0:0:
76,207,88141,1,2,3:0:0:0:
76,207,88218,6,0,P|131:204|168:192,1,90,0|0,1:0|0:0,0:0:0:0:
114,354,88524,2,0,P|70:341|25:340,1,90,2|2,0:0|3:0,0:0:0:0:
139,93,88830,2,0,P|220:92|278:192,1,180,8|0,0:0|0:0,0:0:0:0:
228,253,89289,1,0,0:0:0:0:
398,341,89442,5,2,3:0:0:0:
229,242,89595,1,0,0:0:0:0:
240,356,89748,1,2,0:0:0:0:
385,224,89901,1,2,3:0:0:0:
144,289,90055,2,0,B|137:231|137:231|153:191|153:191|146:113,1,180,8|0,0:0|0:0,0:0:0:0:
66,156,90514,1,2,0:0:0:0:
66,156,90590,1,2,0:0:0:0:
66,156,90667,6,0,P|53:78|57:51,1,90,2|0,3:0|0:0,0:0:0:0:
121,301,90973,2,0,P|89:332|51:355,1,90,2|0,0:0|3:0,0:0:0:0:
374,219,91279,2,0,P|288:235|211:192,1,180,8|0,0:0|0:0,0:0:0:0:
201,99,91738,1,2,0:0:0:0:
374,76,91891,5,2,3:0:0:0:
208,204,92044,2,0,L|102:219,1,90,2|0,0:0|0:0,0:0:0:0:
268,125,92350,1,2,3:0:0:0:
161,296,92503,1,8,0:0:0:0:
33,143,92657,1,0,0:0:0:0:
112,86,92810,6,0,L|118:144,1,45,2|0,3:3|0:0,0:0:0:0:
61,241,92963,1,2,3:0:0:0:
65,285,93039,1,2,3:0:0:0:
70,330,93116,5,2,3:2:0:0:
238,308,93269,1,2,0:2:0:0:
406,286,93422,1,2,0:2:0:0:
247,320,93575,5,0,3:0:0:0:
238,308,93728,1,0,0:0:0:0:
252,312,93881,1,0,0:0:0:0:
238,317,94034,1,0,3:0:0:0:
247,305,94187,1,0,0:0:0:0:
276,375,94340,5,0,3:2:0:0:
264,252,94493,1,2,0:0:0:0:
248,131,94646,1,2,0:0:0:0:
312,54,94799,5,0,3:0:0:0:
317,62,94952,1,0,0:0:0:0:
322,53,95106,1,0,0:0:0:0:
312,54,95259,1,0,3:0:0:0:
322,53,95412,1,0,0:0:0:0:
448,152,95565,5,2,3:2:0:0:
263,128,95718,1,2,0:0:0:0:
78,104,95871,1,2,0:0:0:0:
183,30,96024,5,0,3:0:0:0:
182,38,96177,1,0,0:0:0:0:
183,30,96330,1,0,0:0:0:0:
178,33,96483,1,0,3:0:0:0:
186,34,96636,1,0,0:0:0:0:
268,105,96789,5,2,3:2:0:0:
260,203,96942,1,2,0:0:0:0:
252,302,97095,1,2,0:0:0:0:
342,260,97248,5,0,3:0:0:0:
171,245,97401,2,0,L|159:166,1,67.5000025749208,2|0,0:0|0:0,0:0:0:0:
115,298,97708,1,2,3:0:0:0:
61,124,97861,1,2,3:3:0:0:
61,124,97937,1,2,0:3:0:0:
61,124,98014,5,2,0:2:0:0:
234,49,98167,1,2,0:0:0:0:
413,107,98320,1,2,0:0:0:0:
312,159,98473,5,0,3:0:0:0:
322,150,98626,1,0,0:0:0:0:
321,159,98779,1,0,0:0:0:0:
312,159,98932,1,0,3:0:0:0:
312,149,99085,1,0,0:0:0:0:
387,292,99238,5,2,3:2:0:0:
300,329,99391,1,2,0:0:0:0:
211,301,99544,1,2,0:0:0:0:
166,195,99697,5,0,3:0:0:0:
104,279,99850,1,0,0:0:0:0:
103,288,100003,1,0,0:0:0:0:
94,288,100156,1,0,3:0:0:0:
94,278,100309,1,0,0:0:0:0:
66,375,100463,5,2,3:2:0:0:
50,207,100616,1,2,0:0:0:0:
35,41,100769,1,2,0:0:0:0:
140,114,100922,5,0,3:0:0:0:
152,110,101075,1,0,0:0:0:0:
143,100,101228,1,0,0:0:0:0:
152,110,101381,1,0,3:0:0:0:
140,114,101534,1,0,0:0:0:0:
323,35,101687,5,2,3:2:0:0:
406,68,101840,2,0,P|385:114|374:211,1,135.000005149842
428,277,102299,2,0,L|508:253,1,67.5000025749208,2|0,0:0|0:0,0:0:0:0:
331,269,102606,1,2,0:0:0:0:
294,356,102759,1,2,0:3:0:0:
294,356,102835,1,2,0:3:0:0:
294,356,102912,5,0,0:0:0:0:
384,343,103065,1,0,0:0:0:0:
267,208,103218,2,0,P|256:230|245:276,1,67.5000025749208,0|2,3:0|3:0,0:0:0:0:
154,365,103524,2,0,P|142:294|126:233,1,135.000005149842,0|0,3:0|3:0,0:0:0:0:
126,233,104136,5,0,3:0:0:0:
209,188,104289,2,0,L|224:108,1,67.5000025749208,0|0,3:0|0:0,0:0:0:0:
36,166,104595,1,2,3:0:0:0:
57,21,104748,2,0,P|33:70|21:178,1,135.000005149842,0|2,0:0|0:3,0:0:0:0:
156,61,105361,6,0,P|197:60|230:55,1,67.5000025749208,2|0,3:0|0:0,0:0:0:0:
330,104,105667,1,0,3:0:0:0:
310,181,105820,1,2,3:0:0:0:
408,38,105973,2,0,B|423:91|423:91|444:114|444:114|458:166,1,135.000005149842,0|2,3:0|3:0,0:0:0:0:
489,268,106585,5,0,3:0:0:0:
322,186,106738,2,0,P|311:237|314:279,1,67.5000025749208,2|0,3:0|0:0,0:0:0:0:
370,330,107044,1,0,3:0:0:0:
398,235,107197,5,2,3:0:0:0:
256,310,107350,1,0,0:0:0:0:
171,199,107503,1,2,3:0:0:0:
34,326,107657,1,2,3:0:0:0:
32,338,107733,1,2,3:0:0:0:
30,350,107810,6,0,B|109:336|94:383|187:363,1,135.000005149842,2|0,3:0|0:0,0:0:0:0:
236,220,108269,1,2,3:0:0:0:
271,305,108422,2,0,L|257:371,1,67.5000025749208,0|0,3:0|0:0,0:0:0:0:
113,251,108728,2,0,L|89:104,1,135.000005149842,2|0,3:0|0:0,0:0:0:0:
142,59,109187,5,2,3:0:0:0:
2,163,109340,1,0,0:0:0:0:
36,25,109493,1,0,3:0:0:0:
221,160,109646,2,0,P|266:169|275:248,1,135.000005149842,2|0,3:0|0:0,0:0:0:0:
151,245,110259,5,2,3:0:0:0:
266,360,110412,2,0,P|296:362|332:355,1,67.5000025749208
200,311,110718,1,2,3:0:0:0:
357,231,110871,2,0,P|388:263|439:352,1,135.000005149842,0|2,3:0|0:3,0:0:0:0:
434,340,111483,5,0,0:0:0:0:
462,200,111636,1,2,3:0:0:0:
302,318,111789,1,0,0:0:0:0:
347,192,111942,2,0,L|334:114,1,67.5000025749208,0|2,3:0|3:0,0:0:0:0:
446,82,112248,5,0,0:0:0:0:
328,93,112401,1,2,3:0:0:0:
210,104,112554,1,2,3:0:0:0:
211,97,112631,1,2,3:0:0:0:
212,90,112708,6,0,P|206:137|209:182,1,67.5000025749208,2|0,3:0|0:0,0:0:0:0:
82,262,113014,2,0,P|81:228|76:194,1,67.5000025749208,0|2,3:0|3:0,0:0:0:0:
9,72,113320,2,0,B|63:87|63:87|86:108|86:108|137:122,1,135.000005149842,0|2,0:0|3:0,0:0:0:0:
216,252,113932,6,0,P|271:246|291:240,1,67.5000025749208,0|2,3:0|3:0,0:0:0:0:
329,83,114238,2,0,P|306:133|301:153,1,67.5000025749208
438,211,114544,5,2,3:0:0:0:
419,124,114697,1,0,0:0:0:0:
335,349,114850,5,0,3:0:0:0:
354,262,115003,1,0,0:0:0:0:
454,336,115157,5,2,3:0:0:0:
337,182,115310,2,0,P|303:190|246:193,1,67.5000025749208
432,230,115616,1,2,3:0:0:0:
328,335,115769,2,0,P|262:326|196:338,1,135.000005149842,0|2,3:0|0:3,0:0:0:0:
51,204,116228,1,0,3:0:0:0:
51,204,116381,1,0,3:0:0:0:
256,192,116458,12,0,117452,0:0:0:0:
46,234,117606,6,0,B|8:198|8:198|150:186|150:186|161:179|161:179|170:184|170:184|365:167,1,405.000015449525,0|0,1:0|3:0,0:0:0:0:
440,212,118218,5,0,0:0:0:0:
440,212,118524,2,0,L|516:205,1,72,0|0,3:0|0:0,0:0:0:0:
451,133,118830,1,0,1:0:0:0:
377,270,118983,2,0,L|390:347,1,72
466,287,119289,1,2,3:0:0:0:
230,331,119442,6,0,B|244:352|244:352|274:279|202:249|232:157,1,215.999993408203,2|0,0:0|3:0,0:0:0:0:
505,126,119901,5,0,1:0:0:0:
505,126,119978,1,0,3:0:0:0:
505,126,120055,2,0,B|368:137|368:137|269:53|269:53|132:65,1,405.000015449525,0|2,1:0|3:0,0:0:0:0:
38,129,120667,5,0,3:0:0:0:
38,129,120973,2,0,L|21:52,1,72,0|0,3:0|0:0,0:0:0:0:
157,146,121279,1,0,1:0:0:0:
40,219,121432,1,2,0:0:0:0:
161,292,121585,1,0,0:0:0:0:
30,220,121738,1,2,3:0:0:0:
237,84,121891,2,0,B|266:123|266:123|249:214,1,135.000005149842,2|0,0:0|0:0,0:0:0:0:
8,373,122197,2,0,B|-11:347|-11:347|0:289,1,90,2|0,1:1|0:0,0:0:0:0:
93,167,122350,5,0,1:0:0:0:
84,212,122427,1,0,3:0:0:0:
75,258,122503,2,0,B|204:265|204:265|229:241|229:241|264:323|264:323|290:284|290:284|414:290,1,405.000015449525,0|2,1:0|3:0,0:0:0:0:
469,331,123116,6,0,P|482:284|471:254,1,72,2|0,0:0|0:0,0:0:0:0:
319,111,123422,2,0,P|306:158|317:188,1,72,2|0,3:0|0:0,0:0:0:0:
465,154,123728,1,0,1:0:0:0:
357,261,123881,2,0,L|266:273,1,72,2|0,0:0|0:0,0:0:0:0:
221,332,124187,1,2,3:0:0:0:
172,175,124340,6,0,B|113:156|113:156|64:226|64:226|-7:201,1,215.999993408203,2|0,3:1|3:0,0:0:0:0:
337,55,124799,5,0,1:0:0:0:
337,55,124876,1,0,3:0:0:0:
337,55,124952,2,0,B|270:21|270:21|285:271,1,323.999990112305,0|2,1:0|3:0,0:0:0:0:
429,162,125565,2,0,L|357:173,1,72,2|0,0:0|0:0,0:0:0:0:
356,370,125871,2,0,L|381:302,1,72,2|0,3:0|0:0,0:0:0:0:
212,202,126177,1,0,1:0:0:0:
270,273,126330,1,0,0:0:0:0:
156,119,126483,6,0,B|130:72|56:80|35:115|76:139,1,135.000005149842,2|0,0:0|0:0,0:0:0:0:
207,246,126789,2,0,L|212:192,1,45,0|0,3:0|0:0,0:0:0:0:
92,307,127095,2,0,B|78:330|42:326|31:309|52:297,1,67.5000025749208,2|0,0:0|0:0,0:0:0:0:
144,227,127248,1,2,3:0:0:0:
176,257,127324,1,2,3:0:0:0:
182,301,127401,5,0,1:0:0:0:
29,188,127555,2,0,P|50:142|108:148,1,90,2|0,0:0|0:0,0:0:0:0:
220,234,127861,1,2,3:0:0:0:
225,384,128014,2,0,B|177:349|177:349|172:295|178:245|196:235,1,180,2|0,0:0|3:0,0:0:0:0:
372,281,128473,1,0,0:0:0:0:
446,219,128626,5,0,1:0:0:0:
261,270,128779,1,0,0:0:0:0:
429,340,128932,1,2,0:0:0:0:
325,197,129085,1,2,3:0:0:0:
200,355,129238,2,0,B|169:320|170:275|170:275|137:344|31:334,1,215.999993408203,2|0,3:2|0:0,0:0:0:0:
21,137,129697,5,2,3:0:0:0:
21,137,129774,1,2,3:0:0:0:
21,137,129850,1,0,1:0:0:0:
134,34,130003,2,0,B|149:82|149:82|112:145,1,90,0|2,0:0|0:0,0:0:0:0:
46,19,130310,1,2,3:0:0:0:
97,218,130463,2,0,P|169:227|267:175,1,180,0|0,3:0|3:0,0:0:0:0:
232,37,131075,5,0,1:0:0:0:
274,194,131228,1,0,0:0:0:0:
421,63,131381,6,0,B|347:43|347:43|325:67,1,107.999996704102,2|2,0:0|3:0,0:0:0:0:
409,188,131687,2,0,B|430:211|430:211|504:191,1,107.999996704102,2|0,0:0|0:0,0:0:0:0:
295,145,131993,2,0,B|276:175|276:175|291:243,1,67.5000025749208,2|0,3:1|0:0,0:0:0:0:
501,340,132146,1,2,3:0:0:0:
507,292,132223,1,2,3:0:0:0:
477,255,132299,5,0,1:0:0:0:
403,372,132452,1,0,0:0:0:0:
327,145,132606,1,2,0:0:0:0:
398,358,132759,1,2,3:0:0:0:
491,167,132912,2,0,P|486:119|483:68,1,90
216,20,133218,2,0,P|213:65|209:109,1,90,2|0,0:0|0:0,0:0:0:0:
117,91,133524,5,0,1:0:0:0:
263,202,133677,1,0,3:0:0:0:
404,57,133830,1,2,0:0:0:0:
266,232,133983,1,2,3:0:0:0:
255,51,134136,6,0,B|215:17|215:17|230:171,1,202.500007724762,2|0,0:1|0:0,0:0:0:0:
240,245,134442,2,0,L|248:323,1,67.5000025749208,2|0,0:0|0:0,0:0:0:0:
476,241,134595,1,2,3:0:0:0:
482,173,134671,1,2,3:0:0:0:
488,105,134748,5,0,1:0:0:0:
426,15,134901,2,0,P|371:28|329:28,1,90,0|2,0:0|0:0,0:0:0:0:
197,165,135208,1,0,3:0:0:0:
339,127,135361,1,0,0:0:0:0:
299,269,135514,1,0,0:0:0:0:
48,207,135667,6,0,B|41:227|39:247|39:247|3:204|1:128|16:90,1,202.500007724762,2|0,0:1|0:0,0:0:0:0:
59,14,135973,1,0,1:0:0:0:
226,187,136126,1,2,0:0:0:0:
235,95,136279,1,0,0:0:0:0:
87,318,136432,1,2,3:0:0:0:
162,368,136585,2,0,P|206:346|251:343,1,90,2|0,0:0|0:0,0:0:0:0:
355,184,136891,6,0,B|326:199|291:173|290:149|312:134,1,90,2|0,1:1|0:0,0:0:0:0:
412,37,137044,1,2,0:3:0:0:
455,94,137121,1,2,0:3:0:0:
430,161,137197,1,2,1:3:0:0:
267,71,137350,1,0,0:0:0:0:
422,26,137503,5,2,0:0:0:0:
263,196,137657,1,0,3:0:0:0:
190,122,137810,1,0,0:0:0:0:
119,152,137963,1,0,0:0:0:0:
8,117,138116,1,2,3:2:0:0:
135,278,138269,1,0,0:0:0:0:
268,182,138422,5,0,1:0:0:0:
283,97,138575,2,0,L|193:114,1,90,2|0,0:0|0:0,0:0:0:0:
106,221,138881,1,2,3:0:0:0:
330,347,139034,6,0,B|266:352|266:352|243:313|243:313|144:323,1,202.500007724762,2|0,0:1|0:0,0:0:0:0:
94,371,139340,1,2,3:0:0:0:
13,231,139493,1,2,3:0:0:0:
10,190,139570,1,2,3:0:0:0:
37,160,139646,1,0,1:0:0:0:
153,276,139799,1,0,0:0:0:0:
242,84,139952,5,2,0:0:0:0:
309,274,140106,1,2,3:0:0:0:
239,321,140259,1,0,0:0:0:0:
306,131,140413,1,0,0:0:0:0:
412,360,140565,6,0,B|475:367|475:367|501:140,1,270.000010299683,2|0,3:1|1:0,0:0:0:0:
472,87,141024,1,2,0:0:0:0:
278,215,141177,5,0,0:0:0:0:
376,31,141330,1,2,3:0:0:0:
456,172,141483,2,0,L|438:267,1,90,2|0,0:0|0:0,0:0:0:0:
200,45,141789,6,0,B|173:58|173:58|182:133,1,80.9999975280763,2|0,0:1|0:0,0:0:0:0:
323,140,141942,1,2,3:3:0:0:
358,78,142019,1,2,3:3:0:0:
327,15,142095,1,0,1:0:0:0:
181,123,142248,1,0,0:0:0:0:
338,247,142401,5,2,0:0:0:0:
113,315,142555,1,2,3:0:0:0:
84,171,142708,1,0,0:0:0:0:
245,335,142861,1,0,0:0:0:0:
333,132,143014,2,0,L|310:30,1,90,2|0,3:2|0:0,0:0:0:0:
407,73,143320,5,0,1:0:0:0:
243,105,143473,1,2,0:0:0:0:
359,220,143626,1,0,0:0:0:0:
411,64,143779,1,0,3:0:0:0:
115,199,143932,6,0,B|34:210|34:210|19:71,1,202.500007724762,2|0,0:1|0:0,0:0:0:0:
15,22,144238,1,2,3:0:0:0:
237,106,144391,1,2,3:0:0:0:
267,166,144468,1,2,3:0:0:0:
240,227,144544,1,0,1:0:0:0:
127,198,144697,1,0,0:0:0:0:
179,50,144850,5,2,0:0:0:0:
35,186,145003,1,2,3:0:0:0:
74,255,145157,1,0,0:0:0:0:
17,355,145310,1,0,0:0:0:0:
163,193,145463,6,0,B|272:217|272:217|322:143|322:143|450:173,1,315.000003004074,2|0,3:1|1:0,0:0:0:0:
492,217,145922,1,0,3:0:0:0:
390,88,146075,1,2,0:0:0:0:
358,227,146228,1,2,3:0:0:0:
328,368,146381,1,0,0:0:0:0:
394,309,146534,1,0,0:0:0:0:
185,256,146687,6,0,B|120:270|120:270|125:302,1,90,2|0,0:1|0:0,0:0:0:0:
317,367,146840,1,2,3:3:0:0:
344,299,146917,1,2,3:3:0:0:
295,246,146993,1,0,1:0:0:0:
206,359,147146,1,0,0:0:0:0:
67,180,147299,5,2,0:0:0:0:
327,251,147452,1,2,3:0:0:0:
178,280,147606,1,0,0:0:0:0:
224,104,147759,1,0,0:0:0:0:
131,69,147912,1,2,3:2:0:0:
243,320,148065,1,0,0:0:0:0:
81,374,148218,5,0,1:0:0:0:
15,326,148371,2,0,P|26:274|30:218,1,90,2|0,0:0|0:0,0:0:0:0:
311,362,148677,1,2,3:0:0:0:
464,288,148830,6,0,B|499:257|511:188|489:151|445:130|404:164,1,202.500007724762,2|0,0:1|0:0,0:0:0:0:
382,232,149136,1,2,3:0:0:0:
248,129,149289,1,2,3:0:0:0:
250,61,149366,1,2,3:0:0:0:
307,25,149442,1,0,1:0:0:0:
407,118,149595,1,0,0:0:0:0:
430,44,149748,5,2,0:0:0:0:
188,200,149901,1,2,3:0:0:0:
213,77,150055,1,0,0:0:0:0:
309,230,150208,1,0,0:0:0:0:
64,44,150361,6,0,B|24:18|24:18|42:216,1,216,2|0,3:2|0:0,0:0:0:0:
47,258,150667,1,0,1:0:0:0:
164,59,150820,2,0,P|181:110|184:166,1,107.999996704102,2|0,0:0|0:0,0:0:0:0:
313,369,151126,1,2,0:0:0:0:
375,296,151279,2,0,P|377:228|404:145,1,144,2|0,0:0|0:0,0:0:0:0:
314,60,151585,1,2,0:0:0:0:
251,298,151738,1,0,1:0:0:0:
251,298,151815,1,0,0:0:0:0:
251,298,151891,5,4,1:2:0:0:
177,353,152044,2,0,P|125:337|67:343,1,107.999996704102,0|0,3:0|0:0,0:0:0:0:
192,364,152350,1,0,0:0:0:0:
35,229,152503,1,8,0:0:0:0:
246,112,152657,2,0,P|267:138|238:201,1,107.999996704102,2|0,1:2|0:0,0:0:0:0:
160,74,152963,1,0,0:0:0:0:
241,210,153116,5,0,1:0:0:0:
351,115,153269,1,2,0:0:0:0:
143,70,153422,1,2,0:0:0:0:
327,255,153575,2,0,P|320:280|306:305,1,53.9999983520508,0|0,1:0|1:0,0:0:0:0:
244,356,153728,1,8,0:0:0:0:
145,197,153881,2,0,L|153:306,1,107.999996704102,0|0,1:2|0:0,0:0:0:0:
59,39,154187,1,2,0:3:0:0:
59,39,154264,1,2,0:3:0:0:
59,39,154340,6,0,P|53:149|64:226,1,161.999995056153,0|0,1:0|0:0,0:0:0:0:
98,264,154646,1,0,1:0:0:0:
279,123,154799,1,2,0:0:0:0:
458,271,154952,1,8,0:0:0:0:
403,338,155106,2,0,P|332:342|300:313,1,107.999996704102,0|0,1:2|0:0,0:0:0:0:
335,201,155412,1,0,0:0:0:0:
194,122,155565,6,0,P|84:124|59:28,1,215.999993408203,0|0,1:0|0:0,0:0:0:0:
279,123,156024,1,0,1:0:0:0:
303,170,156100,1,0,1:0:0:0:
284,220,156177,1,8,0:0:0:0:
224,50,156330,1,2,0:0:0:0:
383,151,156483,1,2,0:0:0:0:
264,317,156636,1,2,3:0:0:0:
264,317,156713,1,2,3:0:0:0:
264,317,156789,5,0,1:0:0:0:
359,367,156942,2,0,P|367:288|381:237,1,107.999996704102,2|0,0:0|1:0,0:0:0:0:
281,149,157248,1,0,0:0:0:0:
499,267,157401,1,8,0:0:0:0:
393,37,157555,2,0,P|403:89|407:143,1,107.999996704102,0|0,1:0|0:0,0:0:0:0:
126,175,157861,1,0,0:0:0:0:
148,98,158014,6,0,B|242:88|242:88|271:26|271:26|386:14,1,270.000010299683,0|0,1:0|0:0,0:0:0:0:
32,26,158473,1,0,1:0:0:0:
32,26,158549,1,0,1:0:0:0:
32,26,158626,2,0,P|5:78|4:135,1,107.999996704102,10|0,0:2|3:0,0:0:0:0:
127,344,158932,1,2,0:0:0:0:
66,226,159085,1,2,3:0:0:0:
66,226,159162,1,2,3:0:0:0:
66,226,159238,6,0,B|181:239|132:169|266:194,1,202.500007724762,0|0,1:0|0:0,0:0:0:0:
301,253,159544,1,0,1:0:0:0:
124,120,159697,1,2,0:0:0:0:
164,47,159850,1,8,0:0:0:0:
25,25,160003,2,0,P|13:91|15:166,1,107.999996704102,0|0,1:0|0:0,0:0:0:0:
30,262,160310,1,0,0:0:0:0:
247,373,160463,5,0,1:0:0:0:
341,317,160616,2,0,P|370:244|365:184,1,107.999996704102,2|0,0:0|0:0,0:0:0:0:
129,167,160922,1,0,1:0:0:0:
100,212,160998,1,0,1:0:0:0:
119,262,161075,1,8,0:0:0:0:
259,141,161228,1,2,0:0:0:0:
229,59,161381,1,2,0:0:0:0:
506,111,161534,5,2,3:0:0:0:
506,111,161611,1,2,3:0:0:0:
506,111,161687,2,0,P|416:86|345:176,1,202.500007724762,0|0,1:0|0:0,0:0:0:0:
352,230,161993,1,0,1:0:0:0:
410,344,162146,1,2,0:0:0:0:
154,270,162299,1,8,0:0:0:0:
243,248,162452,2,0,P|241:328|248:358,1,107.999996704102,0|0,1:0|0:0,0:0:0:0:
126,181,162759,5,0,0:0:0:0:
37,203,162912,2,0,P|39:123|32:93,1,107.999996704102,0|0,1:0|0:0,0:0:0:0:
219,132,163218,1,2,0:0:0:0:
126,348,163371,1,0,1:0:0:0:
74,332,163447,1,0,1:0:0:0:
76,277,163524,1,8,0:0:0:0:
336,311,163677,2,0,P|291:372|239:356,1,107.999996704102,2|0,1:2|0:0,0:0:0:0:
299,189,163983,1,2,3:0:0:0:
323,177,164060,1,2,3:0:0:0:
349,181,164136,6,0,B|403:194|403:194|419:191|419:191|463:202,1,107.999996704102,0|0,1:0|0:0,0:0:0:0:
168,272,164442,2,0,B|132:280|132:280|116:277|116:277|62:290,1,107.999996704102,0|0,1:0|0:0,0:0:0:0:
171,165,164748,1,8,0:0:0:0:
337,284,164901,2,0,P|347:343|322:389,1,107.999996704102,0|0,1:0|0:0,0:0:0:0:
266,223,165208,1,0,0:0:0:0:
26,384,165361,6,0,B|45:271|45:271|1:211|1:211|19:94,1,288,0|0,1:0|0:0,0:0:0:0:
231,37,165820,1,0,1:0:0:0:
250,87,165896,1,0,1:0:0:0:
219,132,165973,1,8,0:0:0:0:
123,46,166126,1,2,3:2:0:0:
310,151,166279,1,2,3:2:0:0:
475,12,166432,1,2,3:0:0:0:
475,12,166509,1,2,3:0:0:0:
475,12,166585,6,0,P|448:68|469:108,1,107.999996704102,0|0,1:0|0:0,0:0:0:0:
306,251,166891,2,0,P|333:195|312:155,1,107.999996704102,0|0,1:0|0:0,0:0:0:0:
455,214,167197,1,8,0:0:0:0:
304,48,167350,2,0,L|151:84,1,107.999996704102,0|0,1:0|0:0,0:0:0:0:
150,151,167657,1,2,0:0:0:0:
27,67,167810,5,0,1:0:0:0:
242,214,167963,2,0,P|247:275|206:316,1,107.999996704102,2|0,0:0|0:0,0:0:0:0:
293,116,168269,1,0,1:0:0:0:
341,135,168345,1,0,1:0:0:0:
364,183,168422,1,8,0:0:0:0:
233,233,168575,1,0,1:0:0:0:
199,56,168728,1,2,0:0:0:0:
35,245,168881,1,2,3:0:0:0:
38,299,168958,1,2,3:0:0:0:
42,352,169034,6,0,B|112:355|112:355|153:310|153:310|241:327,1,202.500007724762,0|0,1:0|0:0,0:0:0:0:
278,377,169340,1,0,1:0:0:0:
329,276,169493,1,0,0:0:0:0:
131,132,169646,2,0,P|118:184|131:244,1,107.999996704102,8|0,0:0|1:0,0:0:0:0:
324,104,169952,2,0,P|337:52|324:-8,1,107.999996704102,2|0,0:0|0:0,0:0:0:0:
509,216,170259,6,0,P|426:199|330:317,1,215.999993408203,0|0,1:0|0:0,0:0:0:0:
174,253,170718,1,0,1:0:0:0:
153,302,170794,1,0,1:0:0:0:
178,349,170871,1,8,0:0:0:0:
262,232,171024,1,2,3:2:0:0:
142,140,171177,1,2,3:0:0:0:
294,16,171330,1,2,3:0:0:0:
294,16,171407,1,2,3:0:0:0:
294,16,171483,6,0,B|253:54|253:54|124:36,1,161.999995056153,0|0,1:0|0:0,0:0:0:0:
71,25,171789,1,0,1:0:0:0:
186,152,171942,1,0,0:0:0:0:
33,243,172095,1,8,0:0:0:0:
207,149,172248,2,0,P|216:248|217:277,1,107.999996704102,0|0,1:0|0:0,0:0:0:0:
397,133,172555,5,2,0:0:0:0:
459,186,172708,2,0,P|450:285|449:314,2,107.999996704102,0|0|0,1:0|0:0|0:0,0:0:0:0:
487,98,173167,1,0,1:0:0:0:
504,58,173243,1,0,1:0:0:0:
484,19,173320,1,8,0:0:0:0:
373,68,173473,1,0,1:0:0:0:
259,20,173626,1,2,0:0:0:0:
392,166,173779,1,2,3:0:0:0:
392,166,173856,1,2,3:0:0:0:
392,166,173932,6,0,P|386:237|257:252,1,198.000006042481,0|0,1:0|1:0,0:0:0:0:
226,209,174391,1,2,0:0:0:0:
154,351,174544,1,8,0:0:0:0:
51,182,174697,2,0,L|68:58,1,99.0000030212403,0|0,1:0|0:0,0:0:0:0:
233,205,175003,1,2,0:0:0:0:
154,361,175156,1,0,1:0:0:0:
248,321,175310,1,0,0:0:0:0:
139,163,175463,1,2,0:0:0:0:
64,351,175616,1,0,1:0:0:0:
257,176,175769,2,0,P|255:126|235:81,1,99.0000030212403,8|0,0:0|3:0,0:0:0:0:
390,257,176075,1,0,3:0:0:0:
454,185,176228,1,2,3:0:0:0:
454,185,176305,1,2,3:0:0:0:
454,185,176381,6,0,B|462:114|462:114|459:110|459:110|467:37,2,135.000005149842,0|0|0,1:0|0:0|1:0,0:0:0:0:
366,134,176840,1,2,0:0:0:0:
323,362,176993,1,8,0:0:0:0:
257,217,177146,2,0,L|246:151,1,67.5000025749208,0|0,1:0|0:0,0:0:0:0:
245,150,177452,6,0,B|263:178|263:178|256:244,1,67.5000025749208,8|0,0:0|0:0,0:0:0:0:
196,353,177606,1,0,1:0:0:0:
125,220,177759,6,0,B|113:238|113:238|105:318,1,80.9999975280763,2|0,0:0|0:0,0:0:0:0:
116,216,178065,6,0,B|104:234|104:234|96:314,1,80.9999975280763,2|0,1:2|1:0,0:0:0:0:
90,373,178218,1,2,1:2:0:0:
107,212,178371,6,0,B|95:230|95:230|87:310,1,80.9999975280763,2|0,0:0|0:0,0:0:0:0:
37,120,178677,1,2,0:0:0:0:
37,120,178753,1,2,0:0:0:0:
37,120,178830,6,0,B|82:113|82:113|111:118|111:118|181:107,2,135.000005149842,0|0|0,1:0|0:0|1:0,0:0:0:0:
118,38,179289,1,2,0:0:0:0:
37,210,179442,1,8,0:0:0:0:
238,292,179595,2,0,L|305:267,1,67.5000025749208,0|0,1:0|0:0,0:0:0:0:
74,350,179901,5,8,0:0:0:0:
238,292,180208,6,0,L|326:259,1,80.9999975280763,0|0,1:0|0:0,0:0:0:0:
246,297,180514,6,0,L|334:264,1,80.9999975280763,0|0,1:0|1:0,0:0:0:0:
364,243,180667,6,0,B|318:239|318:239|316:235|316:235|313:239|313:239|231:234,2,135.000005149842,2|2|2,1:2|0:0|0:0,0:0:0:0:
493,384,181126,1,2,0:0:0:0:
493,384,181202,1,2,0:0:0:0:
493,384,181279,6,0,B|475:349|475:349|486:244,2,135.000005149842,0|0|0,1:0|0:0|1:0,0:0:0:0:
476,145,181738,1,2,0:0:0:0:
338,348,181891,1,8,0:0:0:0:
225,158,182044,2,0,L|214:239,1,67.5000025749208,0|0,1:0|0:0,0:0:0:0:
215,224,182350,6,0,B|214:196|214:196|226:157,1,67.5000025749208,8|0,0:0|0:0,0:0:0:0:
321,94,182503,1,0,1:0:0:0:
169,57,182657,6,0,L|54:74,1,80.9999975280763,2|0,0:0|0:0,0:0:0:0:
165,66,182963,6,0,L|50:83,1,80.9999975280763,2|0,1:2|1:0,0:0:0:0:
2,93,183116,1,2,1:2:0:0:
161,75,183269,6,0,L|46:92,1,80.9999975280763,2|0,0:0|0:0,0:0:0:0:
246,17,183575,1,2,0:0:0:0:
246,17,183651,1,2,0:0:0:0:
246,17,183728,6,0,B|275:57|275:57|244:219,1,202.500007724762,0|0,1:0|0:0,0:0:0:0:
224,283,184034,1,0,1:0:0:0:
165,221,184187,1,2,0:0:0:0:
200,366,184340,1,8,0:0:0:0:
309,264,184493,2,0,P|301:207|249:177,1,90,0|0,1:0|0:0,0:0:0:0:
35,294,184799,1,8,0:0:0:0:
35,294,185106,6,0,B|32:246|32:246|44:209,1,80.9999975280763,2|0,1:2|0:0,0:0:0:0:
25,299,185412,6,0,B|22:251|22:251|34:214,1,80.9999975280763,2|0,1:2|1:0,0:0:0:0:
22,195,185565,6,0,B|60:213|60:213|196:199,2,161.999995056153,2|2|2,1:2|0:0|0:0,0:0:0:0:
279,358,186024,1,2,0:0:0:0:
279,358,186100,1,2,0:0:0:0:
279,358,186177,6,0,B|290:295|290:295|277:264|277:264|285:214,2,135.000005149842,0|0|0,1:0|0:0|1:0,0:0:0:0:
302,152,186636,1,2,0:0:0:0:
379,322,186789,1,8,0:0:0:0:
511,177,186942,2,0,L|497:107,1,67.5000025749208,0|0,1:0|0:0,0:0:0:0:
497,110,187248,6,0,B|515:135|515:135|512:181,1,67.5000025749208,8|0,0:0|0:0,0:0:0:0:
484,359,187401,1,0,1:0:0:0:
359,261,187555,6,0,L|442:269,1,80.9999975280763,2|0,0:0|0:0,0:0:0:0:
353,271,187861,6,0,L|436:279,1,80.9999975280763,2|0,1:2|1:0,0:0:0:0:
512,287,188014,1,0,1:0:0:0:
347,281,188167,6,0,L|430:289,1,80.9999975280763,2|0,0:0|0:0,0:0:0:0:
326,46,188473,1,2,0:0:0:0:
326,46,188549,1,2,0:0:0:0:
326,46,188626,6,0,L|161:66,2,135.000005149842,0|0|0,1:0|0:0|1:0,0:0:0:0:
353,163,189085,1,2,0:0:0:0:
409,6,189238,1,8,0:0:0:0:
475,177,189391,2,0,L|466:246,1,67.5000025749208,0|0,1:0|0:0,0:0:0:0:
466,243,189697,6,0,B|476:218|476:218|472:171,1,67.5000025749208,8|0,0:0|0:0,0:0:0:0:
244,200,190003,6,0,L|237:301,1,80.9999975280763,2|0,1:2|0:0,0:0:0:0:
251,205,190310,6,0,L|244:306,1,80.9999975280763,0|0,1:2|1:0,0:0:0:0:
249,318,190463,6,0,B|243:260|243:260|258:240|258:240|250:154,2,161.999995056153,2|2|2,1:2|0:0|0:0,0:0:0:0:
98,382,190922,1,2,0:0:0:0:
98,382,190998,1,2,0:0:0:0:
98,382,191075,6,0,B|77:357|77:357|72:230,2,135.000005149842,0|0|0,1:0|0:0|1:0,0:0:0:0:
185,294,191534,1,2,0:0:0:0:
27,179,191687,1,8,0:0:0:0:
192,50,191840,2,0,L|287:52,1,67.5000025749208,0|0,1:0|0:0,0:0:0:0:
259,51,192146,6,0,B|219:37|219:37|179:54,1,67.5000025749208,8|0,0:0|0:0,0:0:0:0:
144,192,192299,1,0,1:0:0:0:
338,172,192452,6,0,P|349:136|353:89,1,80.9999975280763,2|0,0:0|0:0,0:0:0:0:
345,177,192759,6,0,P|356:141|360:94,1,80.9999975280763,2|0,1:2|1:0,0:0:0:0:
347,12,192912,1,0,1:0:0:0:
352,182,193065,6,0,P|363:146|367:99,1,80.9999975280763,2|0,0:0|0:0,0:0:0:0:
126,26,193371,1,2,0:0:0:0:
126,26,193447,1,2,0:0:0:0:
126,26,193524,6,0,B|123:88|123:88|127:98|127:98|122:171,2,135.000005149842,0|0|0,1:0|0:0|1:0,0:0:0:0:
41,120,193983,1,2,0:0:0:0:
286,68,194136,1,8,0:0:0:0:
41,120,194289,2,0,L|44:204,1,67.5000025749208,0|0,1:0|0:0,0:0:0:0:
43,187,194595,6,0,B|36:157|36:157|41:113,1,67.5000025749208,8|0,0:0|0:0,0:0:0:0:
193,214,194901,6,0,L|187:299,1,80.9999975280763,0|0,1:0|0:0,0:0:0:0:
201,220,195208,6,0,L|195:305,1,80.9999975280763,0|0,1:0|1:0,0:0:0:0:
184,376,195361,1,2,1:2:0:0:
132,157,195514,5,2,0:0:0:0:
37,312,195667,1,2,0:0:0:0:
273,352,195820,1,2,0:0:0:0:
321,346,195896,1,2,0:0:0:0:
369,341,195973,1,0,1:0:0:0:
256,192,204544,12,0,205616,0:0:0:0:
174,37,205769,5,4,1:0:0:0:
393,224,205922,1,0,0:0:0:0:
163,304,206075,1,0,1:0:0:0:
250,190,206228,1,0,0:0:0:0:
317,332,206381,2,0,B|272:375|272:375|298:187,1,242.999992584229,12|0,0:0|0:0,0:0:0:0:
309,126,206687,1,0,0:0:0:0:
259,41,206840,5,0,3:0:0:0:
259,41,206917,1,0,3:0:0:0:
259,41,206993,2,0,L|101:56,1,143.999995605469,2|0,3:2|0:0,0:0:0:0:
37,64,207299,1,0,1:0:0:0:
0,212,207452,1,4,0:0:0:0:
110,326,207606,6,0,P|126:270|126:242,1,71.9999978027344,2|2,0:3|0:3,0:0:0:0:
31,143,207810,5,2,0:3:0:0:
2,212,207912,6,0,P|6:247|18:281,1,71.9999978027344,2|2,0:3|0:3,0:0:0:0:
162,384,208116,5,2,0:3:0:0:
237,353,208218,6,0,B|317:357|317:357|351:305|351:305|428:310,1,202.500007724762,4|0,1:2|0:0,0:0:0:0:
428,306,208524,2,0,P|440:345|414:359,1,67.5000025749208,0|0,1:0|0:0,0:0:0:0:
261,153,208677,2,0,B|277:116|277:116|250:30|250:30|266:-20,1,161.999995056153,2|8,0:0|0:0,0:0:0:0:
436,46,208983,1,0,3:0:0:0:
382,128,209136,6,0,L|491:116,1,107.999996704102,8|4,3:0|0:0,0:0:0:0:
462,224,209595,2,0,L|417:218,4,33.7500012874604,0|0|0|2|2,3:0|3:0|3:0|3:0|3:0,0:0:0:0:
356,186,209901,1,8,0:3:0:0:
283,213,210055,1,4,0:3:0:0:
222,168,210208,1,8,0:3:0:0:
280,231,210361,2,0,P|285:278|280:326,1,96,2|0,0:3|0:0,0:0:0:0:
259,353,210667,5,4,1:0:0:0:
114,287,210820,1,0,0:0:0:0:
259,334,210973,5,0,1:0:0:0:
391,188,211126,1,0,0:0:0:0:
195,17,211279,2,0,L|179:151,1,125.999996154785,8|0,0:0|0:0,0:0:0:0:
455,72,211585,5,4,0:0:0:0:
398,24,211687,5,2,3:0:0:0:
325,27,211789,5,2,3:0:0:0:
273,79,211891,6,0,L|285:173,1,90.0000034332277,4|0,3:0|0:0,0:0:0:0:
192,371,212095,6,0,L|203:277,1,90.0000034332277,10|0,3:0|0:0,0:0:0:0:
79,61,212299,6,0,L|90:154,1,90.0000034332277,4|0,3:0|0:0,0:0:0:0:
102,232,212503,5,8,0:3:0:0:
166,198,212605,5,8,0:3:0:0:
234,224,212707,5,8,0:3:0:0:
259,292,212809,5,4,0:3:0:0:
323,325,212912,5,4,0:3:0:0:
391,299,213014,5,4,0:3:0:0:
416,231,213116,6,0,P|402:101|409:20,1,202.500007724762,4|0,1:0|0:0,0:0:0:0:
462,7,213422,2,0,L|377:21,1,67.5000025749208,0|0,1:0|0:0,0:0:0:0:
292,162,213575,2,0,L|207:176,1,67.5000025749208,2|0,0:0|0:0,0:0:0:0:
165,79,213728,2,0,P|198:134|204:173,1,90,8|0,0:0|0:0,0:0:0:0:
77,229,214034,2,0,L|43:227,8,22.5,0|2|0|0|0|0|0|0|0,3:0|3:0|3:0|3:0|3:0|0:0|0:0|0:0|0:0,0:0:0:0:
118,146,214493,5,8,0:0:0:0:
169,358,214646,1,8,0:0:0:0:
299,215,214799,1,0,0:0:0:0:
144,258,214952,5,2,0:3:0:0:
56,232,215106,1,0,1:0:0:0:
185,101,215259,5,8,0:3:0:0:
273,75,215413,1,4,0:3:0:0:
369,154,215565,6,0,B|399:182|399:182|505:167,1,144,0|0,1:0|1:0,0:0:0:0:
440,16,216024,2,0,L|428:90,1,72,2|8,0:0|0:0,0:0:0:0:
477,317,216330,2,0,L|465:243,1,72,0|0,3:0|0:0,0:0:0:0:
375,342,216636,5,2,3:0:0:0:
313,304,216789,1,0,3:0:0:0:
263,356,216942,1,2,3:0:0:0:
195,273,217095,2,0,P|191:240|198:196,1,72,0|0,1:0|0:0,0:0:0:0:
354,152,217401,6,0,P|350:216|278:232,1,144,8|0,0:0|0:0,0:0:0:0:
207,192,217861,1,0,3:0:0:0:
63,370,218014,6,0,P|60:323|34:219,1,144,0|0,1:0|1:0,0:0:0:0:
5,8,218473,2,0,B|-5:38|-5:38|0:77,1,72,2|8,0:0|0:0,0:0:0:0:
134,183,218779,2,0,B|139:144|139:144|127:109,1,72,0|0,1:0|0:0,0:0:0:0:
83,47,219085,1,2,3:0:0:0:
215,183,219238,6,0,B|297:211|284:133|369:154,1,144,2|0,0:0|1:0,0:0:0:0:
400,27,219697,2,0,P|398:70|406:103,1,72,0|8,1:0|0:0,0:0:0:0:
507,202,220003,2,0,P|513:166|511:130,1,72,0|0,1:0|0:0,0:0:0:0:
416,173,220310,1,2,3:0:0:0:
506,297,220463,6,0,B|454:286|454:286|425:331|425:331|339:329,1,180,0|0,1:0|1:0,0:0:0:0:
268,300,220922,2,0,L|263:379,1,72,2|8,0:0|0:0,0:0:0:0:
371,164,221228,2,0,L|366:85,1,72
384,178,221534,1,0,3:0:0:0:
236,210,221687,5,2,0:0:0:0:
166,192,221840,1,2,3:2:0:0:
127,253,221993,1,0,1:0:0:0:
174,308,222146,1,0,0:0:0:0:
113,253,222299,6,0,P|67:250|31:255,1,72,8|0,0:0|0:0,0:0:0:0:
159,106,222606,2,0,P|194:109|230:106,1,72,2|0,0:0|0:0,0:0:0:0:
260,33,222912,6,0,B|342:24|323:67|407:55,1,144,0|0,1:0|1:0,0:0:0:0:
485,53,223371,2,0,L|381:70,1,72,2|8,0:0|0:0,0:0:0:0:
250,18,223677,2,0,L|146:1,1,72
110,42,223983,1,2,3:0:0:0:
256,192,224136,5,2,0:0:0:0:
256,192,224213,12,0,225208,0:0:0:0:
163,287,225361,5,4,1:0:0:0:
382,100,225514,1,0,0:0:0:0:
152,20,225667,1,0,1:0:0:0:
239,134,225820,1,0,0:0:0:0:
31,276,225973,2,0,B|226:222|140:396|324:352,1,323.999990112305,12|0,0:0|0:0,0:0:0:0:
468,366,226432,5,0,3:0:0:0:
468,366,226509,1,0,3:0:0:0:
468,366,226585,2,0,L|478:218,1,143.999995605469,4|0,3:2|0:0,0:0:0:0:
483,147,226891,1,0,1:0:0:0:
328,266,227044,1,4,0:0:0:0:
487,104,227197,5,2,3:3:0:0:
443,40,227299,5,2,3:3:0:0:
367,29,227401,5,2,3:3:0:0:
307,77,227503,5,2,3:3:0:0:
262,139,227606,5,2,3:3:0:0:
186,151,227708,5,2,3:3:0:0:
126,102,227810,5,0,1:0:0:0:
34,170,227963,2,0,P|45:232|47:277,1,107.999996704102,0|0,0:0|1:0,0:0:0:0:
186,369,228269,1,0,0:0:0:0:
186,369,228422,2,0,P|191:261|219:182,1,161.999995056153,8|0,0:0|0:0,0:0:0:0:
205,181,228728,6,0,P|267:179|228:132,1,144,8|4,3:0|0:0,0:0:0:0:
154,88,229187,2,0,L|123:93,4,26.9999991760254,2|0|0|0|8,3:0|3:0|3:0|3:0|3:2,0:0:0:0:
248,37,229493,1,0,3:0:0:0:
340,85,229646,1,4,3:0:0:0:
411,50,229799,1,8,3:0:0:0:
492,107,229952,2,0,P|463:144|448:207,1,96,2|0,0:3|0:0,0:0:0:0:
468,209,230259,5,4,1:0:0:0:
229,125,230412,1,0,0:0:0:0:
181,259,230565,5,0,1:0:0:0:
62,302,230718,1,0,0:0:0:0:
276,367,230871,2,0,P|283:310|276:265,1,90,8|0,0:0|0:0,0:0:0:0:
86,60,231177,5,4,0:0:0:0:
63,126,231279,5,2,0:3:0:0:
111,178,231381,5,2,0:3:0:0:
179,163,231483,6,0,P|188:113|186:92,1,60,4|0,3:0|0:0,0:0:0:0:
266,10,231687,6,0,P|266:39|274:68,1,60,10|0,0:3|0:0,0:0:0:0:
425,46,231891,6,0,L|350:34,1,60,4|0,0:3|0:0,0:0:0:0:
285,87,232095,5,8,3:0:0:0:
309,160,232197,5,8,3:0:0:0:
295,236,232299,5,8,3:0:0:0:
280,310,232401,5,4,3:0:0:0:
325,371,232503,5,4,3:0:0:0:
401,378,232605,5,4,3:0:0:0:
457,327,232708,6,0,L|469:189,1,115.2,4|0,1:0|0:0,0:0:0:0:
244,31,233014,2,0,L|232:169,1,115.2,0|0,1:0|0:0,0:0:0:0:
475,83,233320,2,0,B|423:56|423:56|363:80,1,115.2,8|0,0:0|0:0,0:0:0:0:
187,261,233626,2,0,L|151:265,8,28.8,2|2|2|2|2|0|0|0|2,3:0|3:0|3:0|3:0|3:0|3:0|3:0|3:0|3:0,0:0:0:0:
104,132,234085,5,2,3:3:0:0:
201,360,234238,1,2,3:3:0:0:
263,242,234391,1,0,3:0:0:0:
414,133,234544,5,8,3:0:0:0:
352,15,234697,1,0,3:0:0:0:
276,107,234850,5,4,3:0:0:0:
63,195,235003,1,4,3:0:0:0:
143,27,235157,6,0,P|167:89|168:137,1,115.2,4|0,1:0|0:0,0:0:0:0:
24,384,235463,2,0,P|0:322|-1:274,1,115.2,0|0,1:0|0:0,0:0:0:0:
381,315,235769,2,0,B|257:263|284:387|131:327,1,261.000007965088,12|0,0:0|0:0,0:0:0:0:
46,98,236228,5,0,3:0:0:0:
46,98,236305,1,0,3:0:0:0:
46,98,236381,2,0,B|111:50|111:50|181:90,1,143.999995605469,4|0,3:2|3:0,0:0:0:0:
116,141,236687,1,0,1:0:0:0:
130,339,236840,1,4,0:0:0:0:
269,194,236993,5,2,3:3:0:0:
342,151,237095,5,2,3:3:0:0:
425,163,237197,5,2,3:3:0:0:
483,225,237300,5,2,3:3:0:0:
408,182,237402,5,2,3:3:0:0:
377,103,237504,5,2,3:3:0:0:
402,23,237606,6,0,P|335:2|272:13,1,107.999996704102,4|0,1:0|0:0,0:0:0:0:
168,68,237912,1,0,1:0:0:0:
387,112,238065,1,2,0:0:0:0:
72,12,238218,2,0,L|59:128,1,107.999996704102,8|0,0:0|0:0,0:0:0:0:
268,352,238524,6,0,L|281:236,1,107.999996704102,8|0,0:3|0:0,0:0:0:0:
302,82,238983,2,0,L|306:40,4,33.7500012874604,2|2|2|2|2,3:0|3:0|3:0|3:0|3:0,0:0:0:0:
195,44,239289,5,8,3:3:0:0:
385,93,239442,1,4,3:0:0:0:
482,189,239595,5,0,3:0:0:0:
293,241,239748,1,2,3:3:0:0:
95,59,239901,5,0,3:0:0:0:
193,20,240055,2,0,P|183:96|179:151,1,115.2,4|0,1:0|0:0,0:0:0:0:
63,369,240361,2,0,P|57:311|49:254,1,115.2,0|0,1:0|0:0,0:0:0:0:
37,147,240667,1,8,0:0:0:0:
207,287,240820,1,0,0:0:0:0:
351,235,240973,6,0,B|360:193|360:193|343:141,1,76.8,4|2,0:0|3:0,0:0:0:0:
287,70,241177,5,2,3:0:0:0:
230,132,241279,6,0,P|202:82|201:43,1,76.8,4|0,3:0|3:0,0:0:0:0:
346,12,241483,6,0,P|367:43|376:80,1,76.8,10|0,3:0|0:0,0:0:0:0:
288,215,241687,6,0,P|316:165|317:126,1,76.8,4|0,3:0|0:0,0:0:0:0:
99,15,241891,5,8,3:0:0:0:
26,52,241993,5,8,3:0:0:0:
10,132,242095,5,8,3:0:0:0:
63,194,242197,5,4,3:0:0:0:
135,231,242299,5,4,3:0:0:0:
151,311,242401,5,4,3:0:0:0:
98,373,242503,6,0,P|47:328|43:262,1,115.2,4|0,1:0|0:0,0:0:0:0:
112,80,242810,1,0,1:0:0:0:
167,308,242963,1,0,0:0:0:0:
288,94,243116,1,8,0:0:0:0:
354,230,243269,1,0,3:0:0:0:
480,63,243422,6,0,L|476:21,8,28.8,2|2|2|2|2|0|0|0|2,3:0|3:0|3:0|3:0|3:0|3:0|3:0|3:0|3:0,0:0:0:0:
401,12,243881,5,2,3:0:0:0:
250,254,244034,2,0,P|250:311|255:369,1,115.2,2|0,0:3|0:0,0:0:0:0:
271,127,244340,5,0,3:0:0:0:
419,199,244493,1,8,3:0:0:0:
213,239,244646,5,4,3:0:0:0:
65,301,244799,1,4,3:0:0:0:
279,361,244952,6,0,B|351:373|335:324|415:338,1,135.000005149842,4|0,1:0|1:0,0:0:0:0:
475,372,245412,1,0,0:0:0:0:
506,299,245565,2,0,P|508:261|512:231,1,67.5000025749208,8|0,0:0|0:0,0:0:0:0:
329,299,245871,2,0,P|360:319|384:338,1,67.5000025749208,2|2,0:0|3:0,0:0:0:0:
419,167,246177,2,0,P|385:184|357:195,1,67.5000025749208,0|2,3:0|3:0,0:0:0:0:
301,48,246483,5,0,1:0:0:0:
145,141,246636,1,2,0:0:0:0:
270,217,246789,2,0,P|311:223|352:215,1,67.5000025749208,0|0,0:0|1:0,0:0:0:0:
377,146,247095,1,2,0:0:0:0:
303,309,247248,1,2,3:0:0:0:
213,55,247401,5,0,1:0:0:0:
213,55,247708,2,0,L|139:66,1,67.5000025749208,0|0,1:0|0:0,0:0:0:0:
67,28,248014,2,0,P|65:82|42:172,1,135.000005149842,8|0,0:0|0:0,0:0:0:0:
9,245,248473,1,2,3:0:0:0:
118,221,248626,1,0,3:0:0:0:
183,284,248779,1,2,3:0:0:0:
276,237,248932,2,0,P|279:199|272:157,1,67.5000025749208,0|0,1:0|0:0,0:0:0:0:
96,300,249238,2,0,P|93:338|100:380,1,67.5000025749208,8|0,0:0|1:0,0:0:0:0:
254,335,249544,1,2,0:0:0:0:
354,349,249697,1,2,0:0:0:0:
454,363,249850,6,0,P|451:286|456:251,1,101.250003862381,0|0,1:0|0:0,0:0:0:0:
464,251,250157,2,0,L|456:174,1,67.5000025749208,0|0,1:0|0:0,0:0:0:0:
380,123,250463,2,0,L|372:200,1,67.5000025749208,8|0,0:0|0:0,0:0:0:0:
329,257,250769,2,0,B|254:243|277:298|180:284,1,135.000005149842,2|0,0:0|3:0,0:0:0:0:
124,308,251228,1,2,3:0:0:0:
99,123,251381,1,0,1:0:0:0:
26,117,251534,1,0,0:0:0:0:
108,111,251687,2,0,P|150:114|190:115,1,67.5000025749208,8|0,0:0|1:0,0:0:0:0:
242,147,251993,1,2,0:0:0:0:
310,118,252146,1,2,3:0:0:0:
434,192,252299,5,0,1:0:0:0:
405,267,252452,1,0,0:0:0:0:
330,238,252606,1,2,1:2:0:0:
359,163,252759,1,0,0:0:0:0:
242,100,252912,5,8,0:0:0:0:
270,173,253065,1,0,1:0:0:0:
346,146,253219,1,2,0:0:0:0:
317,71,253372,1,0,0:0:0:0:
156,267,253524,5,2,3:2:0:0:
68,219,253677,1,0,0:0:0:0:
116,131,253830,1,0,1:0:0:0:
204,179,253983,1,0,0:0:0:0:
21,292,254136,6,0,P|19:344|19:362,1,67.5000025749208,8|2,0:0|0:0,0:0:0:0:
68,219,254442,1,0,3:0:0:0:
153,369,254595,1,2,3:0:0:0:
228,257,254748,6,0,P|231:218|235:178,1,72,0|0,1:0|0:0,0:0:0:0:
61,205,255055,2,0,P|93:227|125:250,1,72,0|0,1:0|0:0,0:0:0:0:
189,86,255361,2,0,P|153:102|117:119,1,72,2|0,3:0|0:0,0:0:0:0:
404,37,255667,1,2,3:2:0:0:
358,137,255820,1,2,3:0:0:0:
441,208,255973,2,0,L|519:195,1,72,0|0,3:0|3:0,0:0:0:0:
496,296,256279,2,0,P|435:302|395:371,1,144,0|8,1:0|0:0,0:0:0:0:
395,368,256891,2,0,L|324:354,1,72,2|0,3:0|3:0,0:0:0:0:
231,248,257197,6,0,P|218:305|216:327,1,72,0|0,1:0|0:0,0:0:0:0:
254,380,257503,1,0,1:0:0:0:
123,268,257657,1,0,0:0:0:0:
323,213,257810,2,0,L|316:289,1,72,8|0,0:0|1:0,0:0:0:0:
163,175,258116,2,0,L|156:99,1,72,0|2,0:0|3:0,0:0:0:0:
292,160,258422,1,0,3:0:0:0:
236,100,258575,1,2,3:0:0:0:
297,0,258728,5,0,1:0:0:0:
220,114,258881,1,0,0:0:0:0:
319,229,259034,1,8,0:0:0:0:
246,357,259187,1,0,1:0:0:0:
125,225,259340,1,0,3:0:0:0:
43,217,259493,1,2,3:0:0:0:
115,205,259646,6,0,P|184:207|227:231,1,108,0|0,1:0|0:0,0:0:0:0:
222,235,259952,2,0,B|257:246|257:246|296:234,1,72,0|0,1:0|0:0,0:0:0:0:
374,267,260259,2,0,L|362:178,1,72,8|0,0:0|0:0,0:0:0:0:
336,104,260565,1,0,3:0:0:0:
356,175,260718,1,2,3:0:0:0:
433,82,260871,2,0,P|431:43|425:9,1,72,0|2,3:0|3:0,0:0:0:0:
322,77,261177,1,0,1:0:0:0:
466,161,261330,1,0,0:0:0:0:
284,239,261483,2,0,L|196:232,1,72,8|0,0:0|0:0,0:0:0:0:
153,166,261789,1,0,3:0:0:0:
142,282,261942,1,2,3:0:0:0:
288,142,262095,5,0,1:0:0:0:
301,63,262248,1,0,0:0:0:0:
222,50,262401,1,2,1:2:0:0:
209,129,262555,1,0,0:0:0:0:
380,145,262708,5,8,0:0:0:0:
393,224,262861,1,0,1:2:0:0:
314,237,263014,1,2,0:0:0:0:
301,158,263168,1,2,3:0:0:0:
404,233,263320,5,0,3:0:0:0:
236,106,263473,1,2,3:0:0:0:
256,253,263626,1,0,1:0:0:0:
383,85,263779,1,0,0:0:0:0:
135,21,263932,2,0,P|128:84|131:104,1,72,8|0,0:0|0:0,0:0:0:0:
418,242,264238,2,0,P|425:179|422:159,1,72,2|0,0:0|0:0,0:0:0:0:
469,73,264544,6,0,B|429:99|429:99|318:83,1,135,0|0,1:0|0:0,0:0:0:0:
326,97,264850,2,0,P|269:91|236:74,1,72,0|0,1:0|0:0,0:0:0:0:
192,26,265157,2,0,P|208:62|210:176,1,144,8|0,0:0|3:0,0:0:0:0:
220,241,265616,1,2,3:0:0:0:
130,217,265769,1,0,0:0:0:0:
73,262,265922,1,2,3:0:0:0:
9,188,266075,2,0,P|16:149|18:108,1,72,0|0,1:0|0:0,0:0:0:0:
14,23,266381,5,8,0:0:0:0:
169,184,266534,2,0,P|165:94|256:150,1,215.999993408203,0|0,1:0|0:0,0:0:0:0:
279,33,266993,6,0,L|295:217,1,180,0|0,1:0|1:0,0:0:0:0:
372,343,267452,1,0,0:0:0:0:
452,225,267606,2,0,P|401:224|375:237,1,76.5000014591217,8|0,0:0|0:0,0:0:0:0:
199,381,267912,2,0,P|250:382|276:369,1,76.5000014591217,2|2,0:0|3:0,0:0:0:0:
360,239,268218,1,0,3:0:0:0:
381,348,268371,1,2,3:0:0:0:
459,100,268524,5,0,1:0:0:0:
438,209,268677,1,0,0:0:0:0:
281,365,268830,5,8,0:0:0:0:
260,256,268983,1,0,1:0:0:0:
325,43,269136,2,0,P|311:133|213:81,1,202.500007724762,2|0,0:1|0:0,0:0:0:0:
180,46,269442,6,0,B|235:6|235:6|212:220,1,270,0|0,1:0|0:0,0:0:0:0:
204,297,270055,1,8,0:0:0:0:
204,297,270361,2,0,L|125:308,1,76.5000014591217,0|0,3:0|0:0,0:0:0:0:
45,202,270667,2,0,L|124:213,1,76.5000014591217,0|0,3:0|0:0,0:0:0:0:
222,293,270973,1,0,1:0:0:0:
112,313,271126,1,0,0:0:0:0:
194,192,271279,5,8,0:0:0:0:
322,362,271432,2,0,P|327:317|341:277,1,76.5000014591217,0|0,1:0|0:0,0:0:0:0:
310,194,271738,1,0,3:0:0:0:
470,162,271891,5,0,1:0:0:0:
495,68,272044,1,0,0:0:0:0:
401,43,272197,1,2,1:2:0:0:
376,137,272350,1,0,0:0:0:0:
326,37,272503,5,8,0:0:0:0:
351,131,272657,1,0,1:0:0:0:
257,156,272810,1,2,0:0:0:0:
232,62,272962,1,2,3:0:0:0:
304,303,273116,5,0,3:0:0:0:
354,202,273269,1,2,3:0:0:0:
260,147,273422,5,0,1:0:0:0:
223,33,273575,1,0,0:0:0:0:
115,210,273728,5,8,0:0:0:0:
20,234,273881,1,0,1:0:0:0:
114,241,274034,2,0,P|165:227|194:229,1,76.5000014591217,2|0,0:0|0:0,0:0:0:0:
253,289,274340,6,0,L|258:370,1,80.9999975280763,0|0,1:0|0:0,0:0:0:0:
341,312,274646,1,0,1:0:0:0:
499,171,274799,1,0,0:0:0:0:
506,94,274952,2,0,P|467:86|415:68,1,90,8|0,0:0|0:0,0:0:0:0:
256,200,275259,2,0,P|298:185|342:175,1,90,0|2,3:0|3:0,0:0:0:0:
463,311,275565,1,0,0:0:0:0:
383,280,275718,1,2,3:0:0:0:
321,348,275871,1,0,1:0:0:0:
184,289,276024,1,0,0:0:0:0:
60,333,276177,6,0,B|92:377|92:377|121:177,1,243.000000926971,8|0,0:0|0:0,0:0:0:0:
55,122,276636,1,2,3:0:0:0:
173,17,276789,6,0,P|213:41|261:47,1,85.4999977169037,0|0,1:0|0:0,0:0:0:0:
334,59,277095,2,0,P|294:35|246:29,1,85.4999977169037,0|0,1:0|0:0,0:0:0:0:
188,106,277401,1,8,0:0:0:0:
420,22,277555,2,0,L|401:126,1,85.4999977169037,0|0,1:0|0:0,0:0:0:0:
457,169,277861,1,2,3:0:0:0:
359,219,278014,1,0,3:0:0:0:
281,180,278167,1,2,3:0:0:0:
186,228,278320,1,0,1:0:0:0:
350,140,278473,1,0,0:0:0:0:
437,208,278626,6,0,B|418:245|418:245|435:328,1,112.5,8|0,0:0|1:0,0:0:0:0:
463,17,278932,2,0,B|498:80|498:80|381:39|381:39|312:62,1,242.999992584229,2|0,0:1|0:0,0:0:0:0:
267,22,279238,6,0,B|147:12|207:94|77:78,1,198.000006042481,0|0,1:0|1:0,0:0:0:0:
22,27,279697,1,0,0:0:0:0:
22,27,279850,2,0,P|40:87|41:128,1,80.9999975280763,8|0,0:0|0:0,0:0:0:0:
20,307,280157,2,0,P|2:247|1:206,1,80.9999975280763,0|2,0:0|3:0,0:0:0:0:
74,190,280463,1,0,3:0:0:0:
222,274,280616,1,2,3:0:0:0:
315,232,280769,2,0,L|302:320,1,80.9999975280763,0|0,1:0|0:0,0:0:0:0:
129,319,281075,6,0,B|126:359|139:385|139:385|206:285|80:238|128:139,1,323.999990112305,8|0,0:0|3:0,0:0:0:0:
205,78,281687,5,0,1:0:0:0:
70,103,281840,1,0,0:0:0:0:
95,238,281993,1,2,1:2:0:0:
230,213,282146,1,0,0:0:0:0:
160,142,282299,5,8,0:0:0:0:
255,294,282452,1,0,1:0:0:0:
222,369,282606,5,2,0:0:0:0:
330,182,282759,1,2,3:0:0:0:
159,30,282912,5,0,3:0:0:0:
196,242,283065,1,2,3:0:0:0:
461,66,283218,6,0,P|413:56|345:71,1,90,0|0,1:0|0:0,0:0:0:0:
183,255,283524,2,0,P|138:259|94:249,1,90,8|0,0:0|0:0,0:0:0:0:
13,120,283830,6,0,B|73:110|73:110|103:141|103:141|181:129,1,175.499991966248,2|0,0:1|0:0,0:0:0:0:
235,85,284136,5,4,1:0:0:0:
374,271,284289,1,0,0:0:0:0:
504,158,284442,2,0,L|480:55,1,99.0000030212403,0|0,1:0|0:0,0:0:0:0:
396,129,284748,2,0,P|336:92|118:57,1,270.000010299683,12|0,0:0|0:0,0:0:0:0:
39,20,285208,5,2,3:0:0:0:
39,20,285284,1,2,3:0:0:0:
39,20,285361,2,0,L|57:175,1,143.999995605469,6|0,3:2|0:0,0:0:0:0:
66,248,285667,1,0,1:0:0:0:
220,159,285820,1,4,0:0:0:0:
439,331,285973,5,2,0:3:0:0:
368,357,286075,5,2,0:3:0:0:
314,305,286177,5,2,0:3:0:0:
338,234,286279,5,2,0:3:0:0:
362,163,286381,5,2,0:3:0:0:
308,111,286483,5,2,0:3:0:0:
237,137,286585,6,0,B|130:133|190:201|66:187,1,180,0|0,1:0|1:0,0:0:0:0:
76,108,287044,1,2,0:0:0:0:
76,108,287197,2,0,P|76:47|88:-8,1,100.800001230469,8|0,0:0|0:0,0:0:0:0:
211,252,287503,2,0,P|211:313|199:368,1,100.800001230469,8|0,0:3|0:0,0:0:0:0:
113,295,287810,5,4,0:0:0:0:
382,318,287963,2,0,L|424:325,4,25.2000003076172,0|0|0|0|2,3:0|3:0|3:0|3:0|3:0,0:0:0:0:
308,276,288269,1,8,3:3:0:0:
323,370,288422,5,8,3:3:0:0:
302,258,288575,1,4,3:3:0:0:
452,150,288728,5,2,3:0:0:0:
473,38,288881,1,4,0:3:0:0:
158,72,289034,6,0,L|265:58,1,107.999996704102,4|0,1:0|0:0,0:0:0:0:
512,249,289340,2,0,L|404:235,1,107.999996704102
163,361,289646,1,8,0:0:0:0:
163,361,289952,5,4,0:0:0:0:
163,361,290055,6,0,L|151:280,1,71.9999978027344,2|0,3:0|0:0,0:0:0:0:
36,47,290259,6,0,P|20:93|13:143,1,71.9999978027344,4|0,3:0|0:0,0:0:0:0:
179,162,290463,6,0,P|171:126|158:93,1,71.9999978027344,10|0,3:0|0:0,0:0:0:0:
0,202,290667,6,0,L|75:185,1,71.9999978027344,4|0,3:0|0:0,0:0:0:0:
146,252,290871,5,8,3:0:0:0:
207,296,290973,5,8,3:0:0:0:
280,274,291075,5,8,3:0:0:0:
306,202,291177,5,4,3:0:0:0:
368,157,291279,5,4,3:0:0:0:
441,180,291381,5,4,3:0:0:0:
467,252,291483,6,0,L|460:111,1,107.999996704102,4|0,1:0|0:0,0:0:0:0:
512,62,291789,2,0,P|465:64|300:14,1,215.999993408203,0|8,1:0|0:0,0:0:0:0:
308,19,292401,2,0,L|271:29,8,26.9999991760254,2|0|0|0|0|0|0|0|0,3:0|3:0|3:0|3:0|3:0|3:0|3:0|3:0|3:0,3:0:0:0:
197,11,292861,5,2,3:0:0:0:
253,178,293014,1,2,3:0:0:0:
229,251,293167,5,0,3:0:0:0:
285,84,293320,1,0,3:0:0:0:
401,215,293473,1,8,3:0:0:0:
61,113,293626,5,4,3:0:0:0:
258,7,293779,1,4,3:0:0:0:
485,178,293932,6,0,L|476:274,1,90,4|0,1:0|0:0,0:0:0:0:
467,356,294238,1,0,1:0:0:0:
380,304,294391,1,0,0:0:0:0:
140,362,294544,2,0,P|217:368|180:227,1,270,12|2,0:0|0:0,0:0:0:0:
49,102,295003,5,2,3:0:0:0:
49,102,295080,1,2,3:0:0:0:
49,102,295157,2,0,L|66:254,1,143.999995605469,4|0,3:2|0:0,0:0:0:0:
74,325,295463,1,0,1:0:0:0:
154,127,295616,1,4,0:0:0:0:
425,212,295769,5,2,3:0:0:0:
468,147,295871,5,2,3:0:0:0:
463,69,295973,5,2,3:0:0:0:
412,10,296075,5,2,3:0:0:0:
336,0,296177,5,2,3:0:0:0:
266,28,296279,5,2,3:0:0:0:
187,0,296381,6,0,P|226:53|257:183,1,188.999994232178,4|0,1:0|0:0,0:0:0:0:
242,189,296687,2,0,L|249:333,1,125.999996154785,0|0,1:0|0:0,0:0:0:0:
465,248,296993,2,0,P|396:228|333:230,1,116.999994644165,8|0,0:0|0:0,0:0:0:0:
58,340,297299,2,0,P|120:358|176:356,1,107.999996704102,8|0,3:0|0:0,0:0:0:0:
142,57,297606,5,4,0:0:0:0:
118,242,297759,2,0,L|125:283,4,26.9999991760254,0|0|0|2|2,3:0|3:0|3:0|3:0|3:0,0:0:0:0:
79,158,298065,1,8,3:0:0:0:
291,226,298218,5,4,3:0:0:0:
406,172,298371,1,4,3:0:0:0:
250,373,298524,5,8,3:0:0:0:
77,292,298677,1,8,3:0:0:0:
181,28,298830,6,0,L|193:171,1,115.2,4|0,1:0|0:0,0:0:0:0:
70,304,299136,2,0,L|82:161,1,115.2,0|0,1:0|0:0,0:0:0:0:
276,66,299442,2,0,B|392:35|337:150|491:127,1,230.4,8|2,0:0|0:0,0:0:0:0:
506,200,299850,6,0,L|498:290,1,76.8,2|2,3:0|3:0,0:0:0:0:
247,345,300055,6,0,L|271:259,1,76.8,4|0,3:0|0:0,0:0:0:0:
428,127,300259,6,0,L|341:149,1,76.8,10|0,3:0|0:0,0:0:0:0:
149,80,300463,6,0,L|211:143,1,76.8,4|0,3:0|0:0,0:0:0:0:
64,17,300667,5,8,3:0:0:0:
6,64,300769,5,8,3:0:0:0:
6,138,300871,5,8,3:0:0:0:
63,186,300973,5,4,3:0:0:0:
120,233,301075,5,4,3:0:0:0:
120,307,301177,5,4,3:0:0:0:
63,355,301279,6,0,P|42:287|44:235,1,115.2,4|0,1:0|0:0,0:0:0:0:
167,1,301585,2,0,P|188:69|186:121,1,115.2,0|0,1:0|0:0,0:0:0:0:
79,74,301891,1,8,0:0:0:0:
353,169,302044,1,0,0:0:0:0:
156,294,302197,6,0,L|113:297,8,28.8,2|2|2|0|0|0|0|0|0,3:0|3:0|3:0|3:0|3:0|3:0|3:0|3:0|0:0,3:0:0:0:
205,212,302657,1,2,3:0:0:0:
246,358,302810,5,2,3:0:0:0:
402,81,302963,1,0,3:0:0:0:
489,171,303116,5,2,3:2:0:0:
320,98,303269,1,8,3:0:0:0:
275,220,303422,5,4,3:0:0:0:
106,293,303575,1,4,3:0:0:0:
147,27,303728,6,0,L|169:138,1,107.999996704102,4|0,1:0|0:0,0:0:0:0:
6,355,304034,2,0,L|28:244,1,107.999996704102,0|0,1:0|0:0,0:0:0:0:
134,256,304340,2,0,B|308:213|203:374|412:344,1,270.000010299683,12|0,0:0|0:0,0:0:0:0:
339,55,304799,5,2,3:0:0:0:
339,55,304876,1,2,3:0:0:0:
339,55,304952,2,0,B|378:86|378:86|358:171,1,132.00000402832,4|0,0:0|0:0,0:0:0:0:
336,239,305259,1,0,1:0:0:0:
457,139,305412,1,2,0:0:0:0:
382,51,305565,5,2,3:0:0:0:
324,7,305667,5,2,3:0:0:0:
253,2,305769,5,2,3:0:0:0:
190,36,305871,5,2,3:0:0:0:
156,99,305973,5,2,3:0:0:0:
161,170,306075,5,2,3:0:0:0:
204,228,306177,6,0,L|323:209,1,107.999996704102,4|0,1:2|0:0,0:0:0:0:
454,354,306483,2,0,L|335:334,1,107.999996704102,0|0,1:0|0:0,0:0:0:0:
352,140,306789,1,8,0:0:0:0:
193,345,306942,1,0,3:0:0:0:
96,206,307095,6,0,B|82:176|82:176|102:117|102:117|94:99,1,107.999996704102,8|0,3:0|0:0,0:0:0:0:
38,37,307555,2,0,L|13:46,4,22.5,2|2|0|0|2,3:0|3:0|3:0|3:0|3:0,0:0:0:0:
96,105,307861,1,0,0:0:0:0:
246,32,308014,5,4,3:0:0:0:
297,152,308167,1,4,3:0:0:0:
159,368,308320,2,0,P|148:316|160:269,1,90,10|0,3:0|3:0,0:0:0:0:
395,111,308626,5,4,1:0:0:0:
233,316,308779,1,0,0:0:0:0:
210,133,308932,1,0,1:0:0:0:
417,294,309085,1,0,0:0:0:0:
506,61,309238,1,8,0:0:0:0:
245,8,309544,5,2,0:0:0:0:
177,22,309646,5,2,3:0:0:0:
152,87,309748,5,2,3:0:0:0:
180,148,309850,6,0,P|217:146|260:122,1,71.9999978027344,8|0,3:0|0:0,0:0:0:0:
85,12,310055,6,0,P|74:39|77:88,1,71.9999978027344,10|0,3:0|0:0,0:0:0:0:
285,213,310259,6,0,P|282:176|263:144,1,71.9999978027344,8|0,3:0|0:0,0:0:0:0:
324,19,310463,5,8,3:0:0:0:
393,7,310565,5,8,3:0:0:0:
454,42,310667,5,8,3:0:0:0:
479,108,310769,5,4,3:0:0:0:
457,175,310871,5,4,3:0:0:0:
397,212,310973,5,4,3:0:0:0:
334,178,311075,6,0,L|326:302,1,107.999996704102,4|0,1:0|0:0,0:0:0:0:
477,377,311381,2,0,L|469:253,1,107.999996704102,0|0,1:0|0:0,0:0:0:0:
237,129,311687,1,0,0:0:0:0:
230,236,311840,1,0,0:0:0:0:
366,73,311993,2,0,L|369:41,8,26.9999991760254,2|2|2|0|0|0|0|0|0,3:0|3:0|3:0|3:0|3:0|3:0|3:0|0:0|0:0,0:0:0:0:
448,79,312452,5,2,3:0:0:0:
239,19,312606,2,0,L|119:37,1,107.999996704102,2|0,3:0|0:0,0:0:0:0:
60,22,312912,5,2,3:0:0:0:
164,208,313065,1,8,3:0:0:0:
44,359,313218,5,4,3:0:0:0:
59,276,313371,1,4,3:0:0:0:
136,312,313524,6,0,B|175:352|175:352|289:341,1,161.999995056153,0|0,1:0|1:0,0:0:0:0:
226,185,313983,2,0,B|208:221|208:221|213:269,1,80.9999975280763,2|8,0:0|0:0,0:0:0:0:
348,384,314289,2,0,B|366:348|366:348|361:300,1,80.9999975280763,0|0,1:0|0:0,0:0:0:0:
495,353,314595,5,2,3:0:0:0:
430,258,314748,1,0,3:0:0:0:
461,194,314901,1,2,3:0:0:0:
417,129,315055,2,0,L|428:49,1,80.9999975280763,0|0,1:0|0:0,0:0:0:0:
246,56,315361,1,8,0:0:0:0:
356,11,315514,2,0,P|331:53|306:164,1,161.999995056153,0|2,1:0|3:0,0:0:0:0:
238,51,315973,6,0,B|179:58|179:58|159:87|159:87|78:96,1,161.999995056153,0|0,1:0|1:0,0:0:0:0:
30,19,316432,2,0,P|17:73|14:104,1,80.9999975280763,2|8,0:0|0:0,0:0:0:0:
111,305,316738,2,0,P|124:251|127:220,1,80.9999975280763,0|0,1:0|0:0,0:0:0:0:
41,248,317044,1,2,3:0:0:0:
201,350,317197,5,0,3:0:0:0:
288,308,317350,1,2,3:0:0:0:
349,360,317503,1,0,1:0:0:0:
427,254,317657,2,0,P|416:303|415:343,1,80.9999975280763,0|8,1:0|0:0,0:0:0:0:
211,384,317963,2,0,P|208:343|198:304,1,80.9999975280763,0|0,1:0|0:0,0:0:0:0:
226,202,318269,1,2,3:0:0:0:
46,232,318422,6,0,P|120:228|220:210,1,161.999995056153,0|0,1:0|1:0,0:0:0:0:
210,86,318881,2,0,L|199:-5,1,80.9999975280763,2|8,0:0|0:0,0:0:0:0:
339,169,319187,2,0,L|350:260,1,80.9999975280763,0|0,1:0|0:0,0:0:0:0:
257,188,319493,1,2,3:0:0:0:
361,42,319646,5,0,3:0:0:0:
449,28,319799,1,2,3:0:0:0:
489,106,319953,1,0,1:0:0:0:
426,169,320106,1,0,1:0:0:0:
275,29,320259,2,0,P|272:80|261:140,1,80.9999975280763,8|0,0:0|0:0,0:0:0:0:
352,318,320565,2,0,P|355:267|366:207,1,80.9999975280763,2|0,0:0|3:0,0:0:0:0:
250,281,320871,6,0,B|125:264|185:374|2:338,1,242.999992584229,0|2,1:0|0:0,0:0:0:0:
77,253,321483,1,8,0:0:0:0:
219,163,321636,2,0,L|209:69,1,80.9999975280763,0|0,1:0|0:0,0:0:0:0:
163,17,321942,1,2,3:0:0:0:
112,128,322095,5,0,3:0:0:0:
301,58,322248,1,2,3:0:0:0:
371,131,322401,2,0,L|391:36,1,80.9999975280763,0|0,1:0|0:0,0:0:0:0:
413,229,322708,2,0,L|485:293,1,80.9999975280763,8|0,0:0|0:0,0:0:0:0:
307,216,323014,2,0,L|214:246,1,80.9999975280763,2|0,0:0|0:3,0:3:0:0:
497,142,323320,5,4,1:0:0:0:
339,332,323473,1,0,0:0:0:0:
254,100,323626,1,0,1:0:0:0:
254,100,323932,2,0,B|138:40|138:286|-12:150,1,270.000010299683,12|0,0:0|0:0,0:0:0:0:
323,33,324391,5,2,3:0:0:0:
323,33,324468,1,2,3:0:0:0:
323,33,324544,2,0,P|357:91|336:173,1,143.999995605469,6|0,0:0|0:0,0:0:0:0:
267,211,324850,1,0,1:0:0:0:
322,365,325003,1,4,0:0:0:0:
479,234,325157,5,2,3:0:0:0:
481,310,325259,5,2,3:0:0:0:
425,362,325361,5,2,3:0:0:0:
349,351,325463,5,2,3:0:0:0:
308,286,325565,5,2,3:0:0:0:
233,274,325667,5,2,3:0:0:0:
174,323,325769,6,0,P|191:252|192:198,1,107.999996704102,4|0,1:0|0:0,0:0:0:0:
18,0,326075,2,0,P|1:71|0:125,1,107.999996704102,0|0,1:0|0:0,0:0:0:0:
120,58,326381,2,0,L|236:52,1,107.999996704102,8|0,0:0|0:0,0:0:0:0:
344,146,326687,6,0,L|451:151,1,107.999996704102,4|0,3:0|0:0,0:0:0:0:
403,57,327146,6,0,L|396:9,4,31.4999990386963,2|2|0|0|0,3:0|3:0|3:0|3:0|3:0,0:0:0:0:
293,69,327452,1,0,0:0:0:0:
369,247,327606,1,8,3:0:0:0:
268,335,327759,5,0,3:0:0:0:
179,293,327912,1,2,3:0:0:0:
77,351,328065,1,0,3:0:0:0:
58,178,328218,5,4,1:0:0:0:
180,379,328371,1,0,0:0:0:0:
200,132,328524,5,0,1:0:0:0:
78,333,328677,1,0,0:0:0:0:
356,346,328830,1,8,0:0:0:0:
356,346,329136,6,0,P|367:307|366:265,2,71.9999978027344,2|2|2,0:0|3:0|3:0,0:0:0:0:
263,206,329442,6,0,P|255:251|261:281,1,71.9999978027344,4|0,3:0|0:0,0:0:0:0:
393,136,329646,6,0,P|358:106|329:96,1,71.9999978027344,10|0,3:0|0:0,0:0:0:0:
385,283,329850,6,0,P|427:267|450:247,1,71.9999978027344,4|0,3:0|2:0,2:0:0:0:
496,124,330055,5,8,3:0:0:0:
436,77,330157,5,8,3:0:0:0:
365,103,330259,5,8,3:0:0:0:
327,173,330361,5,4,3:0:0:0:
268,222,330463,5,4,3:0:0:0:
193,207,330565,5,4,3:0:0:0:
158,139,330667,6,0,P|171:85|159:25,1,107.999996704102,4|0,1:0|0:0,0:0:0:0:
43,235,330973,2,0,P|30:289|42:349,1,107.999996704102,0|0,1:0|0:0,0:0:0:0:
79,89,331279,1,8,0:0:0:0:
191,264,331432,1,0,0:0:0:0:
322,113,331585,2,0,L|317:81,8,26.9999991760254,2|2|2|0|0|0|0|0|0,3:0|3:0|3:0|3:0|3:0|3:0|3:0|0:0|0:0,0:0:0:0:
405,68,332044,5,8,0:0:0:0:
219,184,332197,2,0,L|205:70,1,107.999996704102,8|0,0:0|0:0,0:0:0:0:
195,0,332503,5,2,3:0:0:0:
316,49,332657,1,4,3:0:0:0:
144,140,332810,5,8,3:0:0:0:
0,194,332964,1,8,3:0:0:0:
130,384,333116,6,0,P|144:317|140:245,1,115.2,4|0,1:0|0:0,0:0:0:0:
13,59,333422,2,0,P|-1:126|3:198,1,115.2,0|0,1:0|0:0,0:0:0:0:
365,149,333728,2,0,P|355:52|187:30,1,270.000010299683,8|0,0:0|0:0,0:0:0:0:
117,133,334187,5,2,3:0:0:0:
117,133,334264,1,2,3:0:0:0:
117,133,334340,2,0,B|201:119|201:119|268:175,1,153.6,4|0,0:0|0:0,0:0:0:0:
173,204,334646,1,0,1:0:0:0:
298,42,334799,1,4,0:0:0:0:
430,73,334952,5,2,3:0:0:0:
379,128,335054,5,2,3:0:0:0:
383,202,335156,5,2,3:0:0:0:
440,251,335258,5,2,3:0:0:0:
437,325,335361,5,2,3:0:0:0:
379,372,335463,5,2,3:0:0:0:
306,357,335565,5,4,1:0:0:0:
207,266,335718,2,0,L|189:390,1,115.2,0|0,0:0|1:0,0:0:0:0:
300,349,336024,1,2,0:0:0:0:
401,124,336177,2,0,L|419:248,1,115.2,8|0,0:0|0:0,0:0:0:0:
186,124,336483,6,0,B|170:79|170:79|208:13,1,115.2,4|0,3:0|0:0,0:0:0:0:
307,87,336942,6,0,L|275:87,4,26.9999991760254,2|2|0|0|0,3:0|3:0|3:0|3:0|3:0,0:0:0:0:
206,21,337248,1,8,3:0:0:0:
46,122,337401,5,4,3:0:0:0:
222,244,337555,1,4,3:0:0:0:
23,379,337708,2,0,P|8:302|38:249,1,107.999996704102,10|0,3:0|0:0,0:0:0:0:
235,242,338014,5,4,1:0:0:0:
36,383,338167,1,0,0:0:0:0:
114,76,338320,2,0,L|129:217,1,107.999996704102,0|0,1:0|0:0,0:0:0:0:
342,384,338626,2,0,L|357:243,1,107.999996704102,8|0,0:0|0:0,0:0:0:0:
307,38,338932,5,6,0:0:0:0:
273,108,339034,6,0,P|280:155|309:178,1,71.9999978027344,2|2,3:0|3:0,0:0:0:0:
450,43,339238,6,0,L|366:32,1,71.9999978027344,4|0,3:0|0:0,0:0:0:0:
224,180,339442,6,0,L|308:169,1,71.9999978027344,10|0,3:0|0:0,0:0:0:0:
487,311,339646,6,0,L|403:300,1,71.9999978027344,4|0,3:0|0:0,0:0:0:0:
370,216,339851,5,8,3:0:0:0:
300,197,339953,5,8,3:0:0:0:
234,224,340055,5,8,3:0:0:0:
199,285,340157,5,4,3:0:0:0:
164,346,340259,5,4,3:0:0:0:
98,373,340361,5,4,3:0:0:0:
28,354,340463,6,0,B|2:308|2:308|21:218,1,121.500000463486,4|0,1:0|0:0,0:0:0:0:
271,14,340769,2,0,B|297:60|297:60|278:150,1,121.500000463486,0|0,1:0|0:0,0:0:0:0:
43,61,341075,1,8,0:0:0:0:
43,61,341381,2,0,L|80:57,8,30.3750001158714,2|2|0|0|0|0|0|0|0,3:0|3:0|3:0|3:0|3:0|3:0|3:0|0:0|0:0,0:0:0:0:
177,32,341840,5,8,0:0:0:0:
79,157,341993,2,0,L|97:256,1,90,8|0,0:0|0:0,0:0:0:0:
243,184,342299,5,0,3:0:0:0:
116,255,342452,1,8,3:0:0:0:
214,105,342606,5,4,3:0:0:0:
326,161,342759,1,4,3:0:0:0:
268,264,342912,5,0,1:0:0:0:
