osu file format v14

[General]
AudioFilename: audio.mp3
AudioLeadIn: 0
PreviewTime: 215502
Countdown: 0
SampleSet: Soft
StackLeniency: 0.7
Mode: 0
LetterboxInBreaks: 0
WidescreenStoryboard: 1

[Editor]
Bookmarks: 14693,29387,48979,73469,83265,93061,117551,132244,151836,176326,195918,205714,215510,225153,244897,254693,284081,303673,313461,323265,342857
DistanceSpacing: 0.2
BeatDivisor: 12
GridSize: 16
TimelineZoom: 2.8

[Metadata]
Title:Scattered and Lost
TitleUnicode:Scattered and Lost
Artist:Lena Raine
ArtistUnicode:Lena Raine
Creator:Icekalt
Version:Discomfort
Source:Celeste
Tags:08 Chapter 3 Kuraine indie video game breakcore progressive marathon instrumental scubdomino OST
BeatmapID:2484160
BeatmapSetID:1181163

[Difficulty]
HPDrainRate:4
CircleSize:4
OverallDifficulty:6
ApproachRate:7.5
SliderMultiplier:1.9
SliderTickRate:1

[Events]
//Background and Video events
0,0,"celeste.jpeg",0,0
//Break Periods
2,196722,203656
2,245089,253860
//Storyboard Layer 0 (Background)
//Storyboard Layer 1 (Fail)
//Storyboard Layer 2 (Pass)
//Storyboard Layer 3 (Foreground)
//Storyboard Layer 4 (Overlay)
//Storyboard Sound Samples

[TimingPoints]
0,612.244897959184,4,2,1,50,1,0
0,-99.009900990099,4,2,1,50,0,0
146,612.244897959184,4,2,1,50,1,0
2441,612.244897959184,4,2,1,50,1,0
14685,-100,4,2,2,50,0,0
14992,-100,4,2,1,50,0,0
17134,-133.333333333333,4,2,2,50,0,0
17441,-133.333333333333,4,2,1,50,0,0
18052,-100,4,2,1,50,0,0
19583,-100,4,2,2,50,0,0
19889,-100,4,2,1,50,0,0
22032,-100,4,2,2,50,0,0
22338,-100,4,2,1,50,0,0
24481,-100,4,2,2,50,0,0
24787,-100,4,2,1,50,0,0
26930,-100,4,2,2,50,0,0
27236,-100,4,2,1,50,0,0
29379,-100,4,2,2,80,0,0
29685,-100,4,2,1,80,0,0
31828,-100,4,2,2,50,0,0
32134,-100,4,2,1,50,0,0
34277,-100,4,2,2,50,0,0
34583,-100,4,2,1,50,0,0
36726,-100,4,2,2,50,0,0
37032,-100,4,2,1,50,0,0
39175,-100,4,2,2,50,0,0
39481,-100,4,2,1,50,0,0
41624,-100,4,2,2,50,0,0
41930,-100,4,2,1,50,0,0
44073,-100,4,2,2,50,0,0
44379,-100,4,2,1,50,0,0
46522,-100,4,2,2,50,0,0
46828,-100,4,2,1,50,0,0
48971,-90.9090909090909,4,2,3,65,0,0
72236,-133.333333333333,4,2,3,65,0,0
73461,-90.9090909090909,4,2,3,65,0,0
93053,-166.666666666667,4,2,3,65,0,0
117543,-83.3333333333333,4,2,3,75,0,0
151828,-83.3333333333333,4,2,2,80,0,0
176318,-90.9090909090909,4,2,2,80,0,0
176471,-90.9090909090909,4,2,2,70,0,0
204481,-181.818181818181,4,2,2,70,0,0
205706,-76.9230769230769,4,2,3,90,0,1
215502,-133.333333333333,4,2,2,80,0,0
225298,-76.9230769230769,4,2,3,90,0,1
233563,-76.9230769230769,4,2,3,60,0,1
233716,-76.9230769230769,4,2,3,70,0,1
233793,-76.9230769230769,4,2,3,80,0,1
233869,-76.9230769230769,4,2,3,90,0,1
243359,-76.9230769230769,4,2,3,60,0,1
243512,-76.9230769230769,4,2,3,70,0,1
243588,-76.9230769230769,4,2,3,80,0,1
243665,-76.9230769230769,4,2,3,90,0,1
244889,-76.9230769230769,4,2,2,70,0,0
254685,-100,4,2,2,70,0,0
264481,-90.9090909090909,4,2,2,70,0,0
266318,-66.6666666666667,4,2,2,70,0,1
266930,-90.9090909090909,4,2,2,70,0,0
268767,-66.6666666666667,4,2,2,70,0,1
269379,-90.9090909090909,4,2,2,70,0,0
271216,-66.6666666666667,4,2,2,70,0,1
271828,-90.9090909090909,4,2,2,70,0,0
274277,-76.9230769230769,4,2,2,70,0,0
276114,-66.6666666666667,4,2,2,70,0,1
276726,-76.9230769230769,4,2,2,70,0,0
278563,-66.6666666666667,4,2,2,70,0,1
279175,-76.9230769230769,4,2,2,70,0,0
281012,-66.6666666666667,4,2,2,70,0,1
281624,-76.9230769230769,4,2,2,70,0,0
284073,-76.9230769230769,4,2,3,90,0,1
302134,-76.9230769230769,4,2,3,60,0,1
302287,-76.9230769230769,4,2,3,70,0,1
302364,-76.9230769230769,4,2,3,80,0,1
302441,-76.9230769230769,4,2,3,90,0,1
303665,-76.9230769230769,4,2,3,90,0,1
304583,-83.3333333333333,4,2,3,90,0,1
311930,-83.3333333333333,4,2,3,60,0,1
312083,-83.3333333333333,4,2,3,70,0,1
312160,-83.3333333333333,4,2,3,80,0,1
312236,-83.3333333333333,4,2,3,90,0,1
313461,-133.333333333333,4,2,2,70,0,0
323257,-76.9230769230769,4,2,3,90,0,1
331522,-76.9230769230769,4,2,3,60,0,1
331675,-76.9230769230769,4,2,3,70,0,1
331752,-76.9230769230769,4,2,3,80,0,1
331828,-76.9230769230769,4,2,3,90,0,1
341318,-76.9230769230769,4,2,3,60,0,1
341471,-76.9230769230769,4,2,3,70,0,1
341548,-76.9230769230769,4,2,3,80,0,1
341624,-76.9230769230769,4,2,3,90,0,1
342849,-76.9230769230769,4,2,3,90,0,0

[Colours]
Combo1 : 155,155,206
Combo2 : 177,101,101
Combo3 : 255,172,89

[HitObjects]
139,220,0,6,0,P|217:179|292:257,1,190,0|2,3:0|3:2,0:0:0:0:
359,173,911,1,0,3:0:0:0:
311,90,1217,2,0,L|338:44,3,47.5,2|0|0|0,3:2|0:0|3:0|3:0,0:0:0:0:
381,39,1829,1,2,3:2:0:0:
381,39,2135,1,0,3:0:0:0:
454,99,2441,6,0,B|483:180|408:189|452:298,1,190,2|2,3:2|3:2,0:0:0:0:
391,360,3359,1,0,3:0:0:0:
302,325,3665,2,0,P|262:318|237:263,1,95,2|0,3:2|3:0,0:0:0:0:
315,220,4277,2,0,L|325:166,1,47.5,2|0,3:2|0:0,0:0:0:0:
343,162,4583,2,0,L|353:108,1,47.5,0|0,3:0|3:0,0:0:0:0:
371,104,4889,6,0,P|300:50|213:87,1,190,2|2,3:2|3:2,0:0:0:0:
122,61,5808,1,0,3:0:0:0:
105,154,6114,2,0,L|49:148,3,47.5,2|0|0|0,3:2|0:0|3:0|3:0,0:0:0:0:
32,189,6726,1,2,3:2:0:0:
32,189,7032,1,0,3:0:0:0:
98,257,7338,2,0,L|303:231,1,190,2|2,3:2|3:2,0:0:0:0:
356,298,8257,1,0,3:0:0:0:
430,239,8563,2,0,P|439:190|425:121,1,95,2|0,3:2|3:0,0:0:0:0:
350,99,9175,2,0,L|296:109,1,47.5,2|0,3:2|0:0,0:0:0:0:
292,127,9481,2,0,L|238:137,1,47.5,0|0,3:0|3:0,0:0:0:0:
234,155,9787,6,0,P|197:195|206:249,1,95,2|0,3:2|3:0,0:0:0:0:
284,272,10400,1,2,3:2:0:0:
271,366,10706,1,0,3:0:0:0:
177,383,11012,2,0,L|126:371,2,47.5,2|0|0,3:2|0:0|3:0,0:0:0:0:
145,293,11624,2,0,L|94:281,2,47.5,2|0|0,3:2|0:0|3:0,0:0:0:0:
114,203,12236,6,0,P|125:144|245:157,1,190,2|2,3:2|3:2,0:0:0:0:
314,87,13155,1,0,3:0:0:0:
391,141,13461,2,0,L|397:201,3,47.5,2|0|0|0,3:2|0:0|3:0|3:0,0:0:0:0:
425,225,14073,2,0,L|419:287,3,47.5,2|0|0|0,3:2|0:0|3:0|3:0,0:0:0:0:
437,316,14685,1,2,3:2:0:0:
353,362,14992,5,0,3:0:0:0:
353,362,15145,1,0,3:0:0:0:
353,362,15298,2,0,P|294:344|293:289,1,95,2|0,3:2|3:0,0:0:0:0:
231,239,15910,2,0,L|240:187,3,47.5,2|0|0|0,3:2|0:0|3:0|3:0,0:0:0:0:
224,147,16522,1,2,3:2:0:0:
272,83,16828,1,0,3:0:0:0:
190,20,17134,6,0,P|141:4|129:76,1,142.500005435944,2|2,3:2|3:2,0:0:0:0:
57,138,18053,1,0,3:0:0:0:
100,222,18359,2,0,P|147:237|217:233,1,95,2|0,3:2|3:0,0:0:0:0:
250,163,18971,2,0,P|257:137|270:116,1,47.5,2|0,3:2|0:0,0:0:0:0:
269,101,19277,2,0,P|291:85|314:77,1,47.5,0|0,3:0|3:0,0:0:0:0:
323,65,19583,6,0,L|522:84,1,190,2|2,3:2|3:2,0:0:0:0:
459,162,20502,1,0,3:0:0:0:
498,248,20808,2,0,P|483:289|438:322,1,95,2|0,3:2|3:0,0:0:0:0:
361,273,21420,1,2,3:2:0:0:
304,349,21726,1,0,3:0:0:0:
224,296,22032,6,0,L|162:311,3,47.5,2|0|0|0,3:2|0:0|3:0|3:0,0:0:0:0:
133,289,22645,2,0,P|110:245|138:182,1,95,2|0,3:2|3:0,0:0:0:0:
189,139,23257,1,2,3:2:0:0:
263,198,23563,1,0,3:0:0:0:
305,112,23869,2,0,L|367:94,1,47.5,2|0,3:2|0:0,0:0:0:0:
381,104,24175,2,0,L|443:86,1,47.5,0|0,3:0|3:0,0:0:0:0:
457,96,24481,6,0,P|435:143|435:211,1,95,2|0,3:2|3:0,0:0:0:0:
496,254,25094,1,2,3:2:0:0:
496,254,25400,1,0,3:0:0:0:
424,316,25706,1,2,3:2:0:0:
348,258,26012,1,0,3:0:0:0:
270,312,26318,2,0,P|241:312|219:303,1,47.5,2|0,3:2|0:0,0:0:0:0:
215,279,26624,2,0,P|192:260|181:239,1,47.5,0|0,3:0|3:0,0:0:0:0:
194,218,26930,6,0,L|208:83,2,95,2|0|2,3:2|3:0|3:2,0:0:0:0:
128,287,27849,1,0,3:0:0:0:
207,338,28155,1,2,3:2:0:0:
207,338,28308,1,0,0:0:0:0:
207,338,28461,2,0,L|255:346,1,47.5,0|0,3:0|3:0,0:0:0:0:
288,378,28767,2,0,L|336:370,3,47.5,2|0|0|0,3:2|0:0|3:0|3:0,0:0:0:0:
380,303,29379,1,2,3:2:0:0:
304,231,29685,5,0,3:0:0:0:
300,217,29838,1,0,3:0:0:0:
306,204,29992,2,0,L|368:183,1,47.5,2|0,3:2|0:0,0:0:0:0:
371,116,30298,2,0,L|433:93,2,47.5,0|0|2,3:0|3:0|3:2,0:0:0:0:
271,86,30909,1,0,3:0:0:0:
275,72,31062,1,0,3:0:0:0:
280,58,31216,2,0,L|206:75,3,47.5,2|0|0|0,3:2|0:0|3:0|3:0,0:0:0:0:
167,24,31828,6,0,P|121:58|136:107,1,95,2|0,3:2|3:0,0:0:0:0:
128,204,32441,1,2,3:2:0:0:
114,200,32594,1,0,0:0:0:0:
104,189,32747,2,0,P|139:172|154:173,1,47.5,0|0,3:0|3:0,0:0:0:0:
207,123,33053,2,0,P|244:132|255:142,3,47.5,2|0|0|0,3:2|0:0|3:0|3:0,0:0:0:0:
285,205,33665,2,0,L|275:260,1,47.5,2|0,3:2|0:0,0:0:0:0:
286,271,33971,2,0,L|276:326,1,47.5,0|0,3:0|3:0,0:0:0:0:
287,337,34277,1,2,3:2:0:0:
371,282,34583,5,0,3:0:0:0:
384,277,34736,1,0,3:0:0:0:
399,276,34889,2,0,P|438:276|468:288,1,47.5,2|0,3:2|0:0,0:0:0:0:
512,238,35196,2,0,P|507:184|435:162,1,95,0|2,3:0|3:2,0:0:0:0:
399,67,35808,1,0,3:0:0:0:
385,70,35961,1,0,3:0:0:0:
371,73,36114,2,0,L|303:67,1,47.5,2|0,3:2|0:0,0:0:0:0:
299,82,36420,2,0,L|231:76,1,47.5,0|0,3:0|3:0,0:0:0:0:
227,91,36726,6,0,P|198:137|202:191,1,95,2|0,3:2|3:0,0:0:0:0:
122,245,37338,2,0,P|151:291|147:345,1,95,2|0,3:2|3:0,0:0:0:0:
256,376,37951,1,2,3:2:0:0:
259,362,38104,1,0,0:0:0:0:
263,348,38257,2,0,P|289:331|317:325,1,47.5,0|0,3:0|3:0,0:0:0:0:
359,275,38563,2,0,P|389:278|415:292,3,47.5,2|0|0|0,3:2|0:0|3:0|3:0,0:0:0:0:
479,239,39175,5,2,3:2:0:0:
403,158,39481,1,0,3:0:0:0:
489,87,39787,1,2,3:2:0:0:
484,73,39941,1,0,0:0:0:0:
479,59,40094,2,0,L|408:48,1,47.5,0|0,3:0|3:0,0:0:0:0:
357,84,40400,2,0,L|298:76,2,47.5,2|0|0,3:2|0:0|3:0,0:0:0:0:
218,130,41012,5,2,3:2:0:0:
221,143,41165,1,0,0:0:0:0:
224,156,41318,1,0,3:0:0:0:
227,169,41471,1,0,3:0:0:0:
230,182,41624,6,0,L|293:194,2,47.5,2|0|0,3:2|0:0|3:0,0:0:0:0:
209,294,42236,2,0,L|272:282,2,47.5,2|0|0,3:2|0:0|3:0,0:0:0:0:
112,257,42849,1,2,3:2:0:0:
97,260,43002,1,0,0:0:0:0:
83,264,43155,1,0,3:0:0:0:
13,169,43461,2,0,L|65:175,1,47.5,2|0,3:2|0:0,0:0:0:0:
84,157,43767,2,0,L|136:163,1,47.5,0|0,3:0|3:0,0:0:0:0:
155,145,44073,6,0,L|207:151,2,47.5,2|0|0,3:2|0:0|3:0,0:0:0:0:
129,48,44685,2,0,L|181:54,1,47.5,2|0,3:2|0:0,0:0:0:0:
244,15,44992,1,0,3:0:0:0:
257,10,45145,1,0,3:0:0:0:
270,5,45298,2,0,P|324:13|341:63,1,95,2|0,3:2|3:0,0:0:0:0:
277,145,45910,2,0,L|216:155,3,47.5,2|0|0|0,3:2|0:0|3:0|3:0,0:0:0:0:
206,144,46522,6,0,L|198:91,1,47.5,2|0,3:2|0:0,0:0:0:0:
182,17,46828,1,0,3:0:0:0:
92,119,47134,2,0,L|70:70,2,47.5,2|0|0,3:2|0:0|3:0,0:0:0:0:
35,241,47747,2,0,P|58:229|98:226,1,47.5,2|0,3:2|0:0,0:0:0:0:
98,213,48053,2,0,P|123:218|155:242,1,47.5,0|0,3:0|3:0,0:0:0:0:
161,259,48359,5,2,3:2:0:0:
168,302,48512,1,0,0:0:0:0:
288,351,48818,1,0,3:0:0:0:
297,296,48971,1,2,3:2:0:0:
438,164,49430,5,0,3:0:0:0:
438,164,49583,1,8,3:0:0:0:
338,93,49889,2,0,L|272:102,1,52.2500015945435,0|0,2:0|3:0,0:0:0:0:
273,92,50196,2,0,P|196:83|195:200,1,209.000006378174,2|8,3:2|3:0,0:0:0:0:
44,302,51267,1,0,3:2:0:0:
44,302,51420,2,0,P|33:252|124:262,1,156.750004783631,2|0,3:2|3:0,0:0:0:0:
118,259,52032,1,8,3:0:0:0:
182,349,52338,1,0,2:0:0:0:
238,210,52645,1,2,3:2:0:0:
431,312,53104,5,0,0:0:0:0:
431,312,53257,1,8,3:0:0:0:
500,189,53563,2,0,L|490:129,1,52.2500015945435,0|0,3:2|3:2,0:0:0:0:
505,118,53869,2,0,P|454:90|396:204,1,209.000006378174,2|8,3:2|3:0,0:0:0:0:
200,138,54941,1,0,3:0:0:0:
200,138,55094,2,0,P|231:97|283:162,1,156.750004783631,2|0,3:2|0:0,0:0:0:0:
299,172,55706,1,8,3:0:0:0:
364,263,56012,1,0,3:2:0:0:
260,383,56318,1,2,3:2:0:0:
77,259,56777,6,0,L|144:243,1,52.2500015945435,0|8,3:0|3:0,0:0:0:0:
7,159,57236,1,0,2:0:0:0:
19,124,57389,1,0,3:0:0:0:
34,90,57543,2,0,B|155:63|114:141|237:126,1,209.000006378174,2|8,3:2|3:0,0:0:0:0:
355,0,58614,1,0,3:2:0:0:
355,0,58767,2,0,B|264:-1|294:53|207:48,1,156.750004783631,2|0,3:2|3:0,0:0:0:0:
198,33,59379,1,8,3:0:0:0:
98,90,59685,1,0,2:0:0:0:
238,165,59992,6,0,L|224:224,1,52.2500015945435,2|0,3:2|0:0,0:0:0:0:
336,98,60451,1,0,0:0:0:0:
336,98,60604,1,8,3:0:0:0:
429,174,60910,2,0,L|443:233,1,52.2500015945435,0|0,3:2|3:2,0:0:0:0:
466,244,61216,2,0,P|436:313|281:303,1,209.000006378174,2|8,3:2|3:0,0:0:0:0:
116,375,62287,1,0,3:0:0:0:
116,375,62441,2,0,P|110:314|138:283,1,104.500003189087,2|0,3:2|3:2,0:0:0:0:
160,256,62900,1,0,0:0:0:0:
160,256,63053,1,8,3:0:0:0:
267,301,63359,1,0,3:2:0:0:
233,152,63665,1,2,3:2:0:0:
470,215,64124,5,0,3:0:0:0:
470,215,64277,1,8,3:0:0:0:
512,107,64583,2,0,P|484:89|456:83,1,52.2500015945435,0|0,2:0|3:0,0:0:0:0:
447,63,64889,2,0,L|218:90,1,209.000006378174,2|8,3:2|3:0,0:0:0:0:
57,22,65961,1,0,3:2:0:0:
57,22,66114,2,0,P|22:62|31:112,1,104.500003189087,2|0,3:2|2:0,0:0:0:0:
146,152,66726,2,0,L|155:218,1,52.2500015945435,8|0,3:0|0:0,0:0:0:0:
169,214,67032,2,0,L|178:280,1,52.2500015945435,0|0,2:0|3:0,0:0:0:0:
192,276,67338,1,2,3:2:0:0:
397,367,67798,6,0,P|403:344|403:309,1,52.2500015945435,0|8,0:0|3:0,0:0:0:0:
477,205,68257,1,0,3:2:0:0:
472,184,68410,1,0,3:2:0:0:
461,166,68563,2,0,B|345:151|379:227|258:210,1,209.000006378174,2|8,3:2|3:0,0:0:0:0:
213,53,69634,1,0,3:0:0:0:
213,53,69787,2,0,P|271:78|266:116,1,104.500003189087,2|0,3:2|3:2,0:0:0:0:
139,169,70400,2,0,L|190:174,1,52.2500015945435,8|2,3:0|3:2,0:0:0:0:
28,222,70859,5,0,3:2:0:0:
28,222,71012,1,2,3:2:0:0:
78,330,71318,1,0,2:0:0:0:
161,269,71624,1,8,3:0:0:0:
161,269,71777,2,0,L|247:286,1,52.2500015945435,0|0,0:0|2:0,0:0:0:0:
308,234,72236,6,0,B|338:210|338:210|318:139|318:139|275:169|275:169|213:159,1,213.750008153916,2|0,3:2|3:2,0:0:0:0:
170,104,73461,6,0,L|91:121,3,52.2500015945435,2|0|0|0,3:0|0:0|3:0|3:0,0:0:0:0:
70,174,74073,2,0,P|99:239|83:310,1,104.500003189087,10|0,3:2|3:0,0:0:0:0:
89,284,74532,1,0,3:0:0:0:
84,299,74685,2,0,L|149:308,1,52.2500015945435,2|0,3:2|0:0,0:0:0:0:
159,326,74992,2,0,L|224:335,1,52.2500015945435,0|0,3:0|3:0,0:0:0:0:
284,289,75298,1,10,3:2:0:0:
215,187,75604,1,0,3:0:0:0:
303,83,75910,6,0,P|336:83|367:95,1,52.2500015945435,2|0,3:2|0:0,0:0:0:0:
385,86,76216,2,0,P|410:107|426:136,1,52.2500015945435,0|0,3:0|3:0,0:0:0:0:
445,141,76522,1,10,3:2:0:0:
359,225,76828,1,0,3:0:0:0:
464,281,77134,2,0,L|458:334,3,52.2500015945435,2|0|0|0,3:2|0:0|3:0|3:0,0:0:0:0:
393,373,77747,1,10,3:2:0:0:
377,375,77900,1,0,0:0:0:0:
361,378,78053,2,0,P|329:361|305:358,1,52.2500015945435,0|0,3:0|3:0,0:0:0:0:
248,307,78359,6,0,L|237:252,3,52.2500015945435,2|0|0|0,3:2|0:0|3:0|3:0,0:0:0:0:
267,184,78971,1,10,3:2:0:0:
167,102,79277,2,0,L|189:32,1,52.2500015945435,0|0,3:0|3:0,0:0:0:0:
257,14,79583,2,0,L|324:34,3,52.2500015945435,2|0|0|0,3:2|0:0|3:0|3:0,0:0:0:0:
388,7,80196,1,10,3:2:0:0:
457,120,80502,1,0,3:0:0:0:
347,200,80808,5,2,3:2:0:0:
343,214,80961,1,0,0:0:0:0:
339,228,81114,2,0,L|349:291,1,52.2500015945435,0|0,3:0|3:0,0:0:0:0:
295,344,81420,2,0,P|241:344|191:383,1,104.500003189087,10|0,3:2|3:0,0:0:0:0:
104,279,82032,1,2,3:2:0:0:
107,263,82185,1,0,0:0:0:0:
111,248,82338,1,0,3:0:0:0:
115,233,82492,1,0,3:0:0:0:
118,216,82645,2,0,L|111:153,3,52.2500015945435,10|0|0|0,3:2|0:0|3:0|3:0,0:0:0:0:
165,104,83257,6,0,P|196:87|222:80,1,52.2500015945435,2|0,3:2|0:0,0:0:0:0:
243,95,83563,2,0,P|277:101|302:113,1,52.2500015945435,0|0,3:0|3:0,0:0:0:0:
308,138,83869,1,10,3:2:0:0:
400,66,84175,2,0,L|461:77,1,52.2500015945435,0|0,3:0|3:0,0:0:0:0:
496,149,84481,1,2,3:2:0:0:
494,164,84634,1,0,0:0:0:0:
492,179,84787,1,0,3:0:0:0:
491,194,84941,1,0,3:0:0:0:
490,209,85094,2,0,P|518:255|514:322,1,104.500003189087,10|0,3:2|3:0,0:0:0:0:
368,365,85706,6,0,P|342:347|314:343,2,52.2500015945435,2|0|0,3:2|0:0|3:0,0:0:0:0:
413,294,86165,1,0,3:0:0:0:
413,294,86318,2,0,P|408:260|355:208,1,104.500003189087,10|0,3:2|3:0,0:0:0:0:
208,281,86930,2,0,L|153:295,3,52.2500015945435,2|0|0|0,3:2|0:0|3:0|3:0,0:0:0:0:
91,246,87543,1,10,3:2:0:0:
88,230,87696,1,0,0:0:0:0:
85,214,87849,2,0,P|93:180|93:154,1,52.2500015945435,0|0,3:0|3:0,0:0:0:0:
146,93,88155,6,0,L|137:34,2,52.2500015945435,2|0|0,3:2|0:0|3:0,0:0:0:0:
217,142,88614,1,0,3:0:0:0:
217,142,88767,2,0,P|268:100|322:109,1,104.500003189087,10|0,3:2|3:0,0:0:0:0:
361,167,89226,1,0,3:0:0:0:
361,167,89379,2,0,L|350:221,3,52.2500015945435,2|0|0|0,3:2|0:0|3:0|3:0,0:0:0:0:
281,264,89992,1,10,3:2:0:0:
373,349,90298,1,0,3:0:0:0:
201,381,90604,6,0,L|190:326,1,52.2500015945435,2|0,3:2|0:0,0:0:0:0:
166,311,90910,2,0,L|155:256,1,52.2500015945435,0|0,3:0|3:0,0:0:0:0:
131,241,91216,2,0,P|136:174|178:164,1,104.500003189087,10|0,3:2|3:0,0:0:0:0:
284,60,91828,2,0,L|292:123,3,52.2500015945435,2|0|0|0,3:2|0:0|3:0|3:0,0:0:0:0:
357,160,92441,1,10,3:2:0:0:
372,156,92594,1,0,0:0:0:0:
387,125,92747,1,0,3:0:0:0:
402,121,92900,1,0,3:0:0:0:
471,158,93053,6,0,P|476:171|475:192,4,28.4999991302491,2|0|0|0|2,3:2|0:0|3:0|3:0|3:2,0:0:0:0:
372,287,94277,1,2,3:2:0:0:
241,129,94889,6,0,B|207:114|175:120|162:143,1,85.4999973907472,2|0,3:2|0:0,0:0:0:0:
155,221,95502,2,0,B|155:143|88:160|74:92|110:48,1,170.999994781494,2|0,3:2|3:0,0:0:0:0:
245,20,96726,2,0,B|297:60|355:15|390:12|434:80|425:80,1,199.499993911743,2|0,3:2|0:0,0:0:0:0:
448,89,97951,6,0,L|445:128,3,28.4999991302491,2|0|0|0,3:2|0:0|3:0|3:0,0:0:0:0:
388,171,98563,1,2,3:2:0:0:
442,254,98869,1,0,3:0:0:0:
327,339,99175,2,0,L|324:300,3,28.4999991302491,2|0|0|0,3:2|0:0|3:0|3:0,0:0:0:0:
275,255,99787,2,0,P|257:246|240:249,1,28.4999991302491,2|0,3:2|0:0,0:0:0:0:
233,265,100094,2,0,P|215:274|198:271,1,28.4999991302491,0|0,3:0|0:0,0:0:0:0:
150,217,100400,2,0,B|137:169|160:131|226:130|252:92|226:24|172:20,2,227.999993041992,2|2|2,3:2|3:2|3:2,0:0:0:0:
246,291,103155,5,0,3:0:0:0:
317,230,103461,2,0,L|380:237,1,56.9999982604981,2|0,3:2|3:0,0:0:0:0:
309,119,104073,2,0,L|303:90,3,28.4999991302491,2|0|0|0,3:2|0:0|3:0|3:0,0:0:0:0:
318,66,104685,2,0,P|333:26|363:51,1,85.4999973907472,2|0,3:2|0:0,0:0:0:0:
383,57,105298,2,0,B|331:108|420:149|395:232,1,170.999994781494,2|0,3:2|3:0,0:0:0:0:
268,321,106522,6,0,L|259:287,3,28.4999991302491,2|0|0|0,3:2|0:0|3:0|3:0,0:0:0:0:
195,241,107134,1,2,3:2:0:0:
183,242,107287,1,0,0:0:0:0:
171,244,107441,1,0,3:0:0:0:
159,246,107594,1,0,0:0:0:0:
132,214,107747,6,0,B|106:168|149:123|202:132|206:167|254:164,1,170.999994781494,2|0,3:2|3:0,0:0:0:0:
341,94,108971,2,0,P|361:97|370:103,3,28.4999991302491,2|0|0|0,3:2|0:0|3:0|3:0,0:0:0:0:
433,57,109583,2,0,B|469:50|502:62|519:89,1,85.4999973907472,2|0,3:2|0:0,0:0:0:0:
509,106,110196,2,0,B|517:188|485:187|494:286,1,170.999994781494,2|0,3:2|3:0,0:0:0:0:
401,367,111420,2,0,P|394:345|385:333,3,28.4999991302491,2|0|0|0,3:2|0:0|3:0|3:0,0:0:0:0:
322,297,112032,1,2,3:2:0:0:
310,299,112185,1,0,0:0:0:0:
286,285,112338,1,0,3:0:0:0:
274,287,112491,1,0,3:0:0:0:
242,274,112645,6,0,L|246:235,3,28.4999991302491,2|0|0|0,3:2|0:0|3:0|3:0,0:0:0:0:
305,190,113257,1,2,3:2:0:0:
233,117,113563,1,0,3:0:0:0:
129,186,113869,2,0,L|79:193,3,28.4999991302491,2|0|0|0,3:2|0:0|3:0|3:0,0:0:0:0:
41,250,114481,1,2,3:2:0:0:
43,261,114634,1,0,0:0:0:0:
69,281,114787,1,0,3:0:0:0:
71,292,114940,1,0,0:0:0:0:
101,327,115094,6,0,B|103:290|142:270|207:279,1,113.999996520996,2|2,3:2|3:2,0:0:0:0:
270,213,116012,1,0,3:0:0:0:
351,330,116318,2,0,P|391:323|386:279,1,85.4999973907472,2|0,3:2|3:0,0:0:0:0:
409,264,116930,2,0,P|443:241|469:277,1,85.4999973907472,2|0,3:2|3:0,0:0:0:0:
492,290,117543,6,0,L|508:158,1,113.999996520996,6|0,1:2|3:0,0:0:0:0:
439,137,118002,1,2,2:0:0:0:
430,122,118155,1,0,3:0:0:0:
502,32,118461,1,2,2:0:0:0:
345,6,118767,2,0,L|283:19,3,56.9999982604981,0|0|0|2,1:0|3:0|0:0|2:0,0:0:0:0:
267,40,119379,2,0,B|311:74|305:131|238:125|262:220,1,170.999994781494,0|0,3:0|3:0,0:0:0:0:
322,242,119992,5,0,1:0:0:0:
338,238,120145,1,0,0:0:0:0:
354,234,120298,1,0,3:0:0:0:
370,230,120451,1,2,2:0:0:0:
386,226,120604,1,0,3:0:0:0:
327,126,120910,1,2,2:0:0:0:
447,51,121216,2,0,L|459:112,3,56.9999982604981,0|0|0|2,1:0|3:0|0:0|2:0,0:0:0:0:
417,176,121828,2,0,P|378:176|365:161,1,56.9999982604981,0|0,3:0|0:0,0:0:0:0:
341,147,122134,2,0,P|302:147|289:162,1,56.9999982604981,2|2,2:0|3:2,0:0:0:0:
242,233,122441,5,0,1:2:0:0:
225,236,122594,1,0,0:0:0:0:
208,239,122747,1,0,3:0:0:0:
191,242,122900,1,2,2:0:0:0:
174,245,123053,2,0,P|219:273|236:337,1,113.999996520996,0|2,3:0|2:0,0:0:0:0:
97,375,123665,2,0,L|41:364,3,56.9999982604981,0|0|0|2,1:0|3:0|0:0|2:0,0:0:0:0:
3,297,124277,2,0,B|20:196|75:246|99:141,1,170.999994781494,0|0,3:0|3:0,0:0:0:0:
47,86,124889,5,0,1:0:0:0:
43,69,125043,1,0,0:0:0:0:
40,52,125196,1,0,3:0:0:0:
37,35,125349,1,2,2:0:0:0:
34,18,125502,2,0,P|13:71|12:137,1,113.999996520996,0|2,3:0|2:0,0:0:0:0:
86,226,126114,1,0,1:0:0:0:
102,220,126267,1,0,3:0:0:0:
141,225,126420,2,0,P|172:233|188:255,1,56.9999982604981,0|2,0:0|2:0,0:0:0:0:
225,258,126726,2,0,P|256:250|272:228,1,56.9999982604981,0|0,3:0|0:0,0:0:0:0:
301,205,127032,2,0,P|306:177|294:152,1,56.9999982604981,2|2,2:0|3:2,0:0:0:0:
258,135,127338,6,0,L|486:97,1,227.999993041992,0|0,1:0|3:0,0:0:0:0:
423,191,128257,1,2,2:0:0:0:
488,299,128563,2,0,L|430:287,3,56.9999982604981,0|0|0|2,1:0|3:0|0:0|2:0,0:0:0:0:
370,338,129175,2,0,B|305:316|320:378|229:366|227:305,1,170.999994781494,0|0,3:0|3:0,0:0:0:0:
288,246,129787,5,0,1:0:0:0:
289,234,129941,1,0,0:0:0:0:
290,222,130094,2,0,L|298:150,2,56.9999982604981,0|2|0,3:0|2:0|3:0,0:0:0:0:
215,135,130706,1,2,2:0:0:0:
136,238,131012,1,0,1:0:0:0:
60,128,131318,2,0,B|79:94|52:64|114:30,2,113.999996520996,0|0|2,0:0|3:0|2:0,0:0:0:0:
14,189,132083,1,2,3:2:0:0:
19,202,132236,6,0,L|94:208,1,56.9999982604981,0|0,1:2|0:0,0:0:0:0:
96,230,132543,2,0,L|171:236,1,56.9999982604981,0|2,3:0|2:0,0:0:0:0:
173,258,132849,2,0,B|169:257|197:125,1,113.999996520996,0|2,3:0|2:0,0:0:0:0:
297,75,133461,1,0,1:0:0:0:
313,78,133614,1,0,3:0:0:0:
333,97,133767,1,0,0:0:0:0:
349,100,133920,1,2,2:0:0:0:
369,119,134073,2,0,B|390:85|420:66|469:72|481:143|429:176,1,170.999994781494,0|0,3:0|3:0,0:0:0:0:
403,236,134685,6,0,L|333:246,1,56.9999982604981,0|0,1:0|0:0,0:0:0:0:
288,294,134992,1,0,3:0:0:0:
285,310,135145,1,2,2:0:0:0:
282,326,135298,1,0,3:0:0:0:
243,212,135604,2,0,B|247:171|211:102|109:139|133:192|51:184,1,227.999993041992,2|0,2:0|0:0,0:0:0:0:
0,22,136522,1,0,3:0:0:0:
4,5,136675,1,0,0:0:0:0:
45,82,136828,2,0,L|107:90,1,56.9999982604981,2|2,2:0|3:2,0:0:0:0:
164,35,137134,6,0,B|177:18|177:18|296:30,1,113.999996520996,0|0,1:2|3:0,0:0:0:0:
342,66,137594,1,2,2:0:0:0:
350,79,137747,2,0,L|339:146,1,56.9999982604981,0|0,3:0|0:0,0:0:0:0:
395,189,138053,1,2,2:0:0:0:
411,191,138206,1,0,0:0:0:0:
427,193,138359,1,0,1:0:0:0:
298,258,138665,1,0,0:0:0:0:
281,262,138818,1,2,2:0:0:0:
227,319,138971,2,0,B|127:293|170:385|61:349,1,170.999994781494,0|0,3:0|3:0,0:0:0:0:
35,281,139583,5,0,1:0:0:0:
39,264,139736,1,0,0:0:0:0:
43,247,139889,2,0,P|59:212|84:198,2,56.9999982604981,0|2|0,3:0|2:0|3:0,0:0:0:0:
169,115,140502,2,0,B|109:135|110:92|46:119,2,113.999996520996,2|0|0,2:0|1:0|0:0,0:0:0:0:
225,60,141267,1,2,2:0:0:0:
229,46,141420,1,0,3:0:0:0:
307,152,141726,2,0,B|325:151|325:151|329:144|329:144|379:141,1,56.9999982604981,2|2,2:0|3:2,0:0:0:0:
418,193,142032,6,0,L|412:268,1,56.9999982604981,0|0,1:0|0:0,0:0:0:0:
390,270,142339,2,0,L|384:345,1,56.9999982604981,0|2,3:0|2:0,0:0:0:0:
412,352,142645,2,0,B|413:348|298:369,1,113.999996520996,0|2,3:0|2:0,0:0:0:0:
193,300,143257,1,0,1:0:0:0:
177,303,143410,1,0,3:0:0:0:
157,322,143563,1,0,0:0:0:0:
141,325,143716,1,2,2:0:0:0:
109,345,143869,2,0,B|95:300|55:284|23:319|-12:241|16:205,1,170.999994781494,0|0,3:0|3:0,0:0:0:0:
65,161,144481,6,0,L|135:151,1,56.9999982604981,0|0,1:0|0:0,0:0:0:0:
174,94,144788,1,0,3:0:0:0:
171,78,144941,1,2,2:0:0:0:
168,62,145094,1,0,3:0:0:0:
253,164,145400,2,0,B|222:206|251:254|294:259|366:250|347:200|436:225,1,227.999993041992,2|0,2:0|0:0,0:0:0:0:
347,350,146318,1,0,3:0:0:0:
330,355,146471,1,0,0:0:0:0:
289,334,146624,2,0,B|257:337|257:337|233:354,1,56.9999982604981,2|2,2:0|3:2,0:0:0:0:
161,330,146930,6,0,P|144:295|131:214,1,113.999996520996,0|0,1:0|3:0,0:0:0:0:
227,104,147543,1,0,3:0:0:0:
233,120,147696,1,0,0:0:0:0:
239,136,147849,2,0,L|222:213,1,56.9999982604981,2|0,2:0|0:0,0:0:0:0:
289,241,148155,1,0,1:0:0:0:
300,228,148308,1,0,3:0:0:0:
312,216,148461,2,0,L|329:139,1,56.9999982604981,0|2,0:0|2:0,0:0:0:0:
388,116,148767,2,0,B|450:102|474:176|398:196|428:215|445:289,1,170.999994781494,0|0,3:0|3:0,0:0:0:0:
433,330,149379,6,0,L|498:343,2,56.9999982604981,0|0|0,1:0|0:0|3:0,0:0:0:0:
358,290,149838,1,2,2:0:0:0:
358,290,149992,2,0,L|293:303,1,56.9999982604981,0|0,3:0|0:0,0:0:0:0:
245,362,150298,2,0,B|192:360|174:307|212:204,1,170.999994781494,2|0,2:0|3:0,0:0:0:0:
156,159,150910,1,0,0:0:0:0:
139,162,151063,1,2,2:0:0:0:
122,166,151216,2,0,L|112:90,1,56.9999982604981,0|0,3:0|0:0,0:0:0:0:
189,63,151522,1,2,2:0:0:0:
206,66,151675,1,2,3:2:0:0:
264,19,151828,1,4,1:2:0:0:
357,168,152287,5,0,3:0:0:0:
357,168,152440,1,8,2:0:0:0:
260,267,152746,2,0,P|261:238|275:214,1,56.9999982604981,0|0,3:0|3:0,0:0:0:0:
270,140,153053,2,0,P|176:124|157:200,1,170.999994781494,0|0,1:0|1:0,0:0:0:0:
98,240,153665,2,0,B|69:247|69:247|45:230,1,56.9999982604981,8|0,2:0|1:0,0:0:0:0:
163,329,154124,1,0,3:0:0:0:
163,329,154277,2,0,P|219:281|285:349,1,170.999994781494,0|0,1:0|3:0,0:0:0:0:
352,375,154889,1,8,2:0:0:0:
380,252,155196,1,0,3:0:0:0:
244,160,155502,6,0,B|298:74|338:154|402:65,1,170.999994781494,0|0,1:0|1:0,0:0:0:0:
460,116,156114,1,8,2:0:0:0:
464,132,156267,1,0,1:0:0:0:
468,148,156420,1,0,3:0:0:0:
472,164,156573,1,0,3:0:0:0:
476,180,156726,2,0,P|468:276|344:249,1,227.999993041992,0|8,1:2|2:0,0:0:0:0:
169,336,157798,1,0,3:0:0:0:
169,336,157951,2,0,P|200:295|256:379,1,170.999994781494,0|0,1:0|1:0,0:0:0:0:
345,382,158563,1,8,2:0:0:0:
403,285,158869,1,0,3:0:0:0:
307,163,159175,6,0,P|311:135|324:102,1,56.9999982604981,0|0,1:0|3:0,0:0:0:0:
195,228,159634,1,0,3:0:0:0:
195,228,159787,2,0,P|180:203|168:170,1,56.9999982604981,8|0,2:0|1:0,0:0:0:0:
112,124,160093,1,0,3:0:0:0:
108,87,160246,1,0,3:0:0:0:
129,56,160400,2,0,B|252:26|321:34|331:110,1,227.999993041992,0|8,1:0|2:0,0:0:0:0:
512,137,161471,1,0,3:0:0:0:
512,137,161624,2,0,B|423:132|377:163|377:221,1,170.999994781494,0|0,1:2|3:0,0:0:0:0:
415,276,162236,1,8,2:0:0:0:
337,363,162542,1,0,3:0:0:0:
230,257,162849,6,0,P|219:290|216:316,1,56.9999982604981,0|0,1:0|3:0,0:0:0:0:
150,183,163308,1,0,1:0:0:0:
150,183,163461,2,0,P|120:201|101:219,1,56.9999982604981,8|0,2:0|1:0,0:0:0:0:
41,170,163767,1,0,3:0:0:0:
35,131,163920,1,0,3:0:0:0:
54,97,164073,2,0,P|137:62|211:132,1,170.999994781494,0|0,1:0|3:0,0:0:0:0:
271,130,164685,2,0,B|288:119|288:119|293:78,1,56.9999982604981,8|0,2:0|1:0,0:0:0:0:
358,201,165144,1,0,3:0:0:0:
358,201,165298,2,0,P|415:182|433:231,1,113.999996520996,0|0,1:0|3:0,0:0:0:0:
472,290,165757,1,0,1:0:0:0:
468,306,165910,1,8,2:0:0:0:
342,361,166216,1,0,3:0:0:0:
238,258,166522,6,0,P|222:290|217:319,1,56.9999982604981,0|0,1:2|3:0,0:0:0:0:
75,179,166981,1,0,3:0:0:0:
91,174,167134,1,8,2:0:0:0:
125,186,167287,1,0,1:0:0:0:
141,181,167441,2,0,P|170:171|206:141,1,56.9999982604981,0|0,3:0|3:0,0:0:0:0:
229,86,167746,2,0,P|228:145|179:279,1,170.999994781494,0|0,1:0|1:0,0:0:0:0:
225,327,168359,2,0,B|245:339|245:339|305:324,1,56.9999982604981,8|0,2:0|1:0,0:0:0:0:
388,228,168818,1,0,3:0:0:0:
388,228,168971,2,0,P|423:268|417:335,1,113.999996520996,0|0,1:0|0:0,0:0:0:0:
281,243,169583,2,0,L|201:234,1,56.9999982604981,8|0,2:0|1:0,0:0:0:0:
202,208,169889,2,0,L|122:199,1,56.9999982604981,0|0,3:0|3:0,0:0:0:0:
120,168,170195,1,0,1:0:0:0:
347,21,170655,6,0,P|346:53|340:78,1,56.9999982604981,0|0,1:0|0:0,0:0:0:0:
395,149,170961,1,0,1:0:0:0:
421,170,171114,1,0,3:0:0:0:
434,201,171267,1,0,3:0:0:0:
436,235,171420,2,0,B|325:252|389:296|268:317,1,170.999994781494,0|0,1:2|3:0,0:0:0:0:
234,248,172032,2,0,B|253:225|253:225|283:235,1,56.9999982604981,8|0,2:0|1:0,0:0:0:0:
148,143,172491,1,0,3:0:0:0:
148,143,172644,2,0,P|90:168|99:213,1,113.999996520996,0|0,1:0|0:0,0:0:0:0:
230,108,173257,2,0,L|217:49,1,56.9999982604981,8|0,2:0|1:0,0:0:0:0:
341,182,173716,5,0,3:0:0:0:
341,182,173869,1,0,1:0:0:0:
366,58,174175,2,0,L|529:34,1,113.999996520996,0|8,1:0|2:0,0:0:0:0:
494,123,174634,1,0,1:0:0:0:
494,123,174787,2,0,L|435:158,1,56.9999982604981,0|0,3:0|3:0,0:0:0:0:
413,226,175094,2,0,P|471:264|466:309,1,113.999996520996,0|0,1:0|3:0,0:0:0:0:
406,347,175553,2,0,L|330:336,1,56.9999982604981,0|8,1:0|2:0,0:0:0:0:
317,360,175859,1,0,1:0:0:0:
240,255,176165,1,0,3:0:0:0:
249,242,176318,6,0,L|253:176,3,52.2500015945435,2|0|0|0,1:2|3:0|1:0|3:0,0:0:0:0:
199,130,176930,2,0,L|184:20,1,104.500003189087,8|0,2:0|3:0,0:0:0:0:
108,13,177389,2,0,L|94:70,1,52.2500015945435,8|0,2:0|1:0,0:0:0:0:
37,122,177696,1,0,3:0:0:0:
40,137,177849,1,0,3:0:0:0:
43,152,178002,1,0,1:0:0:0:
46,167,178155,6,0,B|138:208|134:136|227:168,1,156.750004783631,0|0,3:0|3:0,0:0:0:0:
244,100,178767,2,0,B|236:166|236:166|266:184|266:184|257:255,1,156.750004783631,0|0,1:0|3:0,0:0:0:0:
287,266,179379,1,8,2:0:0:0:
361,178,179685,1,0,3:0:0:0:
361,178,179838,2,0,L|432:190,1,52.2500015945435,8|0,2:0|3:0,0:0:0:0:
487,141,180145,1,0,1:0:0:0:
485,125,180298,1,0,3:0:0:0:
483,109,180451,1,0,1:0:0:0:
504,82,180604,2,0,L|454:68,3,52.2500015945435,0|0|0|0,1:0|3:0|3:0|3:0,0:0:0:0:
384,16,181216,6,0,B|325:6|292:30|285:56,1,104.500003189087,2|0,1:2|1:0,0:0:0:0:
228,96,181675,1,0,3:0:0:0:
228,96,181828,2,0,L|236:174,2,52.2500015945435,8|0|0,2:0|1:0|3:0,0:0:0:0:
322,136,182287,2,0,L|305:212,1,52.2500015945435,8|0,2:0|1:0,0:0:0:0:
364,247,182594,1,0,3:0:0:0:
379,249,182747,1,0,3:0:0:0:
394,251,182900,1,0,1:0:0:0:
409,254,183053,6,0,B|452:278|439:336|368:362|335:337|319:319,1,156.750004783631,0|0,3:0|3:0,0:0:0:0:
271,367,183665,2,0,B|164:380|205:329|121:326,1,156.750004783631,0|0,1:0|3:0,0:0:0:0:
62,283,184277,2,0,L|92:229,1,52.2500015945435,8|0,2:0|1:0,0:0:0:0:
62,159,184583,1,0,3:0:0:0:
62,159,184736,2,0,L|124:135,1,52.2500015945435,8|0,2:0|3:0,0:0:0:0:
166,85,185043,2,0,P|160:61|141:39,2,52.2500015945435,0|0|0,1:0|3:0|1:0,0:0:0:0:
226,144,185502,1,0,1:0:0:0:
241,147,185655,1,0,3:0:0:0:
256,150,185808,1,0,3:0:0:0:
271,153,185961,1,0,3:0:0:0:
286,156,186114,6,0,L|345:149,1,52.2500015945435,2|0,1:2|3:0,0:0:0:0:
369,173,186420,2,0,L|428:166,1,52.2500015945435,0|0,1:0|3:0,0:0:0:0:
455,192,186726,2,0,P|479:248|474:297,1,104.500003189087,8|0,2:0|3:0,0:0:0:0:
418,343,187185,2,0,L|355:359,1,52.2500015945435,8|0,2:0|1:0,0:0:0:0:
300,317,187492,1,0,3:0:0:0:
295,301,187645,1,0,3:0:0:0:
291,285,187798,1,0,1:0:0:0:
288,269,187951,1,0,3:0:0:0:
187,339,188257,1,0,3:0:0:0:
129,213,188563,6,0,P|140:186|162:159,1,52.2500015945435,0|0,1:0|3:0,0:0:0:0:
166,131,188869,2,0,P|191:117|225:110,1,52.2500015945435,0|0,1:0|3:0,0:0:0:0:
247,91,189175,2,0,P|307:115|303:156,1,104.500003189087,8|0,2:0|3:0,0:0:0:0:
351,215,189634,2,0,L|419:220,1,52.2500015945435,8|0,2:0|3:0,0:0:0:0:
460,162,189941,1,0,1:0:0:0:
456,141,190094,1,0,3:0:0:0:
451,120,190247,1,0,1:0:0:0:
422,97,190400,2,0,L|435:43,3,52.2500015945435,0|0|0|0,1:0|3:0|3:0|3:0,0:0:0:0:
366,0,191012,6,0,B|277:5|309:66|233:73,1,156.750004783631,2|0,1:2|3:0,0:0:0:0:
176,128,191624,2,0,L|113:120,1,52.2500015945435,8|0,2:0|1:0,0:0:0:0:
131,204,191930,1,0,3:0:0:0:
131,204,192083,2,0,L|68:212,1,52.2500015945435,8|0,2:0|1:0,0:0:0:0:
51,290,192389,1,0,3:0:0:0:
71,293,192543,1,0,3:0:0:0:
91,296,192696,1,0,1:0:0:0:
112,300,192849,2,0,L|222:280,1,104.500003189087,0|0,3:0|3:0,0:0:0:0:
353,373,193461,6,0,B|324:374|289:328|332:225,1,156.750004783631,0|0,1:0|3:0,0:0:0:0:
280,166,194073,2,0,L|222:154,1,52.2500015945435,8|0,2:0|1:0,0:0:0:0:
278,83,194379,1,0,3:0:0:0:
278,83,194532,2,0,L|226:56,1,52.2500015945435,8|0,2:0|3:0,0:0:0:0:
144,82,194838,2,0,L|66:67,2,52.2500015945435,0|0|0,1:0|3:0|1:0,0:0:0:0:
98,157,195298,1,0,1:0:0:0:
77,162,195451,1,0,3:0:0:0:
56,167,195604,1,0,3:0:0:0:
35,172,195757,1,0,3:0:0:0:
0,206,195910,6,0,B|-10:278|61:266|99:332|58:397|12:388,1,209.000006378174,0|2,1:0|3:2,0:0:0:0:
387,277,204481,6,0,P|373:168|351:75,1,182.875005580902
345,90,205706,6,0,B|276:106|276:106|270:140|270:140|177:167,1,185.249991519928,2|0,1:3|0:0,0:0:0:0:
156,228,206318,2,0,P|152:160|92:153,1,123.499994346619,12|0,3:2|3:0,0:0:0:0:
46,89,206777,1,8,2:0:0:0:
61,67,206930,2,0,P|85:56|124:62,2,61.7499971733095,2|8|0,1:3|2:0|1:0,0:0:0:0:
6,182,207543,2,0,L|-1:247,2,41.1666647822063,8|8|8,3:2|2:0|2:0,0:0:0:0:
80,192,207849,2,0,L|73:257,2,41.1666647822063,8|8|8,2:0|2:0|2:0,0:0:0:0:
148,147,208155,6,0,P|220:174|216:237,1,123.499994346619,4|0,1:2|1:0,0:0:0:0:
270,82,208767,2,0,P|301:70|341:67,1,61.7499971733095,10|0,3:2|0:0,0:0:0:0:
396,120,209073,1,8,2:3:0:0:
402,150,209226,1,0,0:0:0:0:
411,179,209379,2,0,L|433:30,1,123.499994346619,4|8,2:0|2:0,0:0:0:0:
488,221,209992,1,4,1:3:0:0:
487,239,210145,1,0,3:2:0:0:
462,267,210298,1,8,2:0:0:0:
461,285,210451,1,8,2:3:0:0:
398,328,210604,6,0,B|333:257|333:257|224:308,1,185.249991519928,4|0,1:2|0:0,0:0:0:0:
186,331,211216,1,8,3:2:0:0:
74,181,211522,2,0,L|66:123,2,41.1666647822063,2|8|8,3:0|2:0|2:0,0:0:0:0:
141,227,211828,1,4,1:3:0:0:
148,224,211930,1,8,2:3:0:0:
156,222,212032,1,8,2:0:0:0:
164,222,212134,2,0,P|202:227|220:236,2,41.1666647822063,0|8|0,1:3|2:0|1:0,0:0:0:0:
174,145,212441,2,0,L|165:94,2,41.1666647822063,6|8|8,2:3|2:3|2:3,0:0:0:0:
249,128,212747,2,0,L|242:88,2,41.1666647822063,4|4|4,2:3|2:3|2:3,0:0:0:0:
309,186,213053,6,0,B|394:203|394:203|405:289|405:289|493:310,1,246.999988693238,4|10,1:2|2:0,0:0:0:0:
277,367,213971,2,0,L|243:374,3,30.8749985866547,8|8|8|8,2:3|2:3|2:3|2:3,0:0:0:0:
326,269,214430,1,8,2:0:0:0:
326,269,214583,1,8,2:0:0:0:
201,189,214889,1,8,3:0:0:0:
182,192,215043,1,0,1:0:0:0:
152,221,215196,1,4,2:3:0:0:
133,224,215350,1,8,2:3:0:0:
87,285,215502,6,0,B|95:225|39:206|58:138,1,142.500005435944,4|8,1:2|3:2,0:0:0:0:
187,69,216573,1,8,3:2:0:0:
187,69,216726,2,0,P|156:67|143:69,2,35.625001358986,0|8|0,3:2|3:2|1:0,0:0:0:0:
251,158,217338,2,0,P|265:108|315:127,1,106.875004076958,8|8,3:2|3:2,0:0:0:0:
335,112,217951,6,0,B|406:122|409:67|476:87,1,142.500005435944,0|8,1:2|3:2,0:0:0:0:
512,158,218716,1,0,1:0:0:0:
512,158,218869,2,0,L|505:206,1,35.625001358986,0|8,3:0|3:2,0:0:0:0:
445,247,219175,2,0,B|382:251|352:198|295:148|217:219,1,249.375009512902,0|0,3:2|3:0,0:0:0:0:
156,274,220400,6,0,B|113:297|81:266|75:220|105:182,1,142.500005435944,0|8,1:2|3:2,0:0:0:0:
86,117,221165,1,0,3:0:0:0:
86,117,221318,2,0,P|108:105|127:103,1,35.625001358986,0|8,3:0|3:2,0:0:0:0:
196,130,221624,2,0,L|204:164,3,35.625001358986,0|8|0|0,3:2|3:2|1:0|3:0,0:0:0:0:
274,204,222236,2,0,P|284:224|280:243,1,35.625001358986,8|0,3:2|3:0,0:0:0:0:
261,250,222543,2,0,P|251:270|255:289,1,35.625001358986,0|8,3:0|3:2,0:0:0:0:
325,315,222849,6,0,B|392:300|392:300|397:306|397:306|482:289,1,142.500005435944,0|8,1:2|3:2,0:0:0:0:
477,271,223614,1,0,1:0:0:0:
379,201,223920,1,8,3:2:0:0:
379,201,224073,2,0,B|349:147|354:83|394:52|466:59|480:116|454:154,1,249.375009512902,0|0,3:2|3:0,0:0:0:0:
447,155,225298,6,0,B|310:140|310:140|274:87,1,185.249991519928,2|0,1:3|0:0,0:0:0:0:
213,59,225910,2,0,P|246:113|233:175,1,123.499994346619,12|0,3:2|3:0,0:0:0:0:
156,199,226369,1,8,2:0:0:0:
140,179,226522,2,0,P|117:162|70:160,2,61.7499971733095,2|8|0,1:3|2:0|1:0,0:0:0:0:
68,287,227134,2,0,L|17:296,2,41.1666647822063,8|8|8,3:2|2:0|2:0,0:0:0:0:
82,359,227441,2,0,L|31:368,2,41.1666647822063,8|8|8,2:0|2:0|2:0,0:0:0:0:
161,384,227747,6,0,B|217:355|217:355|196:241,1,123.499994346619,4|0,1:2|1:0,0:0:0:0:
192,153,228359,1,10,3:2:0:0:
322,221,228665,2,0,L|319:291,1,61.7499971733095,8|0,2:3|0:0,0:0:0:0:
378,340,228971,2,0,P|436:341|440:273,1,123.499994346619,4|8,2:0|2:0,0:0:0:0:
468,178,229583,1,4,1:3:0:0:
462,160,229736,1,0,3:2:0:0:
472,121,229889,1,8,2:0:0:0:
466,103,230042,1,8,2:3:0:0:
402,53,230196,6,0,B|326:72|326:72|354:182,1,185.249991519928,4|0,1:2|0:0,0:0:0:0:
310,240,230808,1,8,3:2:0:0:
181,168,231114,2,0,P|194:148|223:135,2,41.1666647822063,2|8|8,3:0|2:0|2:0,0:0:0:0:
132,228,231420,1,4,1:3:0:0:
133,236,231522,1,8,2:3:0:0:
134,244,231624,1,8,2:0:0:0:
134,252,231726,2,0,P|150:273|175:286,2,41.1666647822063,0|8|0,1:3|2:0|1:0,0:0:0:0:
54,220,232032,2,0,L|6:232,2,41.1666647822063,6|8|8,2:3|2:3|2:3,0:0:0:0:
44,146,232338,2,0,L|-4:158,2,41.1666647822063,4|4|4,2:3|2:3|2:3,0:0:0:0:
97,89,232645,6,0,P|155:84|237:105,1,123.499994346619,4|0,1:2|1:2,0:0:0:0:
262,162,233104,1,0,0:0:0:0:
256,186,233257,1,10,2:0:0:0:
349,88,233563,2,0,L|335:48,3,30.8749985866547,8|8|8|8,2:0|2:3|2:3|2:3,0:0:0:0:
439,45,234022,1,8,2:0:0:0:
439,45,234175,1,8,2:0:0:0:
482,159,234481,1,8,3:0:0:0:
464,164,234634,1,0,1:0:0:0:
444,205,234787,1,4,2:3:0:0:
426,210,234940,1,8,2:3:0:0:
369,265,235094,6,0,B|343:217|343:217|254:206|254:206|232:163,1,185.249991519928,2|0,1:3|0:0,0:0:0:0:
207,89,235706,2,0,P|213:141|151:160,1,123.499994346619,12|0,3:2|3:0,0:0:0:0:
80,123,236165,1,8,2:0:0:0:
70,105,236318,2,0,L|1:101,2,61.7499971733095,2|8|0,1:3|2:0|1:0,0:0:0:0:
99,227,236930,2,0,L|90:278,2,41.1666647822063,8|8|8,3:2|2:0|2:0,0:0:0:0:
173,242,237237,2,0,L|164:293,2,41.1666647822063,8|8|8,2:0|2:0|2:0,0:0:0:0:
243,199,237543,6,0,B|318:231|283:371,1,185.249991519928,4|0,1:2|0:0,0:0:0:0:
367,371,238155,1,10,3:2:0:0:
458,265,238461,2,0,P|445:226|411:209,1,61.7499971733095,8|0,2:3|0:0,0:0:0:0:
378,156,238767,2,0,P|406:105|467:135,1,123.499994346619,4|8,2:0|2:0,0:0:0:0:
305,43,239379,1,4,1:3:0:0:
287,49,239532,1,0,3:2:0:0:
262,81,239685,1,8,2:0:0:0:
244,87,239838,1,8,2:3:0:0:
174,51,239992,6,0,B|116:66|112:125|146:167,1,123.499994346619,4|0,1:2|1:0,0:0:0:0:
255,253,240604,1,8,3:2:0:0:
106,273,240910,2,0,P|119:253|148:240,2,41.1666647822063,2|8|8,3:0|2:0|2:0,0:0:0:0:
160,333,241216,1,4,1:3:0:0:
168,331,241318,1,8,2:3:0:0:
176,329,241420,1,8,2:0:0:0:
184,327,241522,2,0,P|225:334|239:343,2,41.1666647822063,0|8|0,1:3|2:0|1:0,0:0:0:0:
272,269,241828,2,0,L|276:219,2,41.1666647822063,6|8|8,2:3|2:3|2:3,0:0:0:0:
346,279,242134,2,0,L|350:229,2,41.1666647822063,4|4|4,2:3|2:3|2:3,0:0:0:0:
403,336,242441,6,0,P|456:311|447:237,1,123.499994346619,4|0,1:2|1:2,0:0:0:0:
416,178,242900,1,0,0:0:0:0:
422,154,243053,1,10,2:0:0:0:
326,63,243359,2,0,L|312:23,3,30.8749985866547,8|8|8|8,2:0|2:3|2:3|2:3,0:0:0:0:
278,139,243818,1,8,2:0:0:0:
278,139,243971,1,8,2:0:0:0:
148,74,244277,1,8,3:0:0:0:
129,76,244430,1,0,1:0:0:0:
162,150,244583,1,4,2:3:0:0:
143,152,244736,1,8,2:3:0:0:
181,225,244889,1,4,1:2:0:0:
108,172,254685,6,0,P|227:169|303:187,1,190,0|8,1:2|3:2,0:0:0:0:
386,108,255604,1,0,3:0:0:0:
474,226,255910,1,0,3:2:0:0:
472,240,256063,1,8,3:2:0:0:
471,254,256216,1,0,1:0:0:0:
396,92,256522,2,0,L|387:24,1,47.5,8|0,3:2|3:0,0:0:0:0:
322,5,256828,1,0,3:0:0:0:
308,12,256981,1,8,3:2:0:0:
257,68,257134,6,0,L|277:238,1,142.5,0|0,1:2|3:0,0:0:0:0:
209,256,257747,2,0,L|146:244,1,47.5,8|0,3:2|1:0,0:0:0:0:
168,326,258053,2,0,L|88:343,1,47.5,0|8,3:0|3:2,0:0:0:0:
58,285,258359,1,0,3:2:0:0:
43,282,258512,1,8,3:2:0:0:
28,280,258665,1,0,1:0:0:0:
141,195,258971,2,0,P|166:143|236:184,1,142.5,8|0,3:2|3:0,0:0:0:0:
246,187,259583,6,0,P|291:169|392:158,1,142.5,0|0,1:2|3:0,0:0:0:0:
452,199,260196,2,0,B|491:174|491:174|479:93,1,95,8|0,3:2|3:0,0:0:0:0:
412,38,260808,1,0,3:2:0:0:
309,117,261114,1,0,1:0:0:0:
294,115,261267,1,0,3:0:0:0:
279,114,261420,1,8,3:2:0:0:
149,195,261726,5,0,3:0:0:0:
151,182,261879,1,8,3:2:0:0:
223,210,262032,1,0,1:2:0:0:
225,225,262185,1,0,3:0:0:0:
253,261,262338,2,0,L|240:338,1,47.5,0|0,1:0|3:0,0:0:0:0:
335,345,262645,2,0,L|328:298,3,47.5,8|0|0|8,3:2|1:0|3:0|3:2,0:0:0:0:
394,244,263257,2,0,L|403:183,1,47.5,0|8,3:2|3:2,0:0:0:0:
313,199,263563,2,0,L|305:128,1,47.5,0|0,1:0|3:0,0:0:0:0:
243,105,263869,1,8,3:2:0:0:
228,105,264022,1,0,1:0:0:0:
178,45,264175,1,0,3:0:0:0:
163,45,264328,1,0,3:0:0:0:
106,101,264481,6,0,B|114:154|114:154|121:157|121:157|130:216,1,104.500003189087,4|0,1:2|1:0,0:0:0:0:
69,249,264941,1,0,3:1:0:0:
69,249,265094,2,0,P|79:316|119:307,1,104.500003189087,8|0,3:2|3:0,0:0:0:0:
223,242,265706,2,0,L|234:311,1,52.2500015945435,0|8,3:2|3:2,0:0:0:0:
307,316,266012,1,0,1:0:0:0:
317,305,266165,1,0,3:0:0:0:
330,230,266318,6,0,B|318:180|318:180|429:148|429:148|415:92,1,213.750008153916,8|8,3:2|3:2,0:0:0:0:
358,49,266930,6,0,P|290:41|309:108,1,156.750004783631,0|0,1:2|3:0,0:0:0:0:
315,121,267543,1,8,3:2:0:0:
196,195,267849,1,0,3:0:0:0:
344,266,268155,1,0,3:2:0:0:
344,266,268461,1,0,1:0:0:0:
159,323,268767,6,0,B|128:328|128:328|122:337|122:337|83:346,1,71.2500027179719,8|0,3:2|1:0,0:0:0:0:
19,298,269073,2,0,B|50:303|50:303|56:312|56:312|95:321,1,71.2500027179719,0|0,3:0|3:0,0:0:0:0:
132,248,269379,6,0,P|137:200|97:94,1,156.750004783631,0|0,1:2|3:0,0:0:0:0:
140,30,269992,2,0,B|191:9|191:9|233:46,1,104.500003189087,8|0,3:2|3:0,0:0:0:0:
254,178,270604,1,0,3:2:0:0:
357,75,270910,1,0,1:0:0:0:
372,78,271063,1,0,3:0:0:0:
431,135,271216,6,0,B|476:150|476:150|407:250|407:250|455:266,1,213.750008153916,8|8,3:2|3:2,0:0:0:0:
462,344,271828,6,0,P|432:358|405:355,1,52.2500015945435,0|0,1:2|3:0,0:0:0:0:
333,379,272134,2,0,P|301:370|282:350,1,52.2500015945435,0|0,1:0|3:0,0:0:0:0:
297,277,272441,1,8,3:2:0:0:
298,261,272594,1,0,1:0:0:0:
300,245,272747,1,0,3:0:0:0:
302,229,272900,1,8,3:2:0:0:
273,197,273053,2,0,L|215:209,3,52.2500015945435,0|8|0|0,3:2|3:2|1:0|3:0,0:0:0:0:
150,168,273665,1,8,3:2:0:0:
133,165,273818,1,0,1:0:0:0:
95,94,273971,1,0,3:0:0:0:
112,91,274124,1,0,3:0:0:0:
177,38,274277,6,0,P|249:49|288:96,1,123.499994346619,0|0,1:2|1:0,0:0:0:0:
350,132,274736,1,0,3:1:0:0:
369,126,274889,2,0,P|391:101|393:66,1,61.7499971733095,8|0,3:2|3:0,0:0:0:0:
339,11,275196,1,0,3:0:0:0:
475,109,275502,1,0,3:2:0:0:
479,126,275655,1,8,3:2:0:0:
484,143,275808,1,0,1:0:0:0:
441,275,276114,6,0,B|424:230|424:230|369:252|369:252|320:221|320:221|296:263,1,213.750008153916,8|8,3:2|3:2,0:0:0:0:
224,308,276726,6,0,P|166:289|180:234,1,123.499994346619,0|0,1:2|1:0,0:0:0:0:
88,109,277338,2,0,P|99:142|129:160,1,61.7499971733095,8|0,3:2|1:0,0:0:0:0:
208,157,277645,1,0,3:0:0:0:
222,145,277798,2,0,L|299:136,2,61.7499971733095,8|0|8,3:2|3:2|3:2,0:0:0:0:
174,80,278257,1,0,1:0:0:0:
369,137,278563,6,0,B|386:141|386:141|398:213,1,71.2500027179719,8|0,3:2|1:0,0:0:0:0:
341,250,278869,2,0,B|324:254|324:254|312:326,1,71.2500027179719,0|0,3:0|3:0,0:0:0:0:
382,358,279175,6,0,P|265:347|165:354,1,185.249991519928,0|0,1:2|3:0,0:0:0:0:
181,335,279787,1,8,3:2:0:0:
21,281,280094,1,0,3:0:0:0:
116,193,280400,1,0,3:2:0:0:
237,242,280706,1,0,1:0:0:0:
233,226,280859,1,0,3:0:0:0:
293,170,281012,6,0,B|323:143|323:143|352:277|352:277|315:270,1,213.750008153916,8|8,3:2|3:2,0:0:0:0:
259,337,281624,6,0,P|221:348|189:342,3,61.7499971733095,0|0|0|0,1:2|3:0|1:0|3:0,0:0:0:0:
142,289,282236,2,0,L|150:216,1,61.7499971733095,8|0,3:2|1:0,0:0:0:0:
62,258,282543,2,0,L|54:185,1,61.7499971733095,0|8,3:0|3:2,0:0:0:0:
108,131,282849,1,0,3:2:0:0:
110,112,283002,1,8,3:2:0:0:
112,93,283155,1,0,1:0:0:0:
115,74,283308,1,0,3:0:0:0:
178,22,283461,2,0,B|186:15|186:15|199:66,1,61.7499971733095,8|0,3:2|1:0,0:0:0:0:
260,112,283767,2,0,B|268:119|268:119|281:68,1,61.7499971733095,0|0,3:0|3:0,0:0:0:0:
326,1,284073,6,0,P|388:35|362:140,1,185.249991519928,2|0,1:3|0:0,0:0:0:0:
367,160,284685,2,0,B|326:214|326:214|365:264,1,123.499994346619,12|0,3:2|3:0,0:0:0:0:
331,334,285145,1,8,2:0:0:0:
321,353,285298,2,0,P|240:353|182:374,1,123.499994346619,2|0,1:3|1:0,0:0:0:0:
107,230,285910,2,0,L|54:223,2,41.1666647822063,8|8|8,3:2|2:0|2:0,0:0:0:0:
119,156,286216,2,0,L|66:149,2,41.1666647822063,8|8|8,2:0|2:0|2:0,0:0:0:0:
176,99,286522,6,0,B|256:85|256:85|279:115|279:115|366:98,1,185.249991519928,4|0,1:2|0:0,0:0:0:0:
416,142,287134,2,0,L|482:153,1,61.7499971733095,10|0,3:2|0:0,0:0:0:0:
493,231,287441,2,0,L|434:251,1,61.7499971733095,8|0,2:3|0:0,0:0:0:0:
394,324,287747,2,0,P|332:324|332:269,1,123.499994346619,4|8,2:0|2:0,0:0:0:0:
187,223,288359,1,4,1:3:0:0:
209,212,288512,1,0,3:2:0:0:
232,204,288665,2,0,P|211:177|173:176,1,61.7499971733095,8|8,2:0|2:3,0:0:0:0:
116,130,288971,6,0,P|114:65|232:61,1,185.249991519928,4|0,1:2|0:0,0:0:0:0:
264,109,289583,1,8,3:2:0:0:
405,55,289889,2,0,L|418:-8,2,41.1666647822063,2|8|8,3:0|2:0|2:0,0:0:0:0:
365,126,290196,1,4,1:3:0:0:
366,134,290298,1,8,2:3:0:0:
369,141,290400,1,8,2:0:0:0:
373,148,290502,2,0,L|424:159,2,41.1666647822063,0|8|0,1:3|2:0|1:0,0:0:0:0:
308,197,290808,2,0,L|257:208,2,41.1666647822063,6|8|8,2:3|2:3|2:3,0:0:0:0:
329,268,291114,2,0,L|278:279,2,41.1666647822063,4|4|4,2:3|2:3|2:3,0:0:0:0:
394,318,291420,6,0,L|199:292,1,185.249991519928,4|0,1:2|0:0,0:0:0:0:
135,326,292032,2,0,P|113:299|111:264,1,61.7499971733095,10|0,2:0|0:0,0:0:0:0:
80,197,292338,2,0,L|89:166,3,30.8749985866547,8|8|8|8,2:0|2:3|2:3|2:3,0:0:0:0:
185,230,292798,1,8,2:0:0:0:
185,230,292951,1,8,2:0:0:0:
259,118,293257,1,8,3:0:0:0:
254,93,293410,1,0,1:0:0:0:
182,61,293563,1,4,2:3:0:0:
177,86,293716,1,8,2:3:0:0:
121,144,293869,6,0,P|217:94|249:27,1,185.249991519928,2|0,1:3|0:0,0:0:0:0:
334,9,294481,2,0,B|369:15|369:15|387:49,2,61.7499971733095,12|0|0,3:2|0:0|3:0,0:0:0:0:
317,89,294941,1,8,2:0:0:0:
330,105,295094,2,0,L|337:164,2,41.1666647822063,2|0|0,1:3|0:0|0:0,0:0:0:0:
243,129,295400,2,0,L|257:189,1,61.7499971733095,0|2,1:0|2:3,0:0:0:0:
209,258,295706,1,8,3:2:0:0:
200,259,295808,1,8,2:0:0:0:
191,258,295910,1,8,2:0:0:0:
183,256,296012,2,0,P|152:243|138:232,2,41.1666647822063,8|8|8,2:0|2:0|2:0,0:0:0:0:
220,333,296318,6,0,L|295:352,1,61.7499971733095,4|0,1:2|0:0,0:0:0:0:
316,334,296624,2,0,L|391:353,1,61.7499971733095,0|0,1:0|0:0,0:0:0:0:
439,302,296930,1,10,3:2:0:0:
343,210,297236,2,0,P|350:176|374:148,1,61.7499971733095,8|0,2:3|0:0,0:0:0:0:
449,152,297543,2,0,B|474:121|474:121|397:75,1,123.499994346619,4|8,2:0|2:0,0:0:0:0:
239,49,298155,1,4,1:3:0:0:
217,54,298308,1,0,3:2:0:0:
232,89,298461,2,0,L|190:136,1,61.7499971733095,8|8,2:0|2:3,0:0:0:0:
183,220,298767,6,0,P|128:145|46:192,1,185.249991519928,4|0,1:2|0:0,0:0:0:0:
0,120,299379,1,8,3:2:0:0:
132,56,299685,2,0,P|125:31|114:11,2,41.1666647822063,2|8|8,3:0|2:0|2:0,0:0:0:0:
179,121,299992,1,4,1:3:0:0:
177,129,300094,1,8,2:3:0:0:
176,137,300196,1,8,2:0:0:0:
175,145,300298,2,0,P|177:172|188:194,2,41.1666647822063,0|8|0,1:3|2:0|1:0,0:0:0:0:
253,129,300604,2,0,L|301:119,2,41.1666647822063,6|8|8,2:3|2:3|2:3,0:0:0:0:
235,59,300910,2,0,L|283:49,2,41.1666647822063,4|4|4,2:3|2:3|2:3,0:0:0:0:
166,24,301216,5,4,1:2:0:0:
140,21,301369,1,0,0:0:0:0:
107,105,301522,1,0,1:2:0:0:
133,102,301675,1,0,0:0:0:0:
203,146,301828,2,0,P|210:178|205:225,1,61.7499971733095,10|0,2:0|0:0,0:0:0:0:
156,263,302134,2,0,L|166:303,3,30.8749985866547,8|8|8|8,2:0|2:3|2:3|2:3,0:0:0:0:
82,360,302594,1,8,2:0:0:0:
82,360,302747,1,8,2:0:0:0:
208,329,303053,1,8,3:0:0:0:
228,336,303206,1,0,1:0:0:0:
289,292,303359,1,4,2:3:0:0:
309,285,303512,1,8,2:3:0:0:
361,354,303665,6,0,P|339:292|349:103,1,246.999988693238,2|12,1:3|3:2,0:0:0:0:
283,43,304736,1,8,2:0:0:0:
283,43,304889,2,0,P|232:34|207:47,2,56.9999982604981,2|8|0,1:3|2:0|1:0,0:0:0:0:
319,114,305349,1,2,2:3:0:0:
319,114,305502,2,0,L|302:170,2,37.9999988403321,8|8|8,3:2|2:0|2:0,0:0:0:0:
392,138,305808,2,0,L|375:194,2,37.9999988403321,8|8|8,2:0|2:0|2:0,0:0:0:0:
462,103,306114,6,0,P|502:125|476:205,1,113.999996520996,4|0,1:2|1:0,0:0:0:0:
408,275,306726,1,10,3:2:0:0:
284,176,307032,2,0,P|295:200|286:241,1,56.9999982604981,8|0,2:3|0:0,0:0:0:0:
219,262,307338,2,0,B|194:243|194:243|171:341,1,113.999996520996,4|8,2:0|2:0,0:0:0:0:
100,362,307798,1,8,2:3:0:0:
100,362,307951,2,0,L|88:296,1,56.9999982604981,4|0,1:3|3:2,0:0:0:0:
7,306,308257,2,0,L|26:250,1,56.9999982604981,8|8,2:0|2:3,0:0:0:0:
0,178,308563,6,0,P|23:117|127:168,1,170.999994781494,4|0,1:2|0:0,0:0:0:0:
188,88,309175,1,8,3:2:0:0:
267,204,309481,2,0,L|260:241,2,37.9999988403321,2|8|8,3:0|2:0|2:0,0:0:0:0:
329,157,309787,1,4,1:3:0:0:
339,156,309889,1,8,2:3:0:0:
349,157,309992,1,8,2:0:0:0:
358,159,310094,2,0,P|386:171|400:191,2,37.9999988403321,0|8|0,1:3|2:0|1:0,0:0:0:0:
358,81,310400,2,0,L|365:44,2,37.9999988403321,6|8|8,2:3|2:3|2:3,0:0:0:0:
284,63,310706,2,0,L|291:26,2,37.9999988403321,4|4|4,2:3|2:3|2:3,0:0:0:0:
230,122,311012,6,0,B|164:141|164:141|159:182|159:182|87:206,1,170.999994781494,4|0,1:2|0:0,0:0:0:0:
34,156,311624,1,10,2:0:0:0:
87,286,311930,2,0,L|101:314,6,18.999999420166,8|8|8|8|0|0|0,2:0|2:3|2:3|2:3|0:0|0:0|0:0,0:0:0:0:
191,265,312389,1,8,2:0:0:0:
191,265,312543,1,8,2:0:0:0:
281,354,312849,1,8,3:0:0:0:
298,353,313002,1,0,1:0:0:0:
351,295,313155,1,4,2:3:0:0:
368,294,313308,1,8,2:3:0:0:
431,248,313461,6,0,B|451:192|386:174|411:100,1,142.500005435944,4|8,1:2|3:2,0:0:0:0:
426,99,314226,2,0,B|411:140|343:177|343:114|287:100|236:132,1,213.750008153916,0|0,3:0|3:0,0:0:0:0:
223,151,315298,2,0,L|235:247,1,71.2500027179719,8|0,3:2|3:0,0:0:0:0:
114,298,315910,6,0,B|117:353|178:355|192:317|242:317,1,142.500005435944,0|8,1:2|3:2,0:0:0:0:
299,276,316675,1,0,1:0:0:0:
299,276,316828,2,0,L|306:220,1,35.625001358986,0|8,3:0|3:2,0:0:0:0:
249,181,317134,1,0,3:2:0:0:
248,170,317287,1,8,3:2:0:0:
247,159,317441,1,0,1:0:0:0:
246,148,317594,1,0,3:0:0:0:
217,118,317747,2,0,L|168:135,3,35.625001358986,8|0|0|0,3:2|1:0|3:0|3:0,0:0:0:0:
145,198,318359,6,0,B|98:192|96:236|26:224,1,106.875004076958,0|0,1:2|3:0,0:0:0:0:
24,209,318971,2,0,L|18:158,3,35.625001358986,8|0|0|8,3:2|3:0|3:0|3:2,0:0:0:0:
89,128,319583,2,0,L|80:85,1,35.625001358986,0|8,3:2|3:2,0:0:0:0:
165,92,319889,2,0,L|169:54,1,35.625001358986,0|0,1:0|3:0,0:0:0:0:
247,17,320196,2,0,P|272:18|281:31,1,35.625001358986,8|0,3:2|3:0,0:0:0:0:
298,48,320502,2,0,P|323:47|332:34,1,35.625001358986,0|8,3:0|3:2,0:0:0:0:
404,6,320808,6,0,B|441:22|456:63|445:119,1,106.875004076958,0|0,1:2|3:0,0:0:0:0:
412,169,321420,1,8,3:2:0:0:
412,169,321573,2,0,L|469:184,1,35.625001358986,0|0,1:0|3:0,0:0:0:0:
489,247,321879,1,8,3:2:0:0:
489,247,322032,2,0,B|355:258|411:346|245:356,1,249.375009512902,0|0,3:2|3:0,0:0:0:0:
208,308,323257,6,0,B|199:235|199:235|171:218|171:218|163:126,1,185.249991519928,2|0,1:3|0:0,0:0:0:0:
97,92,323869,2,0,P|158:106|186:48,1,123.499994346619,12|0,3:2|3:0,0:0:0:0:
274,77,324328,1,8,2:0:0:0:
286,99,324481,2,0,P|306:119|352:128,2,61.7499971733095,2|8|0,1:3|2:0|1:0,0:0:0:0:
396,35,325094,1,8,3:2:0:0:
404,36,325196,1,8,2:0:0:0:
411,40,325298,1,8,2:0:0:0:
417,44,325400,2,0,P|450:44|472:27,2,41.1666647822063,8|8|8,2:0|2:0|2:0,0:0:0:0:
414,124,325706,6,0,B|467:153|467:153|443:294,1,185.249991519928,4|0,1:2|0:0,0:0:0:0:
488,344,326318,1,10,3:2:0:0:
349,268,326624,2,0,P|318:266|290:278,1,61.7499971733095,8|0,2:3|0:0,0:0:0:0:
243,341,326930,2,0,B|222:361|222:361|182:272,1,123.499994346619,4|8,2:0|2:0,0:0:0:0:
195,257,327389,1,8,2:3:0:0:
139,196,327542,1,4,1:3:0:0:
144,177,327695,1,0,3:2:0:0:
175,152,327848,1,8,2:0:0:0:
181,134,328001,1,8,2:3:0:0:
123,80,328155,6,0,B|112:34|112:34|210:9|210:9|228:56,1,185.249991519928,4|0,1:2|0:0,0:0:0:0:
284,94,328767,1,8,3:2:0:0:
439,26,329073,6,0,L|485:34,2,41.1666647822063,2|8|8,3:0|2:0|2:0,0:0:0:0:
418,99,329379,1,4,1:3:0:0:
423,104,329481,1,8,2:3:0:0:
429,108,329583,1,8,2:0:0:0:
435,112,329685,2,0,L|489:120,2,41.1666647822063,0|8|0,1:3|2:0|1:0,0:0:0:0:
371,168,329991,2,0,L|323:156,2,41.1666647822063,6|8|8,2:3|2:3|2:3,0:0:0:0:
356,241,330297,2,0,L|308:229,2,41.1666647822063,4|4|4,2:3|2:3|2:3,0:0:0:0:
394,313,330604,6,0,P|347:353|288:364,1,123.499994346619,4|0,1:2|1:2,0:0:0:0:
235,304,331063,1,0,0:0:0:0:
229,280,331216,1,10,2:0:0:0:
74,359,331522,2,0,L|40:364,3,30.8749985866547,8|8|8|8,2:0|2:3|2:3|2:3,0:0:0:0:
52,269,331981,1,8,2:0:0:0:
52,269,332134,1,8,2:0:0:0:
153,150,332440,1,8,3:0:0:0:
171,155,332593,1,0,1:0:0:0:
191,196,332746,1,4,2:3:0:0:
209,201,332899,1,8,2:3:0:0:
274,151,333053,6,0,B|291:102|291:102|378:91|378:91|416:137,1,185.249991519928,2|0,1:3|0:0,0:0:0:0:
376,197,333665,2,0,P|370:249|432:268,1,123.499994346619,12|0,3:2|3:0,0:0:0:0:
481,332,334124,1,8,2:0:0:0:
471,350,334277,2,0,P|442:370|402:369,3,61.7499971733095,2|8|0|2,1:3|2:0|1:0|2:3,0:0:0:0:
356,326,334889,1,8,3:2:0:0:
347,327,334992,1,8,2:0:0:0:
339,329,335094,1,8,2:0:0:0:
331,332,335196,2,0,P|320:351|320:374,2,41.1666647822063,8|8|8,2:0|2:0|2:0,0:0:0:0:
272,277,335502,6,0,B|264:252|264:252|278:239|278:239|286:188,1,82.3333295644126,4|0,1:2|0:0,0:0:0:0:
326,172,335808,2,0,B|334:147|334:147|320:134|320:134|312:83,1,82.3333295644126,0|0,1:0|0:0,0:0:0:0:
348,61,336114,1,10,3:2:0:0:
145,52,336420,2,0,P|159:21|196:-1,1,61.7499971733095,8|0,2:3|0:0,0:0:0:0:
220,69,336726,2,0,B|238:156|238:156|196:147,1,123.499994346619,4|8,2:0|2:0,0:0:0:0:
87,241,337338,1,4,1:3:0:0:
85,259,337491,1,0,3:2:0:0:
162,281,337645,1,8,2:0:0:0:
160,263,337798,1,8,2:3:0:0:
223,214,337951,6,0,B|282:227|282:227|267:322|267:322|310:334,1,185.249991519928,4|0,1:2|0:0,0:0:0:0:
362,373,338563,1,8,3:2:0:0:
449,229,338869,2,0,P|473:233|494:246,2,41.1666647822063,2|8|8,3:0|2:0|2:0,0:0:0:0:
384,177,339175,1,4,1:3:0:0:
376,179,339277,1,8,2:3:0:0:
368,182,339379,1,8,2:0:0:0:
359,184,339481,2,0,P|342:195|328:211,2,41.1666647822063,0|8|0,1:3|2:0|1:0,0:0:0:0:
322,119,339787,2,0,L|325:77,2,41.1666647822063,6|8|8,2:3|2:3|2:3,0:0:0:0:
247,112,340093,2,0,L|250:70,2,41.1666647822063,4|4|4,2:3|2:3|2:3,0:0:0:0:
190,165,340400,6,0,P|192:223|245:248,1,123.499994346619,4|0,1:2|1:2,0:0:0:0:
293,309,340859,1,0,0:0:0:0:
287,333,341012,1,10,2:0:0:0:
384,237,341318,2,0,L|370:197,3,30.8749985866547,8|8|8|8,2:0|2:3|2:3|2:3,0:0:0:0:
477,268,341777,1,8,2:0:0:0:
477,268,341930,1,8,2:0:0:0:
434,118,342236,1,8,3:0:0:0:
431,131,342389,1,0,1:0:0:0:
363,98,342543,1,4,2:3:0:0:
360,111,342696,1,8,2:3:0:0:
508,137,342849,5,0,1:2:0:0:
