osu file format v14

[General]
AudioFilename: audio.mp3
AudioLeadIn: 0
PreviewTime: 215502
Countdown: 0
SampleSet: Soft
StackLeniency: 0.7
Mode: 0
LetterboxInBreaks: 0
WidescreenStoryboard: 0

[Editor]
Bookmarks: 14693,29387,48979,73469,83265,93061,117551,132244,151836,176326,195918,205714,215510,225153,244897,254693,284081,303673,313469,323265,342857
DistanceSpacing: 1
BeatDivisor: 16
GridSize: 16
TimelineZoom: 3.699999

[Metadata]
Title:Scattered and Lost
TitleUnicode:Scattered and Lost
Artist:Lena Raine
ArtistUnicode:Lena Raine
Creator:Icekalt
Version:Anxiety
Source:Celeste
Tags:08 Chapter 3 Kuraine indie video game breakcore progressive marathon instrumental scubdomino OST
BeatmapID:2462759
BeatmapSetID:1181163

[Difficulty]
HPDrainRate:5
CircleSize:4.7
OverallDifficulty:8.4
ApproachRate:9.2
SliderMultiplier:3
SliderTickRate:1

[Events]
//Background and Video events
0,0,"celeste.jpeg",0,0
//Break Periods
2,197334,203911
//Storyboard Layer 0 (Background)
//Storyboard Layer 1 (Fail)
//Storyboard Layer 2 (Pass)
//Storyboard Layer 3 (Foreground)
//Storyboard Layer 4 (Overlay)
//Storyboard Sound Samples

[TimingPoints]
0,612.244897959184,4,2,1,50,1,0
0,-285.714285714284,4,2,1,50,0,0
146,612.244897959184,4,2,1,50,1,0
146,-285.714285714284,4,2,1,50,0,0
2441,612.244897959184,4,2,1,50,1,0
2441,-285.714285714284,4,2,1,50,0,0
14685,-285.714285714284,4,2,2,50,0,0
14992,-285.714285714284,4,2,1,50,0,0
17134,-285.714285714284,4,2,2,50,0,0
17441,-285.714285714284,4,2,1,50,0,0
19583,-285.714285714284,4,2,2,50,0,0
19889,-285.714285714284,4,2,1,50,0,0
22032,-285.714285714284,4,2,2,50,0,0
22338,-285.714285714284,4,2,1,50,0,0
24481,-285.714285714284,4,2,2,50,0,0
24787,-285.714285714284,4,2,1,50,0,0
26930,-285.714285714284,4,2,2,50,0,0
27236,-285.714285714284,4,2,1,50,0,0
29380,-181.818181818181,4,2,2,80,0,0
29685,-181.818181818181,4,2,1,80,0,0
31828,-181.818181818181,4,2,2,50,0,0
32134,-181.818181818181,4,2,1,50,0,0
34277,-181.818181818181,4,2,2,50,0,0
34583,-181.818181818181,4,2,1,50,0,0
36726,-181.818181818181,4,2,2,50,0,0
37032,-181.818181818181,4,2,1,50,0,0
39175,-181.818181818181,4,2,2,50,0,0
39481,-181.818181818181,4,2,1,50,0,0
41624,-181.818181818181,4,2,2,50,0,0
41930,-181.818181818181,4,2,1,50,0,0
44073,-181.818181818181,4,2,2,50,0,0
44379,-181.818181818181,4,2,1,50,0,0
46522,-181.818181818181,4,2,2,50,0,0
46828,-181.818181818181,4,2,1,50,0,0
48972,-100,4,2,3,65,0,0
67109,-100,4,2,3,5,0,0
67185,-100,4,2,3,65,0,0
67262,-100,4,2,3,5,0,0
67338,-100,4,2,3,65,0,0
70401,-166.666666666667,4,2,3,65,0,0
71319,-100,4,2,3,65,0,0
72236,-83.3333333333333,4,2,3,65,0,0
73462,-100,4,2,3,65,0,0
76446,-100,4,2,3,5,0,0
76522,-100,4,2,3,65,0,0
79507,-100,4,2,3,5,0,0
79583,-100,4,2,3,65,0,0
81344,-100,4,2,3,5,0,0
81420,-100,4,2,3,65,0,0
83258,-83.3333333333333,4,2,3,65,0,0
93666,-133.333333333333,4,2,3,65,0,0
116319,-100,4,2,3,65,0,0
116931,-80,4,2,3,65,0,0
117544,-117.647058823529,4,2,3,75,0,0
119380,-66.6666666666667,4,2,3,75,0,0
119993,-117.647058823529,4,2,3,75,0,0
121829,-66.6666666666667,4,2,3,75,0,0
122441,-117.647058823529,4,2,3,75,0,0
124277,-66.6666666666667,4,2,3,75,0,0
124890,-117.647058823529,4,2,3,75,0,0
126421,-66.6666666666667,4,2,3,75,0,0
127339,-117.647058823529,4,2,3,75,0,0
129176,-66.6666666666667,4,2,3,75,0,0
129788,-117.647058823529,4,2,3,75,0,0
131319,-66.6666666666667,4,2,3,75,0,0
132236,-100,4,2,3,75,0,0
134073,-66.6666666666667,4,2,3,75,0,0
137747,-100,4,2,3,75,0,0
138971,-66.6666666666667,4,2,3,75,0,0
143257,-100,4,2,3,75,0,0
143869,-66.6666666666667,4,2,3,75,0,0
148155,-100,4,2,3,75,0,0
148767,-66.6666666666667,4,2,3,75,0,0
151828,-74.0740740740741,4,2,2,80,0,0
176318,-86.9565217391304,4,2,2,80,0,0
176471,-86.9565217391304,4,2,2,70,0,0
195910,-133.333333333333,4,2,2,70,0,0
204481,-222.222222222221,4,2,2,70,0,0
205706,-71.4285714285714,4,2,3,90,0,1
215502,-90.9090909090909,4,2,2,80,0,0
216267,-125,4,2,2,80,0,0
225298,-71.4285714285714,4,2,3,90,0,1
233563,-71.4285714285714,4,2,3,60,0,1
233716,-71.4285714285714,4,2,3,70,0,1
233793,-71.4285714285714,4,2,3,80,0,1
233869,-71.4285714285714,4,2,3,90,0,1
243359,-71.4285714285714,4,2,3,60,0,1
243512,-71.4285714285714,4,2,3,70,0,1
243588,-71.4285714285714,4,2,3,80,0,1
243665,-71.4285714285714,4,2,3,90,0,1
244889,-71.4285714285714,4,2,2,70,0,0
254685,-83.3333333333333,4,2,2,70,0,0
255298,-66.6666666666667,4,2,2,70,0,0
266318,-57.1428571428571,4,2,2,70,0,1
266930,-66.6666666666667,4,2,2,70,0,0
268767,-60.6060606060606,4,2,2,70,0,1
269073,-51.2820512820513,4,2,2,70,0,1
269379,-66.6666666666667,4,2,2,70,0,0
271216,-57.1428571428571,4,2,2,70,0,1
271828,-57.1428571428571,4,2,2,70,0,0
274277,-58.8235294117647,4,2,2,70,0,0
276114,-50,4,2,2,70,0,1
276726,-58.8235294117647,4,2,2,70,0,0
278563,-58.8235294117647,4,2,2,70,0,1
278869,-41.6666666666667,4,2,2,70,0,1
279175,-58.8235294117647,4,2,2,70,0,0
281012,-50,4,2,2,70,0,1
281624,-58.8235294117647,4,2,2,70,0,0
283461,-52.6315789473684,4,2,2,70,0,0
283767,-47.6190476190476,4,2,2,70,0,0
284073,-58.8235294117647,4,2,3,90,0,1
302134,-58.8235294117647,4,2,3,60,0,1
302287,-58.8235294117647,4,2,3,70,0,1
302364,-58.8235294117647,4,2,3,80,0,1
302441,-58.8235294117647,4,2,3,90,0,1
304736,-71.4285714285714,4,2,3,90,0,1
311930,-71.4285714285714,4,2,3,60,0,1
312083,-71.4285714285714,4,2,3,70,0,1
312160,-71.4285714285714,4,2,3,80,0,1
312236,-71.4285714285714,4,2,3,90,0,1
313461,-71.4285714285714,4,2,2,70,0,0
314226,-125,4,2,2,70,0,0
323257,-62.5,4,2,3,90,0,1
331522,-62.5,4,2,3,60,0,1
331675,-62.5,4,2,3,70,0,1
331752,-62.5,4,2,3,80,0,1
331828,-62.5,4,2,3,90,0,1
341318,-62.5,4,2,3,60,0,1
341471,-62.5,4,2,3,70,0,1
341548,-62.5,4,2,3,80,0,1
341624,-62.5,4,2,3,90,0,1
342849,-62.5,4,2,3,90,0,0

[Colours]
Combo1 : 170,170,213
Combo2 : 194,135,135
Combo3 : 255,172,89

[HitObjects]
22,134,0,5,0,3:0:0:0:
86,99,146,1,0,0:0:0:0:
162,116,299,1,0,3:0:0:0:
199,194,452,1,0,3:0:0:0:
273,80,605,2,0,L|281:18,1,52.4999983978272,2|0,3:2|3:0,0:0:0:0:
24,126,1217,5,2,3:2:0:0:
88,91,1370,1,0,0:0:0:0:
164,108,1523,1,0,3:0:0:0:
200,185,1676,1,0,3:0:0:0:
74,298,1829,2,0,P|76:275|103:286,1,52.4999983978272,2|0,3:2|3:0,0:0:0:0:
26,120,2440,5,2,3:2:0:0:
92,138,2593,1,0,0:0:0:0:
166,113,2746,1,0,3:0:0:0:
190,30,2899,1,0,3:0:0:0:
255,190,3054,2,0,P|277:207|307:212,1,52.4999983978272,2|0,3:2|3:0,0:0:0:0:
28,127,3665,5,2,3:2:0:0:
93,144,3818,1,0,0:0:0:0:
168,120,3971,1,0,3:0:0:0:
191,36,4124,1,0,3:0:0:0:
183,134,4278,1,2,3:2:0:0:
232,208,4431,1,0,0:0:0:0:
309,238,4584,1,0,3:0:0:0:
381,226,4737,1,0,3:0:0:0:
460,91,4890,5,2,3:2:0:0:
400,137,5043,1,0,0:0:0:0:
389,214,5196,1,0,3:0:0:0:
438,290,5349,1,0,3:0:0:0:
263,377,5503,2,0,P|276:346|304:330,1,52.4999983978272,2|0,3:2|3:0,0:0:0:0:
455,85,6114,5,2,3:2:0:0:
395,131,6267,1,0,0:0:0:0:
384,208,6420,1,0,3:0:0:0:
433,284,6573,1,0,3:0:0:0:
286,173,6727,2,0,L|278:113,1,52.4999983978272,2|0,3:2|3:0,0:0:0:0:
76,178,7339,5,2,3:2:0:0:
118,236,7492,1,0,0:0:0:0:
196,250,7645,1,0,3:0:0:0:
271,200,7798,1,0,3:0:0:0:
322,365,7952,2,0,P|305:339|304:314,1,52.4999983978272,2|0,3:2|3:0,0:0:0:0:
74,185,8564,5,2,3:2:0:0:
116,243,8717,1,0,0:0:0:0:
194,257,8870,1,0,3:0:0:0:
269,207,9023,1,0,3:0:0:0:
393,325,9176,1,2,3:2:0:0:
320,273,9329,1,0,0:0:0:0:
293,194,9482,1,0,3:0:0:0:
307,123,9635,1,0,3:0:0:0:
161,36,9788,5,2,3:2:0:0:
88,59,9941,1,0,0:0:0:0:
88,135,10095,1,0,3:0:0:0:
161,159,10248,1,0,3:0:0:0:
206,96,10401,1,2,3:2:0:0:
201,91,10707,1,0,3:0:0:0:
395,20,11013,5,2,3:2:0:0:
462,41,11166,1,0,0:0:0:0:
462,112,11318,1,0,3:0:0:0:
395,134,11471,1,0,3:0:0:0:
352,76,11624,1,2,3:2:0:0:
378,150,11777,1,0,0:0:0:0:
327,227,11930,1,0,3:0:0:0:
225,227,12083,1,0,3:0:0:0:
77,263,12236,5,2,3:2:0:0:
71,239,12390,1,0,0:0:0:0:
85,218,12543,1,0,3:0:0:0:
79,194,12696,1,0,3:0:0:0:
151,102,12850,2,0,L|92:94,1,52.4999983978272,2|0,3:2|3:0,0:0:0:0:
253,24,13462,5,2,3:2:0:0:
412,50,13615,1,0,0:0:0:0:
367,116,13768,1,0,3:0:0:0:
293,122,13921,1,0,3:0:0:0:
223,192,14074,5,2,3:2:0:0:
257,335,14227,1,0,0:0:0:0:
188,381,14380,1,0,3:0:0:0:
188,381,14533,1,0,3:0:0:0:
313,242,14686,6,0,L|370:228,1,52.4999983978272,2|0,3:2|3:0,0:0:0:0:
268,318,15146,1,0,3:0:0:0:
375,141,15299,2,0,L|432:155,1,52.4999983978272,2|0,3:2|3:0,0:0:0:0:
122,18,15911,5,2,3:2:0:0:
118,90,16064,1,0,0:0:0:0:
171,154,16217,1,0,3:0:0:0:
175,243,16370,1,0,3:0:0:0:
266,120,16523,2,0,P|276:90|297:65,1,52.4999983978272,2|0,3:2|3:0,0:0:0:0:
464,240,17135,5,2,3:2:0:0:
456,227,17288,1,0,0:0:0:0:
417,308,17441,1,0,3:0:0:0:
384,293,17595,1,0,3:0:0:0:
237,373,17748,2,0,P|256:359|297:359,1,52.4999983978272,2|0,3:2|3:0,0:0:0:0:
378,167,18360,5,2,3:2:0:0:
308,126,18513,1,0,0:0:0:0:
231,179,18666,1,0,3:0:0:0:
162,117,18819,1,0,3:0:0:0:
237,188,18972,1,2,3:2:0:0:
154,110,19125,1,0,0:0:0:0:
85,172,19278,1,0,3:0:0:0:
20,123,19431,1,0,3:0:0:0:
82,279,19584,5,2,3:2:0:0:
103,352,19737,1,0,0:0:0:0:
203,343,19890,1,0,3:0:0:0:
166,229,20044,1,0,3:0:0:0:
299,320,20197,2,0,P|309:290|306:262,1,52.4999983978272,2|0,3:2|3:0,0:0:0:0:
77,282,20809,5,2,3:2:0:0:
98,355,20962,1,0,0:0:0:0:
198,346,21115,1,0,3:0:0:0:
161,232,21267,1,0,3:0:0:0:
246,117,21421,2,0,P|263:145|256:173,1,52.4999983978272,2|0,3:2|3:0,0:0:0:0:
460,46,22033,5,2,3:2:0:0:
381,31,22186,1,0,0:0:0:0:
474,133,22339,1,0,3:0:0:0:
335,106,22492,1,0,3:0:0:0:
376,264,22646,2,0,L|387:212,1,52.4999983978272,2|0,3:2|3:0,0:0:0:0:
460,39,23258,5,2,3:2:0:0:
381,24,23411,1,0,0:0:0:0:
474,126,23564,1,0,3:0:0:0:
335,99,23717,1,0,3:0:0:0:
272,166,23870,5,2,3:2:0:0:
93,191,24023,1,0,0:0:0:0:
173,140,24176,1,0,3:0:0:0:
184,218,24329,1,0,3:0:0:0:
299,311,24482,5,2,3:2:0:0:
278,322,24635,1,0,0:0:0:0:
260,307,24788,1,0,3:0:0:0:
270,285,24941,1,0,3:0:0:0:
294,287,25095,1,2,3:2:0:0:
300,291,25401,1,0,3:0:0:0:
410,209,25707,5,2,3:2:0:0:
431,220,25860,1,0,0:0:0:0:
449,205,26013,1,0,3:0:0:0:
439,183,26166,1,0,3:0:0:0:
509,271,26319,1,2,3:2:0:0:
457,346,26472,1,0,0:0:0:0:
366,330,26625,1,0,3:0:0:0:
334,243,26778,1,0,3:0:0:0:
240,107,26931,5,2,3:2:0:0:
219,109,27084,1,0,0:0:0:0:
202,121,27237,1,0,3:0:0:0:
192,139,27390,1,0,3:0:0:0:
192,160,27544,1,2,3:2:0:0:
196,167,27850,1,0,3:0:0:0:
114,329,28156,5,2,3:2:0:0:
125,254,28309,1,0,0:0:0:0:
35,371,28462,1,0,3:0:0:0:
4,225,28615,1,0,3:0:0:0:
54,147,28768,5,2,3:2:0:0:
129,136,28921,1,0,0:0:0:0:
216,51,29074,1,0,3:0:0:0:
74,20,29227,1,0,3:0:0:0:
241,139,29380,6,0,L|288:128,1,41.2500012588501,2|0,3:2|0:0,0:0:0:0:
190,226,29686,1,0,3:0:0:0:
275,236,29839,1,0,3:0:0:0:
331,296,29993,2,0,P|354:300|378:285,1,41.2500012588501,2|0,3:2|0:0,0:0:0:0:
193,236,30299,1,0,3:0:0:0:
108,246,30452,1,0,3:0:0:0:
52,306,30604,2,0,P|29:310|5:295,1,41.2500012588501,2|0,3:2|0:0,0:0:0:0:
196,245,30911,1,0,3:0:0:0:
281,255,31064,1,0,3:0:0:0:
337,315,31216,2,0,P|360:319|384:304,1,41.2500012588501,2|0,3:2|0:0,0:0:0:0:
228,371,31523,5,0,3:0:0:0:
200,255,31676,1,0,3:0:0:0:
171,135,31829,2,0,L|180:85,1,41.2500012588501,2|0,3:2|0:0,0:0:0:0:
304,192,32135,5,0,3:0:0:0:
374,156,32288,1,0,3:0:0:0:
382,78,32441,2,0,P|371:59|354:48,1,41.2500012588501,2|0,3:2|0:0,0:0:0:0:
310,193,32748,1,0,3:0:0:0:
374,240,32901,1,0,3:0:0:0:
368,319,33054,2,0,P|354:335|335:343,1,41.2500012588501,2|0,3:2|0:0,0:0:0:0:
317,194,33360,1,0,3:0:0:0:
388,159,33513,1,0,3:0:0:0:
396,80,33666,2,0,P|385:61|368:50,1,41.2500012588501,2|0,3:2|0:0,0:0:0:0:
208,158,33972,5,0,3:0:0:0:
325,194,34125,1,0,3:0:0:0:
444,224,34278,2,0,L|491:213,1,41.2500012588501,2|0,3:2|0:0,0:0:0:0:
330,296,34584,5,0,3:0:0:0:
252,311,34737,1,0,3:0:0:0:
164,249,34890,2,0,L|171:300,1,41.2500012588501,2|0,3:2|0:0,0:0:0:0:
10,241,35197,1,0,3:0:0:0:
88,256,35350,1,0,3:0:0:0:
176,194,35503,2,0,L|169:245,1,41.2500012588501,2|0,3:2|0:0,0:0:0:0:
329,189,35809,1,0,3:0:0:0:
251,204,35962,1,0,3:0:0:0:
163,142,36115,2,0,L|170:193,1,41.2500012588501,2|0,3:2|0:0,0:0:0:0:
43,109,36421,5,0,3:0:0:0:
170,133,36574,1,0,3:0:0:0:
135,253,36727,2,0,P|139:276|154:305,1,41.2500012588501,2|0,3:2|0:0,0:0:0:0:
388,343,37033,5,0,3:0:0:0:
303,295,37186,1,0,3:0:0:0:
241,370,37339,2,0,L|186:378,1,41.2500012588501,2|0,3:2|0:0,0:0:0:0:
309,285,37646,1,0,3:0:0:0:
394,237,37799,1,0,3:0:0:0:
456,312,37952,2,0,L|511:320,1,41.2500012588501,2|0,3:2|0:0,0:0:0:0:
300,280,38258,1,0,3:0:0:0:
215,232,38411,1,0,3:0:0:0:
153,307,38564,2,0,L|98:315,1,41.2500012588501,2|0,3:2|0:0,0:0:0:0:
317,384,38870,5,0,3:0:0:0:
304,266,39023,1,0,3:0:0:0:
291,148,39176,2,0,L|302:88,1,41.2500012588501,2|0,3:2|0:0,0:0:0:0:
131,198,39482,5,0,3:0:0:0:
95,115,39635,1,0,3:0:0:0:
175,68,39788,2,0,P|181:48|180:27,1,41.2500012588501,2|0,3:2|0:0,0:0:0:0:
133,214,40095,2,0,P|152:206|167:192,1,41.2500012588501,0|0,3:0|3:0,0:0:0:0:
184,73,40401,2,0,P|190:53|189:32,1,41.2500012588501,2|0,3:2|0:0,0:0:0:0:
270,214,40707,1,0,3:0:0:0:
234,131,40860,1,0,3:0:0:0:
302,49,41013,1,2,3:2:0:0:
380,55,41166,1,0,0:0:0:0:
291,54,41319,5,0,3:0:0:0:
387,63,41472,1,0,3:0:0:0:
483,121,41625,2,0,L|426:135,1,41.2500012588501,2|0,3:2|0:0,0:0:0:0:
352,308,41931,5,0,3:0:0:0:
290,254,42084,1,0,3:0:0:0:
357,155,42237,2,0,P|341:176|343:207,1,41.2500012588501,2|0,3:2|0:0,0:0:0:0:
353,318,42544,1,0,3:0:0:0:
435,323,42697,1,0,3:0:0:0:
457,206,42850,2,0,P|453:232|430:252,1,41.2500012588501,2|0,3:2|0:0,0:0:0:0:
341,323,43156,1,0,3:0:0:0:
279,269,43309,1,0,3:0:0:0:
170,286,43462,1,2,3:2:0:0:
129,370,43615,1,0,0:0:0:0:
162,274,43768,5,0,3:0:0:0:
115,372,43921,1,0,3:0:0:0:
80,234,44074,2,0,L|71:172,1,41.2500012588501,2|0,3:2|0:0,0:0:0:0:
144,65,44380,5,0,3:0:0:0:
219,117,44533,1,0,3:0:0:0:
305,86,44686,2,0,P|317:69|321:38,1,41.2500012588501,2|0,3:2|0:0,0:0:0:0:
133,73,44993,5,0,3:0:0:0:
157,161,45146,1,0,3:0:0:0:
242,192,45299,2,0,P|262:186|285:165,1,41.2500012588501,2|0,3:2|0:0,0:0:0:0:
310,47,45605,2,0,P|305:66|293:83,1,41.2500012588501,0|0,3:0|3:0,0:0:0:0:
357,220,45911,1,2,3:2:0:0:
348,139,46064,1,0,0:0:0:0:
448,185,46217,1,0,3:0:0:0:
425,303,46370,1,0,3:0:0:0:
224,361,46523,5,2,3:2:0:0:
239,283,46676,1,0,0:0:0:0:
160,225,46829,2,0,L|100:216,1,41.2500012588501,0|0,3:0|3:0,0:0:0:0:
248,274,47135,1,2,3:2:0:0:
233,196,47288,1,0,0:0:0:0:
312,138,47441,2,0,L|372:129,1,41.2500012588501,0|0,3:0|3:0,0:0:0:0:
224,187,47748,1,2,3:2:0:0:
239,109,47901,1,0,0:0:0:0:
160,51,48054,2,0,L|100:42,1,41.2500012588501,0|0,3:0|3:0,0:0:0:0:
235,98,48360,1,2,3:2:0:0:
348,21,48513,2,0,L|288:12,1,41.2500012588501,0|0,0:0|3:0,0:0:0:0:
232,88,48819,1,0,3:0:0:0:
422,195,48972,6,0,L|435:111,1,75,2|0,3:2|0:0,0:0:0:0:
232,357,49431,1,0,3:0:0:0:
182,299,49584,2,0,L|168:182,1,75,8|0,3:0|0:0,0:0:0:0:
237,363,49890,1,0,2:0:0:0:
187,305,50044,1,0,3:0:0:0:
329,230,50197,2,0,B|361:112|262:131|293:0,1,225,2|0,3:2|0:0,0:0:0:0:
208,130,50809,6,0,B|170:135|170:135|136:101,1,75,8|2,3:0|3:2,0:0:0:0:
335,241,51268,1,0,3:2:0:0:
384,187,51421,2,0,B|422:192|422:192|456:158,1,75,2|0,3:2|0:0,0:0:0:0:
283,304,51727,1,0,2:0:0:0:
332,250,51880,1,0,3:0:0:0:
216,206,52033,2,0,P|193:174|190:124,1,75,8|0,3:0|0:0,0:0:0:0:
174,282,52339,2,0,P|135:272|101:235,1,75,0|0,2:0|3:0,0:0:0:0:
22,73,52646,6,0,L|12:164,1,75,2|0,3:2|0:0,0:0:0:0:
218,3,53105,1,0,0:0:0:0:
277,52,53258,2,0,L|287:143,1,75,8|2,3:0|3:2,0:0:0:0:
227,5,53564,1,0,3:2:0:0:
286,54,53717,1,0,3:2:0:0:
147,209,53870,2,0,B|198:150|257:181|275:213|297:244|358:217,1,225,2|0,3:2|3:0,0:0:0:0:
426,344,54482,6,0,B|444:323|444:323|436:265,1,75,8|0,3:0|0:0,0:0:0:0:
161,374,54941,1,0,3:0:0:0:
91,348,55094,2,0,B|73:327|73:327|81:269,1,75,2|0,3:2|0:0,0:0:0:0:
164,384,55401,1,0,3:2:0:0:
208,265,55554,1,0,0:0:0:0:
121,113,55707,2,0,P|140:78|173:52,1,75,8|2,3:0|3:2,0:0:0:0:
157,202,56013,2,0,P|194:187|236:188,1,75,0|0,3:2|3:2,0:0:0:0:
409,327,56319,5,2,3:2:0:0:
414,315,56778,1,0,3:0:0:0:
480,252,56931,2,0,L|473:152,1,75,8|0,3:0|0:0,0:0:0:0:
409,327,57237,1,0,2:0:0:0:
512,358,57390,1,0,3:0:0:0:
312,181,57544,2,0,B|177:151|222:263|80:234,1,225,2|0,3:2|0:0,0:0:0:0:
281,273,58156,6,0,B|297:298|297:298|285:360,1,75,8|2,3:0|3:2,0:0:0:0:
449,190,58615,1,0,3:2:0:0:
388,130,58768,2,0,B|404:105|404:105|392:43,1,75,2|0,3:2|0:0,0:0:0:0:
452,203,59074,1,0,2:0:0:0:
375,132,59227,1,0,3:0:0:0:
215,198,59380,2,0,P|257:200|288:226,1,75,8|0,3:0|0:0,0:0:0:0:
376,276,59686,2,0,P|336:290|315:325,1,75,0|0,2:0|3:0,0:0:0:0:
262,115,59993,6,0,B|252:94|252:94|182:85,1,75,2|0,3:2|0:0,0:0:0:0:
107,303,60452,1,0,0:0:0:0:
45,246,60605,2,0,B|55:225|55:225|125:216,1,75,8|2,3:0|3:2,0:0:0:0:
70,114,60911,1,0,3:2:0:0:
154,153,61064,1,0,3:2:0:0:
337,26,61217,6,0,B|267:14|229:89|277:211,1,225,2|0,3:2|3:0,0:0:0:0:
184,60,61829,2,0,B|165:39|165:39|108:53,1,75,8|0,3:0|0:0,0:0:0:0:
282,204,62288,1,0,3:0:0:0:
341,128,62441,2,0,B|360:107|360:107|417:121,1,75,2|0,3:2|0:0,0:0:0:0:
260,66,62748,1,0,3:2:0:0:
278,195,62901,1,0,0:0:0:0:
86,317,63054,2,0,P|115:296|165:288,1,75,8|2,3:0|3:2,0:0:0:0:
39,170,63360,2,0,P|74:172|118:198,1,75,0|0,3:2|3:2,0:0:0:0:
285,375,63666,5,2,3:2:0:0:
291,367,64125,1,0,3:0:0:0:
372,299,64278,2,0,L|351:206,1,75,8|0,3:0|0:0,0:0:0:0:
285,375,64584,1,0,2:0:0:0:
251,253,64737,1,0,3:0:0:0:
425,127,64890,2,0,P|420:96|254:86,1,225,2|0,3:2|0:0,0:0:0:0:
430,255,65503,6,0,B|454:243|454:243|465:177,1,75,8|2,3:0|3:2,0:0:0:0:
242,379,65962,1,0,3:2:0:0:
154,334,66115,2,0,B|130:322|130:322|119:256,1,75,2|0,3:2|0:0,0:0:0:0:
251,370,66421,1,0,2:0:0:0:
352,350,66574,1,0,3:0:0:0:
288,95,66727,2,0,P|264:135|267:188,1,75,8|0,3:0|0:0,0:0:0:0:
221,22,67033,2,0,P|205:34|195:58,1,37.5,0|0,2:0|0:0,0:0:0:0:
147,104,67186,2,0,P|144:122|149:140,1,37.5,0|0,3:0|0:0,0:0:0:0:
246,231,67339,5,2,3:2:0:0:
255,222,67799,1,0,0:0:0:0:
179,289,67952,2,0,L|190:376,1,75,8|2,3:0|3:2,0:0:0:0:
265,213,68258,1,0,3:2:0:0:
170,300,68411,1,0,3:2:0:0:
184,132,68564,2,0,B|211:50|323:84|282:148|390:129,1,225,2|0,3:2|3:0,0:0:0:0:
107,70,69176,6,0,B|93:41|93:41|107:-10,1,75,8|0,3:0|0:0,0:0:0:0:
211,221,69635,1,0,3:0:0:0:
157,283,69788,2,0,B|171:312|171:312|157:363,1,75,2|0,3:2|0:0,0:0:0:0:
219,213,70095,1,0,3:2:0:0:
414,365,70401,1,8,3:0:0:0:
482,318,70554,2,0,L|476:262,1,44.999998626709,2|0,3:2|3:2,0:0:0:0:
403,360,70860,2,0,L|397:304,1,44.999998626709,0|2,3:2|3:2,0:0:0:0:
460,192,71319,6,0,L|447:106,1,75,0|0,2:0|3:0,0:0:0:0:
458,106,71625,1,8,3:0:0:0:
327,258,71778,2,0,L|317:173,1,75,0|0,0:0|2:0,0:0:0:0:
81,160,72236,6,0,L|64:47,1,89.9999972534181,2|0,3:2|0:0,0:0:0:0:
35,223,72543,1,0,3:2:0:0:
163,45,72696,2,0,L|175:134,1,89.9999972534181,0|8,0:0|3:0,0:0:0:0:
52,62,73002,2,0,L|65:151,1,89.9999972534181,2|0,3:2|3:2,0:0:0:0:
131,217,73308,1,0,3:2:0:0:
331,124,73462,5,2,3:0:0:0:
346,209,73615,1,0,0:0:0:0:
288,287,73768,1,0,3:0:0:0:
178,294,73921,1,0,3:0:0:0:
110,147,74074,2,0,P|85:155|76:204,1,75,10|0,3:2|0:0,0:0:0:0:
194,180,74380,1,0,3:0:0:0:
149,71,74533,1,0,3:0:0:0:
322,122,74686,5,2,3:2:0:0:
337,207,74839,1,0,0:0:0:0:
279,285,74992,1,0,3:0:0:0:
169,292,75145,1,0,3:0:0:0:
348,356,75299,2,0,L|429:369,1,75,10|0,3:2|0:0,0:0:0:0:
363,277,75605,2,0,L|444:290,1,75,0|0,3:0|3:0,0:0:0:0:
272,143,75911,5,2,3:2:0:0:
198,202,76064,1,0,0:0:0:0:
95,195,76217,1,0,3:0:0:0:
46,90,76370,2,0,P|56:78|86:67,1,37.5,0|0,3:0|0:0,0:0:0:0:
13,179,76523,2,0,P|15:224|37:256,1,75,10|0,3:2|0:0,0:0:0:0:
176,297,76829,2,0,P|140:308|104:301,1,75,0|0,3:0|3:0,0:0:0:0:
274,134,77135,5,2,3:2:0:0:
200,193,77288,1,0,0:0:0:0:
97,186,77441,1,0,3:0:0:0:
48,81,77595,1,0,3:0:0:0:
207,202,77748,5,10,3:2:0:0:
215,288,77901,1,0,0:0:0:0:
161,344,78054,1,0,3:0:0:0:
92,349,78207,1,0,3:0:0:0:
85,342,78283,1,0,3:0:0:0:
81,331,78360,5,2,3:2:0:0:
115,253,78513,1,0,0:0:0:0:
218,209,78666,1,0,3:0:0:0:
343,262,78819,1,0,3:0:0:0:
225,85,78972,2,0,P|197:99|182:142,1,75,10|0,3:2|0:0,0:0:0:0:
230,229,79278,1,0,3:0:0:0:
87,199,79431,2,0,P|101:222|105:250,1,37.5,0|0,3:0|0:0,0:0:0:0:
77,325,79584,5,2,3:2:0:0:
111,247,79737,1,0,0:0:0:0:
215,204,79890,1,0,3:0:0:0:
339,256,80043,1,0,3:0:0:0:
180,359,80197,2,0,P|219:336|264:336,1,75,10|0,3:2|0:0,0:0:0:0:
346,264,80503,2,0,P|385:287|430:287,1,75,0|0,3:0|3:0,0:0:0:0:
329,85,80809,5,2,3:2:0:0:
239,83,80962,1,0,0:0:0:0:
150,152,81115,1,0,3:0:0:0:
162,276,81268,2,0,P|185:291|211:297,1,37.5,0|0,3:0|0:0,0:0:0:0:
86,383,81421,2,0,P|82:340|67:300,1,75,10|0,3:2|0:0,0:0:0:0:
156,264,81727,2,0,P|122:236|83:218,1,75,0|0,3:0|3:0,0:0:0:0:
324,79,82033,5,2,3:2:0:0:
234,77,82186,1,0,0:0:0:0:
145,146,82339,1,0,3:0:0:0:
157,270,82493,1,0,3:0:0:0:
321,331,82646,5,10,3:2:0:0:
244,267,82799,1,0,0:0:0:0:
164,282,82952,1,0,3:0:0:0:
123,344,83105,1,0,3:0:0:0:
127,355,83181,1,0,3:0:0:0:
135,363,83258,5,2,3:2:0:0:
119,259,83411,1,0,0:0:0:0:
100,130,83564,1,0,3:0:0:0:
89,241,83717,1,0,3:0:0:0:
197,92,83870,2,0,P|219:121|221:182,1,89.9999972534181,10|0,3:2|0:0,0:0:0:0:
332,55,84176,2,0,P|314:24|254:37,1,89.9999972534181,0|0,3:0|3:0,0:0:0:0:
385,241,84482,5,2,3:2:0:0:
401,137,84635,1,0,0:0:0:0:
420,8,84788,1,0,3:0:0:0:
431,119,84941,1,0,3:0:0:0:
291,237,85095,2,0,P|356:241|389:206,1,89.9999972534181,10|0,3:2|0:0,0:0:0:0:
207,278,85401,2,0,P|250:326|298:325,1,89.9999972534181,0|0,3:0|3:0,0:0:0:0:
199,159,85707,5,2,3:2:0:0:
82,197,85860,1,0,0:0:0:0:
39,349,86013,1,0,3:0:0:0:
0,266,86166,1,0,3:0:0:0:
118,103,86319,2,0,L|88:-2,1,89.9999972534181,10|0,3:2|0:0,0:0:0:0:
0,174,86625,2,0,P|-5:134|49:109,1,89.9999972534181,0|0,3:0|3:0,0:0:0:0:
202,169,86931,5,2,3:2:0:0:
85,207,87084,1,0,0:0:0:0:
42,359,87237,1,0,3:0:0:0:
3,276,87390,1,0,3:0:0:0:
174,383,87544,5,10,3:2:0:0:
258,363,87697,1,0,0:0:0:0:
295,294,87850,1,0,3:0:0:0:
362,277,88003,1,0,3:0:0:0:
369,270,88079,1,0,3:0:0:0:
372,261,88156,5,2,3:2:0:0:
302,145,88309,1,0,0:0:0:0:
135,88,88462,1,0,3:0:0:0:
177,161,88615,1,0,3:0:0:0:
326,41,88768,2,0,P|367:17|416:20,1,89.9999972534181,10|0,3:2|0:0,0:0:0:0:
447,156,89074,2,0,L|474:57,1,89.9999972534181,0|0,3:0|3:0,0:0:0:0:
370,271,89380,5,2,3:2:0:0:
300,155,89533,1,0,0:0:0:0:
133,98,89686,1,0,3:0:0:0:
175,171,89839,1,0,3:0:0:0:
35,286,89993,2,0,B|59:254|59:254|128:244,1,89.9999972534181,10|0,3:2|0:0,0:0:0:0:
175,356,90299,2,0,P|192:322|254:324,1,89.9999972534181,0|0,3:0|3:0,0:0:0:0:
333,72,90605,5,2,3:2:0:0:
346,194,90758,1,0,0:0:0:0:
428,297,90911,1,0,3:0:0:0:
437,381,91064,1,0,3:0:0:0:
502,214,91217,2,0,P|486:172|434:176,1,89.9999972534181,10|0,3:2|0:0,0:0:0:0:
418,305,91523,2,0,L|306:306,1,89.9999972534181,0|0,3:0|3:0,0:0:0:0:
337,66,91829,5,2,3:2:0:0:
350,188,91982,1,0,0:0:0:0:
432,291,92135,1,0,3:0:0:0:
441,375,92288,1,0,3:0:0:0:
226,266,92441,5,10,3:2:0:0:
249,198,92595,1,0,0:0:0:0:
287,328,92748,1,0,3:0:0:0:
310,260,92900,1,0,3:0:0:0:
132,359,93053,5,2,3:2:0:0:
139,343,93206,1,0,0:0:0:0:
126,332,93359,1,0,3:0:0:0:
133,316,93512,1,0,3:0:0:0:
40,306,93666,6,0,B|129:325|195:263|168:197|202:127|318:140|318:140|289:188,1,393.750015020371,2|0,3:2|3:0,0:0:0:0:
408,98,94890,2,0,B|427:75|410:31|374:16|318:24|293:71,1,168.750006437302,2|0,3:2|0:0,0:0:0:0:
384,182,95503,2,0,B|368:296|453:273|463:327|450:388|450:388|391:331|364:401|283:346,1,393.750015020371,2|0,3:2|0:0,0:0:0:0:
230,282,96727,5,2,3:2:0:0:
68,314,96880,1,0,0:0:0:0:
129,242,97033,1,0,3:0:0:0:
149,244,97186,1,0,3:0:0:0:
235,293,97339,5,2,3:2:0:0:
276,138,97493,1,0,0:0:0:0:
179,28,97646,1,0,3:0:0:0:
143,99,97799,1,0,0:0:0:0:
148,110,97875,1,0,0:0:0:0:
154,119,97952,2,0,B|196:146|299:131|283:54|311:21|419:11|458:68,1,337.500012874604,2|0,3:2|3:0,0:0:0:0:
421,301,99176,5,2,3:2:0:0:
429,228,99329,1,0,0:0:0:0:
351,344,99482,1,0,3:0:0:0:
322,214,99635,1,0,3:0:0:0:
219,101,99788,2,0,P|178:131|189:168,1,84.3750032186509,2|0,3:2|0:0,0:0:0:0:
200,226,100095,2,0,P|159:196|170:159,1,84.3750032186509,0|0,3:0|0:0,0:0:0:0:
122,90,100401,6,0,B|70:44|-30:92|-33:249|124:214|126:301|107:389,1,393.750015020371,2|0,3:2|0:0,0:0:0:0:
216,191,101625,2,0,B|247:154|326:191|304:256|278:300,1,168.750006437302,2|0,3:2|3:0,0:0:0:0:
357,354,102237,1,2,3:2:0:0:
483,328,102390,1,0,0:0:0:0:
500,200,102544,1,0,3:0:0:0:
421,217,102697,1,0,3:0:0:0:
410,212,102773,1,0,3:0:0:0:
403,203,102850,2,0,B|356:106|436:114|453:45|411:-1|411:-1|369:55|299:31,1,337.500012874604,2|0,3:2|3:0,0:0:0:0:
129,107,104074,5,2,3:2:0:0:
288,140,104227,1,0,0:0:0:0:
177,255,104380,1,0,3:0:0:0:
195,180,104533,1,0,3:0:0:0:
314,284,104686,2,0,B|285:331|211:310|240:260|158:282,1,168.750006437302,2|0,3:2|0:0,0:0:0:0:
405,383,105299,2,0,B|375:207|484:271|432:48,1,337.500012874604,2|0,3:2|3:0,0:0:0:0:
180,91,106523,5,2,3:2:0:0:
265,69,106676,1,0,0:0:0:0:
351,185,106829,1,0,3:0:0:0:
242,162,106982,1,0,3:0:0:0:
173,86,107135,5,2,3:2:0:0:
258,64,107288,1,0,0:0:0:0:
150,170,107441,1,0,3:0:0:0:
207,294,107595,1,0,0:0:0:0:
216,294,107671,1,0,0:0:0:0:
224,289,107748,2,0,B|202:225|130:227|110:271|3:303|-38:187|23:136,1,337.500012874604,2|0,3:2|3:0,0:0:0:0:
321,33,108972,5,2,3:2:0:0:
395,47,109125,1,0,0:0:0:0:
263,101,109278,1,0,3:0:0:0:
420,130,109431,1,0,3:0:0:0:
280,272,109584,2,0,B|256:226|270:160|341:156|370:205,1,168.750006437302,2|0,3:2|0:0,0:0:0:0:
428,315,110197,2,0,B|377:271|307:248|281:362|195:358|139:296|163:216,1,337.500012874604,2|0,3:2|3:0,0:0:0:0:
219,100,111421,5,2,3:2:0:0:
307,74,111574,1,0,0:0:0:0:
387,197,111727,1,0,3:0:0:0:
283,161,111880,1,0,3:0:0:0:
405,57,112033,5,2,3:2:0:0:
317,83,112186,1,0,0:0:0:0:
472,143,112339,1,0,3:0:0:0:
434,255,112493,1,0,3:0:0:0:
424,262,112569,1,0,3:0:0:0:
413,266,112646,5,2,3:2:0:0:
345,212,112799,1,0,0:0:0:0:
263,278,112952,1,0,3:0:0:0:
164,199,113105,1,0,3:0:0:0:
92,365,113258,2,0,P|111:338|143:324,1,56.2500021457673,2|0,3:2|0:0,0:0:0:0:
207,382,113564,2,0,P|237:369|272:375,1,56.2500021457673,0|0,3:0|0:0,0:0:0:0:
408,271,113870,5,2,3:2:0:0:
340,217,114023,1,0,0:0:0:0:
258,283,114176,1,0,3:0:0:0:
159,204,114329,1,0,3:0:0:0:
247,121,114482,5,2,3:2:0:0:
250,105,114635,1,0,0:0:0:0:
241,91,114788,1,0,3:0:0:0:
244,75,114941,1,0,0:0:0:0:
117,145,115095,5,2,3:2:0:0:
129,222,115248,1,0,0:0:0:0:
212,276,115401,1,0,3:0:0:0:
331,235,115554,1,0,3:0:0:0:
459,323,115707,2,0,L|405:311,1,56.2500021457673,2|0,3:2|0:0,0:0:0:0:
277,372,116013,2,0,P|289:345|338:336,1,56.2500021457673,0|0,3:0|0:0,0:0:0:0:
441,223,116319,6,0,B|458:131|390:165|363:85|381:38|420:7|479:30,1,262.5,2|0,3:2|0:0,0:0:0:0:
512,125,116931,2,0,B|486:156|354:153|412:53|308:12|214:89,1,328.125,2|0,3:2|3:0,0:0:0:0:
130,197,117544,5,6,1:2:0:0:
249,179,117697,1,0,0:0:0:0:
318,259,117850,1,0,3:0:0:0:
398,276,118003,1,2,2:0:0:0:
201,366,118156,2,0,P|216:334|263:319,1,63.7500012159348,0|0,3:0|0:0,0:0:0:0:
325,252,118462,2,0,L|336:170,1,63.7500012159348,2|0,2:0|0:0,0:0:0:0:
137,190,118768,5,0,1:0:0:0:
256,172,118921,1,0,3:0:0:0:
325,252,119074,1,0,0:0:0:0:
405,269,119227,1,2,2:0:0:0:
512,100,119380,6,0,B|485:65|420:61|427:129|350:107,1,168.750006437302,0|0,3:0|0:0,0:0:0:0:
341,24,119686,2,0,B|350:96|350:96|327:116|327:116|338:196,1,168.750006437302,2|0,2:0|3:0,0:0:0:0:
300,264,119993,5,0,1:0:0:0:
152,239,120146,1,0,0:0:0:0:
85,331,120299,1,0,3:0:0:0:
178,322,120452,1,2,2:0:0:0:
238,141,120605,2,0,P|241:173|230:203,1,63.7500012159348,0|0,3:0|0:0,0:0:0:0:
98,146,120911,2,0,P|114:118|140:101,1,63.7500012159348,2|0,2:0|0:0,0:0:0:0:
296,256,121217,5,0,1:0:0:0:
148,231,121370,1,0,3:0:0:0:
81,323,121523,1,0,0:0:0:0:
174,314,121676,1,2,2:0:0:0:
322,383,121829,6,0,B|380:380|370:333|432:316|489:360,1,168.750006437302,0|0,3:0|0:0,0:0:0:0:
510,278,122135,2,0,P|503:259|471:234,1,56.2500021457673,2|0,2:0|0:0,0:0:0:0:
391,255,122288,1,2,3:2:0:0:
384,245,122365,1,0,3:0:0:0:
382,233,122441,5,0,1:2:0:0:
412,144,122595,1,0,0:0:0:0:
290,236,122748,1,0,3:0:0:0:
244,108,122901,1,2,2:0:0:0:
119,213,123054,2,0,P|150:212|178:196,1,63.7500012159348,0|0,3:0|0:0,0:0:0:0:
182,307,123360,2,0,P|209:323|267:312,1,63.7500012159348,2|0,2:0|0:0,0:0:0:0:
381,223,123666,5,0,1:0:0:0:
411,134,123818,1,0,3:0:0:0:
289,226,123971,1,0,0:0:0:0:
243,98,124124,1,2,2:0:0:0:
84,216,124277,6,0,B|120:216|135:180|131:127|68:149|76:99|101:73,1,168.750006437302,0|0,3:0|0:0,0:0:0:0:
7,78,124584,2,0,B|91:79|74:32|184:47,1,168.750006437302,2|0,2:0|3:0,0:0:0:0:
234,109,124890,5,0,1:0:0:0:
330,117,125044,1,0,0:0:0:0:
279,235,125197,1,0,3:0:0:0:
164,257,125350,1,2,2:0:0:0:
358,298,125503,2,0,L|438:314,1,63.7500012159348,0|0,3:0|0:0,0:0:0:0:
375,211,125809,2,0,L|455:227,1,63.7500012159348,2|0,2:0|0:0,0:0:0:0:
232,102,126114,1,0,1:0:0:0:
328,110,126267,1,0,3:0:0:0:
257,267,126421,6,0,B|167:267|210:209|93:201,1,168.750006437302
15,217,126727,2,0,B|105:217|62:159|179:151,1,168.750006437302,0|0,3:0|0:0,0:0:0:0:
91,274,127033,2,0,P|112:297|145:303,1,56.2500021457673,2|0,2:0|0:0,0:0:0:0:
214,356,127186,1,2,3:2:0:0:
229,354,127263,1,0,3:0:0:0:
244,352,127338,5,0,1:0:0:0:
268,257,127493,1,0,0:0:0:0:
409,195,127645,1,0,3:0:0:0:
381,320,127798,1,2,2:0:0:0:
314,167,127952,2,0,L|301:95,1,63.7500012159348,0|0,3:0|0:0,0:0:0:0:
420,185,128258,2,0,P|439:160|438:122,1,63.7500012159348,2|0,2:0|0:0,0:0:0:0:
239,356,128564,5,0,1:0:0:0:
263,261,128716,1,0,3:0:0:0:
404,199,128869,1,0,0:0:0:0:
376,324,129022,1,2,2:0:0:0:
292,150,129176,6,0,B|267:101|323:-14|420:31|450:161|297:212|286:95|253:67|158:95,1,393.750015020371,0|0,3:0|3:0,0:0:0:0:
88,167,129788,5,0,1:0:0:0:
118,310,129941,1,0,0:0:0:0:
50,365,130095,1,0,3:0:0:0:
50,365,130248,1,2,2:0:0:0:
171,229,130401,2,0,P|205:229|229:253,1,63.7500012159348,0|0,3:0|0:0,0:0:0:0:
238,332,130707,2,0,P|264:354|266:387,1,63.7500012159348,2|0,2:0|0:0,0:0:0:0:
84,176,131013,1,0,1:0:0:0:
114,319,131166,1,0,3:0:0:0:
212,143,131319,6,0,B|244:114|212:52|163:66|134:126|91:74,1,168.750006437302
81,0,131625,2,0,B|99:48|99:48|52:110|52:110|76:170,1,168.750006437302,0|0,3:0|0:0,0:0:0:0:
35,278,131931,2,0,B|16:266|16:266|10:214,1,56.2500021457673,2|0,2:0|0:0,0:0:0:0:
140,171,132084,1,2,3:2:0:0:
156,189,132161,1,0,3:0:0:0:
162,213,132237,5,0,1:2:0:0:
136,284,132390,1,0,0:0:0:0:
323,330,132544,1,0,3:0:0:0:
211,372,132697,1,2,2:0:0:0:
167,210,132849,5,0,3:0:0:0:
141,281,133002,1,0,0:0:0:0:
328,327,133156,1,2,2:0:0:0:
216,369,133309,1,0,0:0:0:0:
254,238,133461,2,0,P|268:204|307:180,1,75,0|0,1:0|3:0,0:0:0:0:
334,326,133767,1,0,0:0:0:0:
222,368,133920,1,2,2:0:0:0:
374,226,134073,6,0,B|410:189|400:117|350:133|327:83|380:39,1,168.750006437302,0|0,3:0|0:0,0:0:0:0:
440,38,134379,2,0,B|356:59|356:59|287:9,1,168.750006437302,2|0,2:0|3:0,0:0:0:0:
226,74,134685,5,0,1:0:0:0:
248,144,134838,1,0,0:0:0:0:
129,43,134992,1,0,3:0:0:0:
90,175,135145,1,2,2:0:0:0:
230,67,135298,1,0,3:0:0:0:
252,137,135451,1,0,0:0:0:0:
140,264,135604,6,0,B|216:238|198:315|277:302|304:256,1,168.750006437302,2|0,2:0|0:0,0:0:0:0:
316,375,135910,2,0,B|285:232|386:280|351:129,1,225.000008583069,0|0,1:0|0:0,0:0:0:0:
316,91,136369,1,2,2:0:0:0:
453,0,136522,1,0,3:0:0:0:
431,86,136675,1,0,0:0:0:0:
263,8,136828,2,0,P|241:9|219:35,1,56.2500021457673,2|0,2:0|0:0,0:0:0:0:
192,110,136981,1,2,3:2:0:0:
196,129,137058,1,0,3:0:0:0:
200,148,137134,5,0,1:2:0:0:
177,231,137287,1,0,0:0:0:0:
341,152,137441,1,0,3:0:0:0:
301,288,137594,1,2,2:0:0:0:
208,153,137747,5,0,3:0:0:0:
185,236,137900,1,0,0:0:0:0:
349,157,138054,1,2,2:0:0:0:
309,293,138207,1,0,0:0:0:0:
439,364,138359,2,0,P|413:340|373:346,1,75,0|0,1:0|3:0,0:0:0:0:
341,152,138665,1,0,0:0:0:0:
301,288,138818,1,2,2:0:0:0:
183,104,138971,6,0,B|229:144|291:132|292:63|344:55|344:55|373:102|448:93|448:93|407:136|419:186,1,393.750015020371,0|0,3:0|3:0,0:0:0:0:
371,238,139583,5,0,1:0:0:0:
379,347,139736,1,0,0:0:0:0:
244,377,139889,1,0,3:0:0:0:
211,272,140042,1,2,2:0:0:0:
377,243,140196,1,0,3:0:0:0:
385,352,140349,1,0,0:0:0:0:
278,186,140502,6,0,B|275:143|316:109|359:147|416:142|422:91,1,168.750006437302,2|0,2:0|0:0,0:0:0:0:
512,145,140808,2,0,B|506:73|442:74|387:121|339:88|325:19|359:-7,1,225.000008583069,0|0,1:0|0:0,0:0:0:0:
264,73,141267,1,2,2:0:0:0:
133,12,141420,1,0,3:0:0:0:
111,99,141573,1,0,0:0:0:0:
215,234,141726,2,0,B|229:214|229:214|219:164,1,56.2500021457673,2|0,2:0|0:0,0:0:0:0:
128,268,141879,1,2,3:2:0:0:
130,293,141956,1,0,3:0:0:0:
140,316,142032,5,0,1:0:0:0:
226,333,142185,1,0,0:0:0:0:
334,228,142338,1,0,3:0:0:0:
374,368,142492,1,2,2:0:0:0:
141,323,142645,5,0,3:0:0:0:
227,340,142798,1,0,0:0:0:0:
335,235,142951,1,2,2:0:0:0:
375,375,143105,1,0,0:0:0:0:
463,271,143257,2,0,P|477:242|454:180,1,75,0|0,1:0|3:0,0:0:0:0:
375,382,143563,1,0,0:0:0:0:
335,242,143717,1,2,2:0:0:0:
428,106,143869,6,0,B|449:70|411:24|357:23|356:89|303:62,1,168.750006437302,0|0,3:0|0:0,0:0:0:0:
223,21,144175,2,0,B|231:54|231:54|278:67|278:67|301:169,1,168.750006437302,2|0,2:0|3:0,0:0:0:0:
248,221,144481,5,0,1:0:0:0:
164,203,144634,1,0,0:0:0:0:
230,349,144787,1,0,3:0:0:0:
363,325,144941,1,2,2:0:0:0:
248,213,145094,1,0,3:0:0:0:
164,195,145247,1,0,0:0:0:0:
360,97,145400,6,0,B|414:97|415:167|396:182|346:172|361:241,1,168.750006437302,2|0,2:0|0:0,0:0:0:0:
457,269,145706,2,0,B|348:228|277:261|272:333,1,225.000008583069,0|0,1:0|0:0,0:0:0:0:
242,219,146165,1,2,2:0:0:0:
94,319,146318,1,0,3:0:0:0:
173,303,146471,1,0,0:0:0:0:
34,195,146624,2,0,B|24:174|24:174|33:132,1,56.2500021457673,2|0,2:0|0:0,0:0:0:0:
115,83,146778,1,2,3:2:0:0:
118,106,146854,1,0,3:0:0:0:
120,129,146931,5,0,1:0:0:0:
203,153,147083,1,0,0:0:0:0:
326,60,147236,1,0,3:0:0:0:
202,30,147389,1,2,2:0:0:0:
122,136,147543,5,0,3:0:0:0:
205,160,147695,1,0,0:0:0:0:
328,67,147848,1,2,2:0:0:0:
204,37,148001,1,0,0:0:0:0:
312,177,148155,2,0,P|350:182|394:157,1,75,0|0,1:0|3:0,0:0:0:0:
206,44,148461,1,0,0:0:0:0:
330,74,148614,1,2,2:0:0:0:
161,193,148767,6,0,B|132:286|176:337|230:347,1,168.750006437302,0|0,3:0|0:0,0:0:0:0:
56,348,149073,2,0,B|126:364|117:299|190:289|222:341,1,168.750006437302,2|0,2:0|3:0,0:0:0:0:
286,377,149379,5,0,1:0:0:0:
309,293,149532,1,0,0:0:0:0:
211,122,149685,1,0,3:0:0:0:
230,240,149838,1,2,2:0:0:0:
292,374,149992,1,0,3:0:0:0:
315,290,150145,1,0,0:0:0:0:
475,205,150298,6,0,B|499:192|506:156|470:101|388:120,1,168.750006437302,2|0,2:0|0:0,0:0:0:0:
304,203,150604,2,0,B|318:135|318:135|372:120|372:120|387:51,1,168.750006437302,0|0,1:0|0:0,0:0:0:0:
325,16,150910,1,0,0:0:0:0:
227,97,151063,1,2,2:0:0:0:
137,29,151216,1,0,3:0:0:0:
143,35,151369,1,0,0:0:0:0:
233,103,151522,1,2,2:0:0:0:
331,22,151675,1,2,3:2:0:0:
124,152,151828,6,0,B|87:251|167:235|132:359,1,202.500000772476,4|0,1:2|1:0,0:0:0:0:
345,384,152287,1,0,3:0:0:0:
392,306,152441,2,0,B|371:282|371:282|293:302,1,101.250000386238,8|0,2:0|1:0,0:0:0:0:
261,45,152900,1,0,3:0:0:0:
317,184,153053,2,0,B|259:113|386:34|365:97|432:131|498:42|480:-7,1,303.750001158714,0|0,1:0|1:0,0:0:0:0:
226,113,153665,6,0,B|190:96|190:96|183:16,1,101.250000386238,8|0,2:0|1:0,0:0:0:0:
23,344,154124,1,0,3:0:0:0:
70,275,154277,2,0,B|164:218|243:251|218:328,1,202.500000772476,0|0,1:0|1:0,0:0:0:0:
353,201,154736,1,0,3:0:0:0:
316,125,154889,2,0,P|282:150|272:229,1,101.250000386238,8|0,2:0|1:0,0:0:0:0:
288,30,155196,2,0,P|245:29|188:83,1,101.250000386238,0|0,3:0|3:0,0:0:0:0:
12,99,155502,6,0,B|133:101|67:168|208:163,1,202.500000772476,0|0,1:0|3:0,0:0:0:0:
76,242,155961,1,0,1:0:0:0:
250,377,156114,1,8,2:0:0:0:
298,179,156267,1,0,1:0:0:0:
232,247,156420,1,0,3:0:0:0:
311,314,156573,1,0,3:0:0:0:
387,82,156726,6,0,P|306:91|299:208,1,202.500000772476,0|0,1:2|1:0,0:0:0:0:
390,248,157185,1,0,3:0:0:0:
148,361,157338,2,0,B|165:328|165:328|244:314,1,101.250000386238,8|0,2:0|1:0,0:0:0:0:
38,50,157798,5,0,3:0:0:0:
193,200,157951,2,0,B|250:160|214:60|104:69|92:172|-15:126,1,303.750001158714,0|0,1:0|1:0,0:0:0:0:
267,0,158563,2,0,B|293:24|293:24|277:98,1,101.250000386238,8|0,2:0|1:0,0:0:0:0:
440,181,158869,2,0,P|387:182|347:213,1,101.250000386238,0|0,3:0|3:0,0:0:0:0:
170,362,159175,6,0,B|140:254|235:288|208:170,1,202.500000772476,0|0,1:0|1:0,0:0:0:0:
308,370,159634,1,0,3:0:0:0:
431,327,159787,2,0,B|422:292|422:292|341:280,1,101.250000386238,8|0,2:0|1:0,0:0:0:0:
478,129,160094,1,0,3:0:0:0:
512,238,160247,1,0,3:0:0:0:
348,57,160400,6,0,B|181:-4|211:160|48:79,1,303.750001158714,0|0,1:0|1:0,0:0:0:0:
289,144,161012,2,0,B|321:171|321:171|312:254,1,101.250000386238,8|0,2:0|1:0,0:0:0:0:
0,376,161471,1,0,3:0:0:0:
59,306,161624,2,0,B|171:290|134:377|247:363,1,202.500000772476,0|0,1:2|1:0,0:0:0:0:
409,255,162083,1,0,3:0:0:0:
345,167,162236,2,0,P|357:123|422:124,1,101.250000386238,8|0,2:0|1:0,0:0:0:0:
262,262,162543,2,0,P|224:222|214:157,1,101.250000386238,0|0,3:0|3:0,0:0:0:0:
45,21,162849,6,0,P|110:107|100:219,1,202.500000772476,0|0,1:0|3:0,0:0:0:0:
45,295,163308,1,0,1:0:0:0:
221,383,163461,2,0,B|202:349|202:349|119:341,1,101.250000386238,8|0,2:0|1:0,0:0:0:0:
266,275,163767,1,0,3:0:0:0:
361,337,163920,1,0,3:0:0:0:
189,170,164073,2,0,B|161:136|192:39|327:49|282:166|419:140,1,303.750001158714,0|0,1:0|3:0,0:0:0:0:
156,27,164685,6,0,B|95:41|95:41|82:77,1,101.250000386238,8|0,2:0|1:0,0:0:0:0:
351,323,165145,1,0,3:0:0:0:
182,375,165298,2,0,B|220:352|224:267|136:272|161:182,1,202.500000772476,0|0,1:0|3:0,0:0:0:0:
211,117,165757,1,0,1:0:0:0:
345,238,165910,2,0,P|369:214|372:186,1,50.6250001931191,8|0,2:0|0:0,0:0:0:0:
436,135,166063,2,0,P|431:101|410:82,1,50.6250001931191,0|0,1:0|0:0,0:0:0:0:
251,50,166216,2,0,P|294:24|364:26,1,101.250000386238,0|0,3:0|3:0,0:0:0:0:
174,227,166522,6,0,P|157:169|30:181,1,202.500000772476,0|0,1:2|1:0,0:0:0:0:
0,80,166981,1,0,3:0:0:0:
90,243,167134,1,8,2:0:0:0:
208,70,167287,1,0,1:0:0:0:
233,144,167441,1,0,3:0:0:0:
161,333,167594,1,0,3:0:0:0:
454,306,167747,6,0,B|352:326|296:249|362:198|283:137|209:166,1,303.750001158714,0|0,1:0|1:0,0:0:0:0:
357,22,168359,2,0,B|332:51|332:51|348:129,1,101.250000386238,8|0,2:0|1:0,0:0:0:0:
50,297,168818,1,0,3:0:0:0:
108,218,168971,2,0,B|162:192|224:226|178:281|250:308|313:272,1,202.500000772476,0|0,1:0|1:0,0:0:0:0:
410,193,169430,1,0,3:0:0:0:
482,256,169583,2,0,P|449:296|398:285,1,101.250000386238,8|0,2:0|1:0,0:0:0:0:
483,131,169889,2,0,P|450:95|383:82,1,101.250000386238,0|0,3:0|3:0,0:0:0:0:
283,292,170196,6,0,B|186:382|57:314|85:210|146:192|179:204,1,303.750001158714,0|0,1:0|1:0,0:0:0:0:
290,132,170808,1,8,2:0:0:0:
448,343,170961,1,0,1:0:0:0:
384,197,171114,1,0,3:0:0:0:
359,283,171267,1,0,3:0:0:0:
374,34,171420,6,0,B|455:13|507:83|466:277,1,303.750001158714,0|0,1:2|3:0,0:0:0:0:
229,377,172032,2,0,B|243:343|243:343|329:326,1,101.250000386238,8|0,2:0|1:0,0:0:0:0:
5,18,172492,1,0,3:0:0:0:
48,154,172645,2,0,P|65:103|188:131,1,202.500000772476,0|0,1:0|3:0,0:0:0:0:
321,213,173104,1,0,1:0:0:0:
402,169,173257,2,0,B|428:142|428:142|409:62,1,101.250000386238,8|0,2:0|1:0,0:0:0:0:
330,223,173563,1,0,3:0:0:0:
365,309,173716,1,0,3:0:0:0:
160,122,173869,6,0,B|143:94|143:94|45:107,1,101.250000386238,0|0,1:0|3:0,0:0:0:0:
314,26,174175,2,0,P|244:96|253:210,1,202.500000772476,0|8,1:0|2:0,0:0:0:0:
73,249,174634,1,0,1:0:0:0:
256,317,174787,1,0,3:0:0:0:
171,337,174941,1,0,3:0:0:0:
387,205,175094,2,0,L|499:228,1,101.250000386238,0|0,1:0|3:0,0:0:0:0:
439,110,175400,1,0,3:0:0:0:
169,155,175553,2,0,P|171:112|223:77,1,101.250000386238,0|8,1:0|2:0,0:0:0:0:
271,239,175859,2,0,P|219:252|183:293,1,101.250000386238,0|0,1:0|3:0,0:0:0:0:
118,233,176165,1,0,3:0:0:0:
286,349,176318,5,2,1:2:0:0:
369,327,176471,1,0,3:0:0:0:
389,243,176624,1,0,1:0:0:0:
339,172,176777,1,0,3:0:0:0:
462,52,176930,2,0,B|494:62|494:62|512:135,1,86.2500016450882,8|0,2:0|1:0,0:0:0:0:
451,181,177236,1,0,3:0:0:0:
305,24,177389,2,0,B|273:34|273:34|255:107,1,86.2500016450882,8|0,2:0|1:0,0:0:0:0:
196,162,177696,1,0,3:0:0:0:
214,176,177849,1,0,3:0:0:0:
219,192,178002,1,0,1:0:0:0:
32,117,178155,6,0,B|103:9|103:9|128:151,1,258.750004935265,0|0,3:0|3:0,0:0:0:0:
5,202,178767,2,0,B|103:172|93:244|194:215|194:215|158:253|155:288,1,258.750004935265,0|0,1:0|3:0,0:0:0:0:
299,333,179379,2,0,B|288:320|288:320|199:337,1,86.2500016450882,8|0,2:0|1:0,0:0:0:0:
365,378,179685,1,0,3:0:0:0:
285,208,179838,2,0,B|296:195|296:195|385:212,1,86.2500016450882,8|0,2:0|3:0,0:0:0:0:
212,155,180145,1,0,1:0:0:0:
151,93,180298,1,0,3:0:0:0:
172,11,180451,1,0,1:0:0:0:
87,148,180604,5,0,1:0:0:0:
91,162,180757,1,0,3:0:0:0:
59,54,180910,1,0,3:0:0:0:
63,68,181063,1,0,3:0:0:0:
21,234,181216,5,2,1:2:0:0:
112,258,181369,1,0,3:0:0:0:
195,180,181522,1,0,1:0:0:0:
286,204,181675,1,0,3:0:0:0:
355,362,181828,2,0,B|343:317|343:317|377:280,1,86.2500016450882,8|0,2:0|1:0,0:0:0:0:
438,339,182134,1,0,3:0:0:0:
368,154,182287,2,0,B|387:111|387:111|437:105,1,86.2500016450882,8|0,2:0|1:0,0:0:0:0:
304,77,182594,1,0,3:0:0:0:
370,27,182747,1,0,3:0:0:0:
364,13,182900,1,0,1:0:0:0:
243,149,183053,6,0,B|149:175|169:134|91:156|91:156|98:99|176:80,1,258.750004935265,0|0,3:0|3:0,0:0:0:0:
29,0,183665,2,0,B|-6:104|95:126|55:253,1,258.750004935265,0|0,1:0|3:0,0:0:0:0:
204,368,184277,2,0,B|177:354|177:354|190:276,1,86.2500016450882,8|0,2:0|1:0,0:0:0:0:
258,247,184583,1,0,3:0:0:0:
163,104,184736,2,0,B|136:118|136:118|149:196,1,86.2500016450882,8|0,2:0|3:0,0:0:0:0:
247,235,185043,1,0,1:0:0:0:
311,180,185196,1,0,3:0:0:0:
291,99,185349,1,0,1:0:0:0:
437,131,185502,5,0,1:0:0:0:
432,149,185655,1,0,3:0:0:0:
409,7,185808,1,0,3:0:0:0:
404,25,185961,1,0,3:0:0:0:
290,107,186114,5,2,1:2:0:0:
206,124,186267,1,0,3:0:0:0:
361,177,186420,1,0,1:0:0:0:
175,213,186573,1,0,3:0:0:0:
299,363,186726,2,0,B|312:341|312:341|293:277,1,86.2500016450882,8|0,2:0|1:0,0:0:0:0:
395,370,187032,1,0,3:0:0:0:
444,152,187185,2,0,B|457:174|457:174|438:238,1,86.2500016450882,8|0,2:0|1:0,0:0:0:0:
367,96,187492,1,0,3:0:0:0:
295,153,187645,1,0,3:0:0:0:
315,240,187798,1,0,1:0:0:0:
214,90,187951,2,0,P|191:60|140:46,1,86.2500016450882,0|0,3:0|3:0,0:0:0:0:
182,200,188257,2,0,P|145:191|97:213,1,86.2500016450882,0|0,3:0|3:0,0:0:0:0:
272,359,188563,5,0,1:0:0:0:
245,266,188716,1,0,3:0:0:0:
371,132,188869,1,0,1:0:0:0:
347,287,189022,1,0,3:0:0:0:
257,110,189175,2,0,B|222:117|222:117|211:109|211:109|149:124,1,86.2500016450882,8|0,2:0|1:0,0:0:0:0:
123,176,189481,1,0,3:0:0:0:
291,30,189634,2,0,B|326:37|326:37|337:29|337:29|399:44,1,86.2500016450882,8|0,2:0|3:0,0:0:0:0:
503,102,189941,1,0,1:0:0:0:
425,158,190094,1,0,3:0:0:0:
451,250,190247,1,0,1:0:0:0:
340,317,190400,5,0,1:0:0:0:
343,298,190553,1,0,3:0:0:0:
331,277,190706,1,0,3:0:0:0:
334,258,190859,1,0,3:0:0:0:
302,87,191012,6,0,B|237:24|148:72|153:146|56:111,1,258.750004935265,2|0,1:2|3:0,0:0:0:0:
236,160,191624,2,0,B|260:182|260:182|248:258,1,86.2500016450882,8|0,2:0|1:0,0:0:0:0:
235,317,191930,1,0,3:0:0:0:
389,117,192083,2,0,B|365:139|365:139|377:215,1,86.2500016450882,8|0,2:0|1:0,0:0:0:0:
303,47,192389,1,0,3:0:0:0:
245,113,192543,1,0,3:0:0:0:
164,82,192696,1,0,1:0:0:0:
113,220,192849,2,0,P|108:174|64:157,1,86.2500016450882,0|0,3:0|3:0,0:0:0:0:
21,321,193155,2,0,P|77:331|107:363,1,86.2500016450882,0|0,3:0|3:0,0:0:0:0:
298,267,193461,6,0,B|319:176|242:181|224:50|339:25,1,258.750004935265,0|0,1:0|3:0,0:0:0:0:
206,196,194073,2,0,B|147:209|147:209|130:183,1,86.2500016450882,8|0,2:0|1:0,0:0:0:0:
94,275,194379,1,0,3:0:0:0:
3,113,194532,2,0,B|62:126|62:126|79:100,1,86.2500016450882,8|0,2:0|3:0,0:0:0:0:
155,12,194838,1,0,1:0:0:0:
204,83,194992,1,0,3:0:0:0:
280,42,195145,1,0,1:0:0:0:
353,200,195298,5,0,1:0:0:0:
329,175,195451,1,0,3:0:0:0:
296,185,195604,1,0,3:0:0:0:
333,164,195757,1,0,3:0:0:0:
189,264,195910,6,0,P|300:263|393:326,2,225.000008583069,0|2|2,1:0|3:2|1:2,0:0:0:0:
480,344,204481,6,0,B|394:371|377:254|327:363|251:323,1,236.249992790222
238,306,205706,6,0,P|241:183|158:155,1,209.999993591309,2|0,1:3|1:0,0:0:0:0:
290,85,206165,1,0,0:0:0:0:
342,301,206318,2,0,B|426:319|426:319|454:193,1,209.999993591309,12|0,3:2|3:0,0:0:0:0:
379,17,206777,1,8,2:0:0:0:
375,32,206854,1,8,2:0:0:0:
377,47,206930,1,2,1:3:0:0:
465,119,207083,1,8,2:0:0:0:
347,227,207236,2,0,P|405:215|453:235,1,104.999996795654,0|2,1:0|2:3,0:0:0:0:
243,85,207543,6,0,P|226:66|228:24,2,69.9999978637696,8|8|8,3:2|2:0|2:0,0:0:0:0:
219,164,207849,1,8,2:0:0:0:
178,169,207951,1,8,2:0:0:0:
121,147,208053,1,8,2:0:0:0:
97,80,208155,2,0,B|112:152|64:212|64:212|5:156,1,209.999993591309,4|0,1:2|1:0,0:0:0:0:
126,260,208614,1,0,0:0:0:0:
234,71,208767,5,10,3:2:0:0:
370,115,208920,1,0,0:0:0:0:
242,266,209073,2,0,P|228:230|293:189,1,104.999996795654,8|0,2:3|0:0,0:0:0:0:
503,327,209379,5,4,2:0:0:0:
346,308,209532,2,0,L|297:302,4,26.2499991989136,8|0|8|0|8,2:3|0:0|2:3|0:0|2:0,0:0:0:0:
406,364,209838,1,8,2:3:0:0:
351,207,209992,5,4,1:3:0:0:
347,196,210145,1,0,3:2:0:0:
401,352,210298,1,8,2:0:0:0:
397,341,210451,1,8,2:3:0:0:
482,127,210604,6,0,B|491:62|491:62|319:81,1,209.999993591309,4|0,1:2|1:0,0:0:0:0:
273,13,211063,1,0,0:0:0:0:
160,202,211216,1,8,3:2:0:0:
124,56,211369,1,0,0:0:0:0:
178,185,211522,2,0,P|190:220|188:262,2,69.9999978637696,2|8|8,3:0|2:0|2:0,0:0:0:0:
271,83,211828,5,4,1:3:0:0:
318,92,211930,1,8,2:3:0:0:
339,135,212032,1,8,2:0:0:0:
317,181,212134,5,0,1:3:0:0:
316,201,212236,1,8,2:0:0:0:
314,221,212338,1,0,1:0:0:0:
356,283,212441,5,6,2:3:0:0:
410,295,212543,1,8,2:3:0:0:
451,257,212645,1,8,2:3:0:0:
429,224,212747,5,4,2:3:0:0:
427,210,212849,1,4,2:3:0:0:
425,196,212951,1,4,2:3:0:0:
445,121,213053,6,0,P|512:222|510:319,1,209.999993591309,4|0,1:2|1:2,0:0:0:0:
412,384,213512,1,0,0:0:0:0:
274,234,213665,2,0,B|289:188|289:188|351:178,1,104.999996795654,10|0,2:0|0:0,0:0:0:0:
134,121,213971,2,0,L|104:125,6,26.2499991989136,8|8|8|8|8|8|8,2:3|2:0|2:3|2:3|2:3|2:3|2:3,0:0:0:0:
185,57,214277,1,2,2:3:0:0:
214,289,214430,1,8,2:0:0:0:
265,225,214583,1,8,2:0:0:0:
441,8,214889,5,8,3:0:0:0:
460,103,215043,1,0,1:0:0:0:
348,40,215196,1,4,2:3:0:0:
367,135,215350,1,8,2:3:0:0:
73,163,215502,6,0,P|182:73|197:214,1,330.000010070801,4|8,1:2|3:2,0:0:0:0:
294,294,216267,2,0,B|339:292|355:244|306:198,1,120,0|8,3:0|3:2,0:0:0:0:
334,124,216726,1,0,3:2:0:0:
447,81,216879,1,8,3:2:0:0:
502,150,217032,1,0,1:0:0:0:
502,150,217185,1,0,3:0:0:0:
330,32,217338,6,0,B|260:30|267:85|186:112|133:87,1,180,8|8,3:2|3:2,0:0:0:0:
33,189,217951,2,0,B|84:153|149:170|157:225|138:316|187:331|230:324,1,240,0|8,1:2|3:2,0:0:0:0:
101,350,218716,1,0,1:0:0:0:
240,254,218869,1,0,3:0:0:0:
240,254,219022,1,8,3:2:0:0:
430,374,219175,6,0,B|353:373|311:320|349:219|443:186|392:49,1,360,0|0,3:2|3:0,0:0:0:0:
319,30,220247,1,0,3:0:0:0:
146,174,220400,2,0,B|248:188|228:112|331:133,1,180,0|0,1:2|3:0,0:0:0:0:
378,187,221012,5,8,3:2:0:0:
507,224,221165,1,0,3:0:0:0:
385,270,221318,1,0,3:0:0:0:
453,287,221471,1,8,3:2:0:0:
502,205,221624,1,0,3:2:0:0:
502,205,221777,1,8,3:2:0:0:
421,109,221930,1,0,1:0:0:0:
421,109,222083,1,0,3:0:0:0:
250,191,222236,6,0,B|211:164|218:107,1,60,8|0,3:2|3:0,0:0:0:0:
326,28,222543,2,0,B|287:55|294:112,1,60,0|8,3:0|3:2,0:0:0:0:
286,279,222849,2,0,B|283:190|177:166|172:250|81:203,1,240,0|8,1:2|3:2,0:0:0:0:
26,265,223614,1,0,1:0:0:0:
72,99,223767,1,0,3:0:0:0:
72,99,223920,1,8,3:2:0:0:
95,333,224073,2,0,B|139:298|107:216|140:176|198:152,1,180,0|0,3:2|3:0,0:0:0:0:
148,79,224685,5,8,3:2:0:0:
365,44,224838,1,0,1:0:0:0:
253,127,224992,1,0,3:0:0:0:
335,176,225145,1,0,3:0:0:0:
20,250,225298,6,0,B|196:212|160:292|241:334|359:276,1,314.999990386963,2|0,1:3|0:0,0:0:0:0:
470,104,225910,2,0,B|383:103|340:166|340:166|391:228,1,209.999993591309,12|0,3:2|3:0,0:0:0:0:
405,338,226369,1,8,2:0:0:0:
410,317,226446,1,8,2:0:0:0:
415,297,226522,1,2,1:3:0:0:
307,372,226675,1,8,2:0:0:0:
209,210,226828,2,0,P|246:227|259:295,1,104.999996795654,0|2,1:0|2:3,0:0:0:0:
111,266,227134,5,8,3:2:0:0:
74,265,227236,1,8,2:0:0:0:
43,286,227338,1,8,2:0:0:0:
35,355,227441,5,8,2:0:0:0:
103,363,227543,1,8,2:0:0:0:
159,320,227645,1,8,2:0:0:0:
77,277,227747,5,4,1:2:0:0:
129,100,227900,1,0,0:0:0:0:
171,334,228053,2,0,P|209:356|272:351,1,104.999996795654,0|0,1:0|0:0,0:0:0:0:
355,122,228359,1,10,3:2:0:0:
410,277,228512,1,0,0:0:0:0:
484,79,228665,2,0,P|479:26|424:28,1,104.999996795654,8|0,2:3|0:0,0:0:0:0:
418,38,228895,1,0,0:0:0:0:
414,63,228971,1,4,2:0:0:0:
272,98,229124,1,8,2:3:0:0:
265,97,229175,1,8,2:3:0:0:
258,96,229226,1,8,2:3:0:0:
251,95,229277,2,0,P|273:44|325:26,1,104.999996795654,8|8,2:0|2:3,0:0:0:0:
85,215,229583,5,4,1:3:0:0:
162,227,229736,1,0,3:2:0:0:
117,312,229889,1,8,2:0:0:0:
40,300,230042,1,8,2:3:0:0:
353,168,230196,6,0,B|302:205|285:272|285:272|307:293|307:293|294:318|302:362,1,209.999993591309,4|0,1:2|1:0,0:0:0:0:
170,238,230655,1,0,0:0:0:0:
238,26,230808,2,0,B|271:53|271:53|256:126,1,104.999996795654,8|0,3:2|0:0,0:0:0:0:
143,140,231114,5,2,3:0:0:0:
102,150,231216,1,8,2:0:0:0:
80,186,231318,1,8,2:0:0:0:
136,237,231420,5,4,1:3:0:0:
204,250,231522,1,8,2:3:0:0:
272,263,231624,1,8,2:0:0:0:
285,247,231726,5,0,1:3:0:0:
279,234,231828,1,8,2:0:0:0:
273,221,231930,1,0,1:0:0:0:
316,162,232032,5,6,2:3:0:0:
299,234,232134,1,8,2:3:0:0:
283,306,232236,1,8,2:3:0:0:
331,364,232338,2,0,P|373:361|408:332,2,69.9999978637696,4|4|4,2:3|2:3|2:3,0:0:0:0:
169,330,232645,6,0,B|124:338|124:338|112:330|112:330|50:341,1,104.999996795654,4|0,1:2|0:0,0:0:0:0:
211,235,232951,1,0,1:2:0:0:
41,186,233104,1,0,0:0:0:0:
140,41,233257,2,0,B|168:63|168:63|152:138,1,104.999996795654,10|0,2:0|0:0,0:0:0:0:
294,13,233563,2,0,L|327:20,6,26.2499991989136,8|8|8|8|8|8|8,2:0|2:3|2:3|2:3|2:3|2:3|2:3,0:0:0:0:
239,80,233869,1,2,2:3:0:0:
487,24,234022,1,8,2:0:0:0:
432,91,234175,1,8,2:0:0:0:
60,305,234481,5,8,3:0:0:0:
310,261,234634,1,0,1:0:0:0:
194,342,234787,1,4,2:3:0:0:
174,222,234941,1,8,2:3:0:0:
388,88,235094,6,0,B|265:81|293:236|384:227|359:346,1,314.999990386963,2|0,1:3|0:0,0:0:0:0:
199,145,235706,2,0,B|135:62|135:62|38:123,1,209.999993591309,12|0,3:2|3:0,0:0:0:0:
107,227,236165,1,8,2:0:0:0:
108,215,236242,1,8,2:0:0:0:
109,204,236318,5,2,1:3:0:0:
246,358,236522,1,0,0:0:0:0:
143,323,236624,2,0,P|179:315|187:246,1,104.999996795654,0|2,1:0|2:3,0:0:0:0:
257,144,236930,5,8,3:2:0:0:
288,166,237032,1,8,2:0:0:0:
326,158,237134,1,8,2:0:0:0:
375,212,237236,5,8,2:0:0:0:
326,262,237338,1,8,2:0:0:0:
339,333,237441,1,8,2:0:0:0:
237,358,237543,6,0,P|364:301|432:339,1,209.999993591309,4|0,1:2|1:0,0:0:0:0:
228,258,238002,1,0,0:0:0:0:
429,150,238155,2,0,B|462:178|462:178|456:269,1,104.999996795654,10|0,3:2|0:0,0:0:0:0:
484,23,238461,2,0,P|452:14|435:72,1,104.999996795654,8|0,2:3|0:0,0:0:0:0:
453,85,238691,1,0,0:0:0:0:
477,90,238767,1,4,2:0:0:0:
323,42,238920,5,8,2:3:0:0:
322,35,238971,1,8,2:3:0:0:
320,28,239022,1,8,2:3:0:0:
318,21,239073,2,0,P|349:65|317:127,1,104.999996795654,8|8,2:0|2:3,0:0:0:0:
236,181,239379,1,4,1:3:0:0:
446,214,239532,1,0,3:2:0:0:
282,286,239685,1,8,2:0:0:0:
371,303,239838,1,8,2:3:0:0:
174,97,239992,6,0,B|128:65|86:92|45:174|129:217|168:234|132:359,1,314.999990386963,4|0,1:2|0:0,0:0:0:0:
322,217,240604,1,8,3:2:0:0:
285,312,240757,1,0,0:0:0:0:
177,163,240910,5,2,3:0:0:0:
173,141,241012,1,8,2:0:0:0:
170,119,241114,1,8,2:0:0:0:
208,54,241216,5,4,1:3:0:0:
198,130,241318,1,8,2:3:0:0:
189,206,241420,1,8,2:0:0:0:
249,243,241522,5,0,1:3:0:0:
262,242,241624,1,8,2:0:0:0:
272,232,241726,1,0,1:0:0:0:
315,168,241828,5,6,2:3:0:0:
391,171,241930,1,8,2:3:0:0:
424,240,242032,1,8,2:3:0:0:
451,226,242134,5,4,2:3:0:0:
453,212,242236,1,4,2:3:0:0:
455,198,242338,1,4,2:3:0:0:
509,141,242441,6,0,B|497:91|497:91|486:85|486:85|510:56|502:23,1,104.999996795654,4|0,1:2|0:0,0:0:0:0:
362,79,242747,2,0,P|293:57|295:14,1,104.999996795654,0|0,1:2|0:0,0:0:0:0:
210,187,243053,1,10,2:0:0:0:
253,265,243206,1,0,0:0:0:0:
104,110,243359,6,0,L|114:73,6,26.2499991989136,8|8|8|8|8|8|8,2:0|2:3|2:3|2:3|2:3|2:3|2:3,0:0:0:0:
53,32,243665,1,2,2:3:0:0:
95,296,243818,1,8,2:0:0:0:
44,218,243971,1,8,2:0:0:0:
353,85,244277,5,8,3:0:0:0:
489,107,244430,1,0,1:0:0:0:
345,1,244583,1,4,2:3:0:0:
478,192,244736,1,8,2:3:0:0:
424,271,244889,6,0,L|372:280,1,52.4999983978272,4|0,1:2|0:0,0:0:0:0:
86,134,245349,5,0,3:1:0:0:
211,197,245502,2,0,L|159:206,1,52.4999983978272,8|0,3:2|0:0,0:0:0:0:
350,43,245808,5,0,3:0:0:0:
257,62,246114,1,0,3:2:0:0:
471,246,246420,5,0,1:0:0:0:
422,177,246573,1,0,3:0:0:0:
386,337,246726,2,0,L|334:346,1,52.4999983978272,8|0,3:2|0:0,0:0:0:0:
203,113,247032,5,0,3:0:0:0:
154,182,247185,1,8,3:2:0:0:
100,18,247338,1,0,1:2:0:0:
14,271,247645,5,0,1:0:0:0:
103,292,247798,1,0,3:0:0:0:
253,325,247951,2,0,L|201:334,1,52.4999983978272,8|0,3:2|0:0,0:0:0:0:
412,171,248257,5,0,3:0:0:0:
431,275,248563,1,0,3:2:0:0:
186,58,248869,5,0,1:0:0:0:
277,74,249022,1,0,3:0:0:0:
118,125,249175,2,0,L|66:134,1,52.4999983978272,8|0,3:2|0:0,0:0:0:0:
196,171,249328,1,0,1:0:0:0:
206,214,249481,1,0,3:0:0:0:
216,258,249634,1,0,3:0:0:0:
289,65,249787,1,0,1:2:0:0:
495,229,250094,5,0,1:0:0:0:
441,299,250247,1,0,3:0:0:0:
382,143,250400,2,0,L|396:78,1,52.4999983978272,8|0,3:2|0:0,0:0:0:0:
174,32,250706,5,0,3:0:0:0:
296,53,251012,1,0,3:2:0:0:
77,170,251318,5,0,1:0:0:0:
160,206,251471,1,0,3:0:0:0:
73,330,251624,2,0,L|86:266,1,52.4999983978272,8|0,3:2|0:0,0:0:0:0:
323,129,251930,5,0,3:0:0:0:
337,209,252083,1,8,3:2:0:0:
367,16,252236,5,0,1:2:0:0:
344,118,252389,1,0,3:0:0:0:
321,221,252543,1,0,1:0:0:0:
380,279,252696,1,0,3:0:0:0:
237,365,252849,6,0,L|251:300,1,52.4999983978272,8|0,3:2|0:0,0:0:0:0:
369,288,253002,1,0,1:0:0:0:
310,230,253155,1,0,3:0:0:0:
391,206,253308,1,8,3:2:0:0:
289,33,253461,5,0,3:2:0:0:
190,41,253614,1,8,3:2:0:0:
245,126,253767,1,0,1:0:0:0:
344,118,253920,1,0,3:0:0:0:
128,200,254073,6,0,L|142:135,1,52.4999983978272,8|0,3:2|0:0,0:0:0:0:
58,243,254226,1,0,1:0:0:0:
90,323,254379,1,0,3:0:0:0:
71,256,254532,1,0,3:0:0:0:
228,359,254685,6,0,B|321:385|318:320|406:285|487:345,1,269.999991760254,0|0,1:2|3:1,0:0:0:0:
263,280,255298,2,0,B|251:263|251:263|262:226,1,56.2500021457673,8|0,3:2|0:0,0:0:0:0:
62,76,255604,5,0,3:0:0:0:
196,95,255757,1,8,3:2:0:0:
101,66,255910,1,0,3:2:0:0:
200,193,256063,1,8,3:2:0:0:
113,212,256216,1,0,1:0:0:0:
459,47,256522,6,0,B|453:29|453:29|401:19,1,56.2500021457673,8|0,3:2|0:0,0:0:0:0:
406,214,256828,1,0,3:0:0:0:
492,185,256981,1,8,3:2:0:0:
258,359,257134,6,0,B|220:331|234:283|281:251|359:306,1,168.750006437302,0|0,1:2|0:0,0:0:0:0:
362,285,257441,2,0,P|376:253|317:210,1,112.500004291535,0|0,1:0|3:0,0:0:0:0:
142,118,257747,6,0,B|155:100|155:100|203:95,1,56.2500021457673,8|0,3:2|0:0,0:0:0:0:
85,58,257900,1,0,1:0:0:0:
18,188,258053,2,0,P|66:241|110:224,1,112.500004291535,0|8,3:0|3:2,0:0:0:0:
178,191,258359,1,0,3:2:0:0:
132,343,258512,1,8,3:2:0:0:
208,299,258665,1,0,1:0:0:0:
472,118,258971,6,0,L|460:53,1,56.2500021457673,8|0,3:2|0:0,0:0:0:0:
419,193,259124,1,0,1:0:0:0:
495,215,259277,1,0,3:0:0:0:
408,170,259430,1,0,3:0:0:0:
276,355,259583,6,0,P|259:263|208:179,1,168.750006437302,0|0,1:2|0:0,0:0:0:0:
152,167,259889,1,0,1:0:0:0:
290,142,260043,1,0,3:0:0:0:
103,71,260196,2,0,B|90:33|90:33|100:14,1,56.2500021457673,8|0,3:2|0:0,0:0:0:0:
123,254,260502,5,0,3:0:0:0:
80,180,260655,1,8,3:2:0:0:
254,115,260808,2,0,B|154:113|168:172|97:164,1,168.750006437302,0|0,3:2|0:0,0:0:0:0:
195,211,261114,1,0,1:0:0:0:
298,238,261267,1,0,3:0:0:0:
176,379,261420,2,0,B|157:366|157:366|144:314,1,56.2500021457673,8|0,3:2|0:0,0:0:0:0:
451,185,261726,5,0,3:0:0:0:
429,95,261879,1,8,3:2:0:0:
410,313,262032,5,0,1:2:0:0:
441,177,262185,1,0,3:0:0:0:
323,294,262338,1,0,1:0:0:0:
351,382,262492,1,0,3:0:0:0:
314,164,262645,6,0,L|249:175,1,56.2500021457673,8|0,3:2|0:0,0:0:0:0:
345,89,262798,1,0,1:0:0:0:
179,181,262951,1,0,3:0:0:0:
210,106,263104,1,8,3:2:0:0:
360,310,263257,5,0,3:2:0:0:
384,315,263410,1,8,3:2:0:0:
399,334,263563,1,0,1:0:0:0:
423,339,263716,1,0,3:0:0:0:
252,176,263869,5,8,3:2:0:0:
135,210,264022,1,0,1:0:0:0:
118,329,264175,1,0,3:0:0:0:
2,364,264328,1,0,3:0:0:0:
137,114,264481,6,0,B|83:78|6:114|51:290|143:192|195:237|212:342,1,337.500012874604,4|0,1:2|3:1,0:0:0:0:
299,140,265094,2,0,B|265:140|265:140|245:167,1,56.2500021457673,8|0,3:2|0:0,0:0:0:0:
448,382,265400,2,0,P|463:323|511:350,1,112.500004291535,0|8,3:0|3:2,0:0:0:0:
401,255,265706,5,0,3:2:0:0:
401,255,265859,1,8,3:2:0:0:
484,163,266012,1,0,1:0:0:0:
449,309,266165,1,0,3:0:0:0:
106,227,266318,6,0,B|92:179|92:179|128:134|128:134|211:145|211:145|218:164|218:164|301:178|301:178|334:130|334:130|316:82,1,393.750003755093,8|8,3:2|3:2,0:0:0:0:
465,255,266930,6,0,B|443:335|365:340|323:266|244:336,1,225.000008583069,0|0,1:2|1:0,0:0:0:0:
188,382,267389,1,0,3:0:0:0:
295,189,267543,2,0,B|278:147|221:143|170:203|216:300,1,168.750006437302,8|0,3:2|0:0,0:0:0:0:
187,267,267849,2,0,P|147:225|94:267,1,112.500004291535,0|8,3:0|3:2,0:0:0:0:
215,357,268155,1,0,3:2:0:0:
363,40,268461,5,0,1:0:0:0:
403,144,268614,1,0,3:0:0:0:
227,71,268767,6,0,B|227:50|227:50|192:68|192:68|219:117|219:117|196:210,1,185.625001770258,8|0,3:2|0:0,0:0:0:0:
135,230,269073,2,0,B|104:223|104:223|161:194|161:194|181:259|181:259|263:289,1,219.375000836849,0|0,3:0|0:0,0:0:0:0:
288,357,269379,6,0,B|370:310|393:407|491:370|485:292,1,225.000008583069,0|0,1:2|1:0,0:0:0:0:
395,246,269838,1,0,3:0:0:0:
506,97,269992,6,0,B|519:115|519:115|506:178,1,56.2500021457673,8|0,3:2|0:0,0:0:0:0:
421,72,270298,1,0,3:0:0:0:
336,48,270604,1,0,3:2:0:0:
22,295,270910,5,0,1:0:0:0:
128,259,271063,1,0,3:0:0:0:
297,316,271216,6,0,B|258:336|258:336|209:293|209:293|299:239|299:239|215:180|215:180|307:132,1,393.750003755093,8|8,3:2|3:2,0:0:0:0:
327,55,271828,5,0,1:2:0:0:
503,100,271981,1,0,3:0:0:0:
282,131,272134,1,0,1:0:0:0:
202,162,272287,1,0,3:0:0:0:
453,254,272441,6,0,L|374:235,1,65.6250006258488,8|0,3:2|0:0,0:0:0:0:
492,335,272594,1,0,1:0:0:0:
473,89,272747,1,0,3:0:0:0:
512,170,272900,1,8,3:2:0:0:
309,279,273053,5,0,3:2:0:0:
271,288,273206,1,8,3:2:0:0:
306,303,273359,1,0,1:0:0:0:
268,312,273512,1,0,3:0:0:0:
203,89,273665,5,8,3:2:0:0:
374,127,273818,1,0,1:0:0:0:
214,197,273971,1,0,3:0:0:0:
389,238,274124,1,0,3:0:0:0:
47,294,274277,6,0,B|4:209|118:197|129:80|42:48,1,255.000004863739,0|0,1:2|1:0,0:0:0:0:
183,128,274736,1,0,3:1:0:0:
314,12,274889,2,0,B|377:0|408:72|350:158,1,191.250003647804,8|0,3:2|0:0,0:0:0:0:
335,160,275196,2,0,B|390:172|390:172|412:165|412:165|476:181,1,127.50000243187,0|8,3:0|3:2,0:0:0:0:
271,97,275502,1,0,3:2:0:0:
136,206,275655,1,8,3:2:0:0:
257,275,275808,1,0,1:0:0:0:
200,342,275961,1,0,3:0:0:0:
119,120,276114,6,0,B|144:72|144:72|215:59|215:59|272:147|272:147|243:198|243:198|312:278|312:278|367:263,1,450,8|8,3:2|3:2,0:0:0:0:
498,106,276726,6,0,B|431:79|383:181|485:200|491:267|436:338,1,255.000004863739,0|0,1:2|1:0,0:0:0:0:
379,356,277185,1,0,3:0:0:0:
199,119,277338,2,0,B|199:73|259:40|331:112|298:192,1,191.250003647804,8|0,3:2|0:0,0:0:0:0:
254,230,277645,2,0,B|187:254|183:217|117:241,1,127.50000243187,0|8,3:0|3:2,0:0:0:0:
228,325,277951,1,0,3:2:0:0:
87,372,278104,1,8,3:2:0:0:
155,212,278257,2,0,P|147:165|78:182,1,127.50000243187,0|0,1:0|3:0,0:0:0:0:
447,9,278563,6,0,B|403:21|403:21|392:61|392:61|399:82|399:82|387:129|387:129|419:158,1,191.250003647804,8|0,3:2|0:0,0:0:0:0:
492,146,278869,6,0,B|469:87|469:87|410:78|410:78|401:84|401:84|330:73|330:73|290:131,1,269.999991760254,0|0,3:0|0:0,0:0:0:0:
213,145,279175,6,0,P|168:106|189:40,1,127.50000243187,0|0,1:2|3:0,0:0:0:0:
100,159,279481,1,0,1:0:0:0:
138,237,279634,1,0,3:0:0:0:
6,381,279787,2,0,L|22:307,1,63.7500012159348,8|0,3:2|0:0,0:0:0:0:
90,361,280094,1,0,3:0:0:0:
171,334,280400,1,0,3:2:0:0:
180,128,280706,5,0,1:0:0:0:
272,90,280859,1,0,3:0:0:0:
438,191,281012,6,0,B|477:194|477:194|422:155|422:155|372:203|372:203|368:223|368:223|313:281|313:281|280:205|280:205|308:175|308:175|307:156|307:156|338:124,1,450,8|8,3:2|3:2,0:0:0:0:
267,67,281624,5,0,1:2:0:0:
158,54,281777,1,0,3:0:0:0:
35,183,281930,1,0,1:0:0:0:
207,146,282083,1,0,3:0:0:0:
119,367,282236,6,0,B|73:363|59:302|81:236|169:219|192:234,1,191.250003647804,8|0,3:2|0:0,0:0:0:0:
217,160,282543,1,0,3:0:0:0:
271,294,282696,1,8,3:2:0:0:
422,130,282849,5,0,3:2:0:0:
303,89,283002,1,8,3:2:0:0:
502,76,283155,1,0,1:0:0:0:
435,8,283308,1,0,3:0:0:0:
382,248,283461,6,0,B|262:267|283:176|150:203,1,213.749994292259,8|0,3:2|0:0,0:0:0:0:
120,309,283767,2,0,B|189:325|189:325|170:256|170:256|174:244|174:244|152:153,1,236.249992790222,0|0,3:0|0:0,0:0:0:0:
213,73,284073,6,0,B|314:48|344:101|304:147|424:164|492:144|499:69|463:20|407:29,1,382.500007295609,2|0,1:3|0:0,0:0:0:0:
277,165,284685,2,0,B|244:172|244:172|210:137,1,63.7500012159348,12|0,3:2|0:0,0:0:0:0:
252,284,284838,1,0,0:0:0:0:
416,357,284992,1,0,3:0:0:0:
430,270,285145,1,8,2:0:0:0:
424,256,285221,1,8,2:0:0:0:
413,245,285298,5,2,1:3:0:0:
512,53,285502,1,0,0:0:0:0:
463,121,285604,2,0,P|401:113|384:40,1,127.50000243187,0|2,1:0|2:3,0:0:0:0:
297,166,285910,5,8,3:2:0:0:
233,169,286012,1,8,2:0:0:0:
189,122,286114,1,8,2:0:0:0:
167,204,286216,5,8,2:0:0:0:
241,177,286318,1,8,2:0:0:0:
259,100,286420,1,8,2:0:0:0:
195,31,286522,6,0,P|130:42|76:73,1,127.50000243187,4|0,1:2|0:0,0:0:0:0:
370,143,286828,2,0,P|389:87|327:46,1,127.50000243187,0|0,1:0|0:0,0:0:0:0:
165,282,287134,6,0,L|90:300,1,63.7500012159348,10|0,3:2|0:0,0:0:0:0:
149,181,287287,1,0,0:0:0:0:
259,336,287441,2,0,B|329:330|306:281|394:281,1,127.50000243187,8|0,2:3|0:0,0:0:0:0:
139,78,287747,1,4,2:0:0:0:
242,37,287900,1,8,2:3:0:0:
253,40,287951,1,8,2:3:0:0:
264,43,288002,1,8,2:3:0:0:
275,46,288053,2,0,P|213:69|156:33,1,127.50000243187,8|8,2:0|2:3,0:0:0:0:
358,164,288359,5,4,1:3:0:0:
391,36,288512,1,0,3:2:0:0:
450,254,288665,2,0,B|388:218|336:244|331:298|246:262,1,191.250003647804,8|0,2:0|0:0,0:0:0:0:
224,202,288971,5,4,1:2:0:0:
0,242,289124,1,0,0:0:0:0:
206,338,289277,1,0,1:0:0:0:
138,259,289430,1,0,0:0:0:0:
354,113,289583,6,0,B|379:59|347:-3|289:8|269:26,1,127.50000243187,8|0,3:2|0:0,0:0:0:0:
310,182,289889,5,2,3:0:0:0:
341,219,289992,1,8,2:0:0:0:
387,225,290094,1,8,2:0:0:0:
450,186,290196,5,4,1:3:0:0:
381,218,290298,1,8,2:3:0:0:
373,293,290400,1,8,2:0:0:0:
422,350,290502,5,0,1:3:0:0:
437,346,290604,1,8,2:0:0:0:
452,342,290706,1,0,1:0:0:0:
370,285,290808,5,6,2:3:0:0:
315,299,290910,1,8,2:3:0:0:
297,352,291012,1,8,2:3:0:0:
230,382,291114,5,4,2:3:0:0:
193,365,291216,1,4,2:3:0:0:
186,325,291318,1,4,2:3:0:0:
158,250,291420,6,0,B|201:183|325:198|280:277|413:264,1,255.000004863739,4|0,1:2|1:2,0:0:0:0:
464,207,291879,1,0,0:0:0:0:
344,61,292032,2,0,B|385:50|420:96|405:140|377:174,1,127.50000243187,10|0,2:0|0:0,0:0:0:0:
173,150,292338,6,0,L|187:101,6,31.8750006079674,8|8|8|8|8|8|8,2:0|2:3|2:3|2:3|2:3|2:3|2:3,0:0:0:0:
276,197,292645,1,2,2:3:0:0:
28,254,292798,1,8,2:0:0:0:
131,301,292951,1,8,2:0:0:0:
120,314,293257,5,8,3:0:0:0:
97,94,293410,1,0,1:0:0:0:
102,197,293563,1,4,2:3:0:0:
78,73,293716,1,8,2:3:0:0:
213,247,293869,6,0,B|299:278|329:212,1,127.50000243187,2|0,1:3|0:0,0:0:0:0:
452,136,294175,2,0,B|366:167|337:104,1,127.50000243187,0|0,1:0|0:0,0:0:0:0:
93,65,294481,2,0,L|107:135,1,63.7500012159348,12|0,3:2|0:0,0:0:0:0:
158,8,294634,1,0,0:0:0:0:
218,70,294787,1,0,3:0:0:0:
28,208,294941,1,8,2:0:0:0:
25,219,295017,1,8,2:0:0:0:
23,230,295094,5,2,1:3:0:0:
93,65,295298,1,0,0:0:0:0:
11,113,295400,2,0,B|47:85|91:98|138:137,1,127.50000243187,0|2,1:0|2:3,0:0:0:0:
174,217,295706,5,8,3:2:0:0:
229,218,295808,1,8,2:0:0:0:
261,172,295910,1,8,2:0:0:0:
335,132,296012,5,8,2:0:0:0:
408,163,296114,1,8,2:0:0:0:
387,240,296216,1,8,2:0:0:0:
330,320,296318,6,0,B|321:278|366:217|477:255|527:332,1,255.000004863739,4|0,1:2|1:0,0:0:0:0:
431,376,296777,1,0,0:0:0:0:
225,233,296930,2,0,B|161:253|161:253|150:313,1,127.50000243187,10|0,3:2|0:0,0:0:0:0:
290,144,297236,2,0,B|256:90|218:125|180:68,1,127.50000243187,8|0,2:3|0:0,0:0:0:0:
385,265,297543,1,4,2:0:0:0:
464,209,297696,1,8,2:3:0:0:
466,197,297747,1,8,2:3:0:0:
464,185,297798,1,8,2:3:0:0:
458,174,297849,2,0,P|420:236|465:322,1,127.50000243187,8|8,2:0|2:3,0:0:0:0:
250,360,298155,5,4,1:3:0:0:
133,333,298308,1,0,3:2:0:0:
125,215,298461,1,8,2:0:0:0:
241,241,298614,1,8,2:3:0:0:
389,50,298767,6,0,B|365:21|293:42|278:108|396:157|337:246,1,255.000004863739,4|0,1:2|1:0,0:0:0:0:
250,259,299226,1,0,0:0:0:0:
484,377,299379,2,0,B|444:323|412:364|375:315,1,127.50000243187,8|0,3:2|0:0,0:0:0:0:
450,204,299685,5,2,3:0:0:0:
480,174,299787,1,8,2:0:0:0:
482,131,299889,1,8,2:0:0:0:
459,56,299992,5,4,1:3:0:0:
446,127,300094,1,8,2:3:0:0:
435,199,300196,1,8,2:0:0:0:
394,211,300298,5,0,1:3:0:0:
368,210,300400,1,8,2:0:0:0:
350,228,300502,1,0,1:0:0:0:
285,266,300604,5,6,2:3:0:0:
224,236,300706,1,8,2:3:0:0:
224,168,300808,1,8,2:3:0:0:
279,120,300910,5,4,2:3:0:0:
285,104,301012,1,4,2:3:0:0:
282,87,301114,1,4,2:3:0:0:
350,141,301216,5,4,1:2:0:0:
322,23,301369,1,0,0:0:0:0:
457,165,301522,1,0,1:2:0:0:
382,341,301675,1,0,0:0:0:0:
119,197,301828,6,0,P|134:148|222:158,1,127.50000243187,10|0,2:0|0:0,0:0:0:0:
80,278,302134,2,0,L|90:329,6,31.8750006079674,8|8|8|8|8|8|8,2:0|2:3|2:3|2:3|2:3|2:3|2:3,0:0:0:0:
203,338,302441,1,2,2:3:0:0:
81,85,302594,1,8,2:0:0:0:
204,145,302747,1,8,2:0:0:0:
211,138,303053,5,8,3:0:0:0:
335,112,303206,1,0,1:0:0:0:
165,257,303359,1,4,2:3:0:0:
380,299,303512,1,8,2:3:0:0:
79,375,303665,6,0,B|-16:306|60:187|144:193|85:51|85:51|71:140|-6:172,1,510.000009727478,2|12,1:3|3:2,0:0:0:0:
413,235,304736,5,8,2:0:0:0:
400,233,304813,1,8,2:0:0:0:
387,231,304889,1,2,1:3:0:0:
455,99,305043,2,0,L|447:42,1,34.9999989318848,8|0,2:0|0:0,0:0:0:0:
393,151,305196,2,0,P|343:156|298:188,1,104.999996795654,0|2,1:0|2:3,0:0:0:0:
201,279,305502,5,8,3:2:0:0:
176,253,305604,1,8,2:0:0:0:
185,218,305706,1,8,2:0:0:0:
235,156,305808,5,8,2:0:0:0:
256,87,305910,1,8,2:0:0:0:
207,34,306012,1,8,2:0:0:0:
95,92,306114,6,0,B|246:120|206:14|348:-6|414:75,1,314.999990386963,4|0,1:2|0:0,0:0:0:0:
502,104,306726,2,0,P|513:38|461:26,1,104.999996795654,10|0,3:2|0:0,0:0:0:0:
308,177,307032,2,0,B|364:181|357:148|412:157,1,104.999996795654,8|0,2:3|0:0,0:0:0:0:
491,346,307338,1,4,2:0:0:0:
412,295,307492,1,8,2:3:0:0:
409,286,307543,1,8,2:3:0:0:
407,277,307594,1,8,2:3:0:0:
406,268,307645,2,0,P|442:288|464:351,1,104.999996795654,8|8,2:0|2:3,0:0:0:0:
259,375,307951,5,4,1:3:0:0:
277,292,308104,1,0,3:2:0:0:
172,373,308257,1,8,2:0:0:0:
190,290,308410,1,8,2:3:0:0:
85,135,308563,6,0,B|45:90|96:23|185:32|236:101|137:186|287:240,1,314.999990386963,4|0,1:2|0:0,0:0:0:0:
74,302,309175,1,8,3:2:0:0:
129,214,309328,1,0,0:0:0:0:
213,356,309481,5,2,3:0:0:0:
242,358,309583,1,8,2:0:0:0:
269,345,309685,1,8,2:0:0:0:
295,276,309787,5,4,1:3:0:0:
279,212,309889,1,8,2:3:0:0:
262,150,309992,1,8,2:0:0:0:
273,137,310094,5,0,1:3:0:0:
290,140,310196,1,8,2:0:0:0:
307,143,310298,1,0,1:0:0:0:
365,190,310400,5,6,2:3:0:0:
433,168,310502,1,8,2:3:0:0:
446,97,310604,1,8,2:3:0:0:
390,49,310706,5,4,2:3:0:0:
366,30,310808,1,4,2:3:0:0:
363,0,310910,1,4,2:3:0:0:
480,28,311012,6,0,B|375:161|320:15|191:177,1,314.999990386963,4|0,1:2|0:0,0:0:0:0:
340,318,311624,2,0,B|310:282|302:244|338:200,1,104.999996795654,10|0,2:0|0:0,0:0:0:0:
148,336,311930,2,0,L|102:343,4,34.9999989318848,8|0|0|8|0,2:0|0:0|0:0|2:3|0:0,0:0:0:0:
209,261,312236,1,2,2:3:0:0:
0,246,312389,1,8,2:0:0:0:
61,171,312543,1,8,2:0:0:0:
389,173,312849,5,8,3:0:0:0:
278,134,313002,1,0,1:0:0:0:
424,47,313155,2,0,P|441:66|446:92,1,52.4999983978272,4|0,2:3|0:0,0:0:0:0:
508,153,313308,2,0,P|502:178|484:197,1,52.4999983978272,8|0,2:3|0:0,0:0:0:0:
418,262,313461,6,0,B|437:333|515:376|515:376|492:305|368:295|267:398,1,419.999987182618,4|8,1:2|3:2,0:0:0:0:
186,303,314226,2,0,B|187:258|235:242|281:291,1,120,0|8,3:0|3:2,0:0:0:0:
171,186,314685,1,0,3:2:0:0:
291,131,314838,1,8,3:2:0:0:
224,78,314991,1,0,1:0:0:0:
224,78,315144,1,0,3:0:0:0:
38,178,315297,6,0,B|118:212|109:137|186:143|214:192,1,180,8|8,3:2|3:2,0:0:0:0:
373,169,315910,2,0,B|330:149|261:178|253:229|296:286|228:313|200:318,1,240,0|8,1:2|3:2,0:0:0:0:
382,290,316675,1,0,1:0:0:0:
318,368,316828,1,0,3:0:0:0:
318,368,316981,1,8,3:2:0:0:
490,212,317134,6,0,B|475:174|395:132|287:180|291:297|152:247,1,360,0|0,3:2|3:0,0:0:0:0:
210,170,318206,1,0,3:0:0:0:
126,48,318359,2,0,B|200:39|217:107|188:183,1,180,0|0,1:2|3:0,0:0:0:0:
120,245,318971,5,8,3:2:0:0:
158,384,319124,1,0,3:0:0:0:
210,270,319277,1,0,3:0:0:0:
109,256,319430,1,8,3:2:0:0:
266,193,319583,1,0,3:2:0:0:
266,193,319736,1,8,3:2:0:0:
99,169,319889,1,0,1:0:0:0:
99,169,320042,1,0,3:0:0:0:
256,83,320195,6,0,B|271:65|323:86,1,60,8|0,3:2|3:0,0:0:0:0:
436,144,320502,2,0,B|421:126|369:147,1,60,0|8,3:0|3:2,0:0:0:0:
362,0,320808,2,0,B|312:171|376:74|332:244,1,240,0|8,1:2|3:2,0:0:0:0:
445,154,321573,1,0,1:0:0:0:
499,218,321726,1,0,3:0:0:0:
499,218,321879,1,8,3:2:0:0:
377,376,322032,2,0,B|322:332|366:253|308:206,1,180,0|0,3:2|3:0,0:0:0:0:
228,178,322644,5,8,3:2:0:0:
21,241,322797,1,0,1:0:0:0:
149,148,322951,1,0,3:0:0:0:
116,264,323104,1,0,3:0:0:0:
149,25,323257,6,0,B|53:182|208:235|129:374,1,360,2|0,1:3|0:0,0:0:0:0:
349,228,323869,2,0,B|355:186|334:157|334:157|300:137|300:137|241:182|273:269,1,240,12|0,3:2|3:0,0:0:0:0:
392,330,324328,1,8,2:0:0:0:
372,325,324404,1,8,2:0:0:0:
351,320,324481,1,2,1:3:0:0:
253,376,324634,1,8,2:0:0:0:
205,182,324787,2,0,P|245:183|258:261,1,120,0|2,1:0|2:3,0:0:0:0:
128,260,325093,5,8,3:2:0:0:
84,279,325195,1,8,2:0:0:0:
79,326,325297,1,8,2:0:0:0:
157,373,325400,5,8,2:0:0:0:
150,293,325502,1,8,2:0:0:0:
145,213,325604,1,8,2:0:0:0:
189,150,325706,5,4,1:2:0:0:
101,74,325859,1,0,0:0:0:0:
306,6,326012,2,0,P|370:18|417:63,1,120,0|0,1:0|0:0,0:0:0:0:
464,237,326318,1,10,3:2:0:0:
379,176,326471,1,0,0:0:0:0:
506,34,326624,2,0,P|468:15|425:81,1,120,8|0,2:3|0:0,0:0:0:0:
434,90,326854,1,0,0:0:0:0:
455,108,326930,1,4,2:0:0:0:
261,52,327083,1,8,2:3:0:0:
256,47,327134,1,8,2:3:0:0:
252,42,327185,1,8,2:3:0:0:
247,38,327236,2,0,P|305:26|322:100,1,120,8|8,2:0|2:3,0:0:0:0:
179,213,327542,5,4,1:3:0:0:
87,193,327695,1,0,3:2:0:0:
154,316,327849,1,8,2:0:0:0:
246,296,328002,1,8,2:3:0:0:
441,90,328155,6,0,B|382:122|377:191|377:191|412:207|418:249|418:249|402:263|399:284,1,240,4|0,1:2|1:0,0:0:0:0:
429,363,328614,1,0,0:0:0:0:
224,200,328767,2,0,B|199:235|199:235|244:316,1,120,8|0,3:2|0:0,0:0:0:0:
294,131,329073,5,2,3:0:0:0:
271,108,329175,1,8,2:0:0:0:
239,102,329277,1,8,2:0:0:0:
163,142,329379,5,4,1:3:0:0:
117,197,329481,1,8,2:3:0:0:
45,197,329583,1,8,2:0:0:0:
1,131,329685,5,0,1:3:0:0:
5,117,329787,1,8,2:0:0:0:
9,103,329889,1,0,1:0:0:0:
25,25,329991,5,6,2:3:0:0:
36,98,330093,1,8,2:3:0:0:
47,170,330195,1,8,2:3:0:0:
69,199,330298,5,4,2:3:0:0:
83,210,330400,1,4,2:3:0:0:
100,211,330502,1,4,2:3:0:0:
170,156,330604,6,0,B|228:136|228:136|281:181,1,120,4|0,1:2|0:0,0:0:0:0:
484,83,330910,1,0,1:2:0:0:
441,197,331063,1,0,0:0:0:0:
277,47,331216,2,0,L|293:189,1,120,10|0,2:0|0:0,0:0:0:0:
177,308,331522,2,0,L|148:313,6,30,8|8|0|0|0|0|0,2:0|2:3|0:0|0:0|0:0|0:0|0:0,0:0:0:0:
297,345,331828,1,2,2:3:0:0:
98,174,331981,1,8,2:0:0:0:
218,211,332134,1,8,2:0:0:0:
424,28,332440,5,8,3:0:0:0:
380,213,332593,1,0,1:0:0:0:
512,294,332747,1,4,2:3:0:0:
486,179,332900,1,8,2:3:0:0:
275,366,333053,6,0,B|162:347|209:202|297:228|274:94,1,300,2|0,1:3|0:0,0:0:0:0:
51,58,333665,2,0,B|37:18|37:18|166:77|166:77|198:160,1,240,12|0,3:2|3:0,0:0:0:0:
70,260,334124,1,8,2:0:0:0:
73,248,334201,1,8,2:0:0:0:
76,237,334277,5,2,1:3:0:0:
199,312,334430,1,0,0:0:0:0:
273,250,334583,2,0,B|335:244|327:288|401:275,1,120,0|2,1:0|2:3,0:0:0:0:
478,146,334889,5,8,3:2:0:0:
443,162,334991,1,8,2:0:0:0:
432,199,335093,1,8,2:0:0:0:
384,264,335195,5,8,2:0:0:0:
334,206,335298,1,8,2:0:0:0:
342,131,335400,1,8,2:0:0:0:
420,68,335502,6,0,P|286:91|202:17,1,240,4|0,1:2|1:0,0:0:0:0:
121,64,335961,1,0,0:0:0:0:
232,252,336114,2,0,B|265:242|265:242|203:158,1,120,10|0,3:2|0:0,0:0:0:0:
103,350,336420,2,0,P|137:372|177:314,1,120,8|0,2:3|0:0,0:0:0:0:
164,295,336650,1,0,0:0:0:0:
137,283,336726,1,4,2:0:0:0:
308,310,336879,5,8,2:3:0:0:
317,311,336930,1,8,2:3:0:0:
325,314,336981,1,8,2:3:0:0:
334,315,337032,2,0,P|308:262|229:243,1,120,8|8,2:0|2:3,0:0:0:0:
370,110,337338,1,4,1:3:0:0:
160,65,337491,1,0,3:2:0:0:
270,152,337644,1,8,2:0:0:0:
181,169,337797,1,8,2:3:0:0:
375,286,337951,6,0,B|425:326|512:318|526:138|420:166|377:123|410:24,1,360,4|0,1:2|0:0,0:0:0:0:
304,224,338563,1,8,3:2:0:0:
273,131,338716,1,0,0:0:0:0:
140,267,338869,5,2,3:0:0:0:
118,272,338971,1,8,2:0:0:0:
96,277,339073,1,8,2:0:0:0:
46,225,339175,5,4,1:3:0:0:
97,163,339277,1,8,2:3:0:0:
175,177,339379,1,8,2:0:0:0:
203,146,339481,5,0,1:3:0:0:
207,127,339583,1,8,2:0:0:0:
201,110,339685,1,0,1:0:0:0:
135,69,339787,5,6,2:3:0:0:
99,140,339889,1,8,2:3:0:0:
150,201,339991,1,8,2:3:0:0:
99,258,340093,5,4,2:3:0:0:
85,261,340195,1,4,2:3:0:0:
71,264,340297,1,4,2:3:0:0:
139,321,340400,6,0,B|200:338|200:338|257:293,1,120,4|0,1:2|0:0,0:0:0:0:
419,90,340706,2,0,P|350:112|360:167,1,120,0|0,1:2|0:0,0:0:0:0:
434,342,341012,1,10,2:0:0:0:
336,267,341165,1,0,0:0:0:0:
121,345,341318,6,0,L|83:355,6,30,8|8|8|8|8|8|8,2:0|2:3|2:3|2:3|2:3|2:3|2:3,0:0:0:0:
214,260,341624,1,2,2:3:0:0:
7,185,341777,1,8,2:0:0:0:
100,100,341930,1,8,2:0:0:0:
487,204,342236,5,8,3:0:0:0:
386,82,342389,1,0,1:0:0:0:
389,263,342542,1,4,2:3:0:0:
495,36,342695,1,8,2:3:0:0:
268,219,342848,6,0,L|205:233,1,60,0|0,1:2|0:0,0:0:0:0:
