osu file format v14

[General]
AudioFilename: audio.mp3
AudioLeadIn: 0
PreviewTime: 45487
Countdown: 1
SampleSet: Soft
StackLeniency: 0.5
Mode: 0
LetterboxInBreaks: 0
WidescreenStoryboard: 1

[Editor]
Bookmarks: 2507,6704,11678,14165,24113,34062,46497,68569,68880,78828,81316
DistanceSpacing: 1.3
BeatDivisor: 4
GridSize: 8
TimelineZoom: 1.4

[Metadata]
Title:Blue sky
TitleUnicode:Blue sky
Artist:Lena Liechtenauer (CV: Sawasawa Sawa)
ArtistUnicode:レナ・リヒテナウアー(CV: 沢澤砂羽)
Creator:tomatas95
Version:Hard
Source:千恋*万花
Tags:senren banka yuzusoft ゆずソフト eroge jpop j-pop pop japanese visual novel vn video game size galgame angel note haduki shunsuke shiina character
BeatmapID:2977915
BeatmapSetID:1372152

[Difficulty]
HPDrainRate:5
CircleSize:3.5
OverallDifficulty:6
ApproachRate:8
SliderMultiplier:1.3
SliderTickRate:1

[Events]
//Background and Video events
0,0,"Lenakawaiidesu.jpg",0,0
//Break Periods
//Storyboard Layer 0 (Background)
//Storyboard Layer 1 (Fail)
//Storyboard Layer 2 (Pass)
//Storyboard Layer 3 (Foreground)
//Storyboard Layer 4 (Overlay)
//Storyboard Sound Samples

[TimingPoints]
354,310.880829015544,4,2,1,70,1,0
354,-100,4,2,1,70,0,0
509,-100,4,2,1,30,0,0
664,-100,4,2,6,50,0,0
898,-100,4,2,6,5,0,0
975,310.880829015544,4,2,2,70,1,0
975,-100,4,2,2,70,0,0
1285,-100,4,2,1,70,0,0
3383,-100,4,2,1,5,0,0
3461,-100,4,2,1,70,0,0
5870,-100,4,2,1,5,0,0
5948,-100,4,2,2,70,0,0
6259,-100,4,2,1,70,0,0
8357,-100,4,2,2,5,0,0
8435,-100,4,2,1,70,0,0
10922,-100,4,2,6,70,0,0
11699,-100,4,2,6,70,0,0
12010,-100,4,2,1,70,0,0
12321,-100,4,2,6,70,0,0
12632,-100,4,2,1,70,0,0
12787,-100,4,2,6,70,0,0
13409,-125,4,2,1,50,0,0
13642,-125,4,2,1,5,0,0
13720,-125,4,2,1,50,0,0
15818,-125,4,2,1,5,0,0
15896,-125,4,2,4,50,0,0
16052,-125,4,2,1,50,0,0
18305,-125,4,2,1,5,0,0
18383,-125,4,2,4,50,0,0
18539,-125,4,2,1,50,0,0
20870,-125,4,2,4,50,0,0
21026,-125,4,2,1,50,0,0
22114,-111.111111111111,4,2,2,65,0,0
22425,-111.111111111111,4,2,1,65,0,0
23357,-100,4,2,2,60,0,0
23591,-100,4,2,1,5,0,0
23668,-100,4,2,1,80,0,0
23901,-100,4,2,1,5,0,0
23979,-100,4,2,1,60,0,0
25067,-100,4,2,2,70,0,0
25378,-100,4,2,1,70,0,0
25844,-100,4,2,1,60,0,0
27010,-100,4,2,1,5,0,0
27088,-100,4,2,1,60,0,0
27554,-100,4,2,2,70,0,0
28021,-100,4,2,1,70,0,0
28332,-100,4,2,2,60,0,0
28487,-100,4,2,1,60,0,0
30819,-100,4,2,2,65,0,0
31129,-100,4,2,1,65,0,0
32062,-100,4,2,1,70,0,0
33306,-100,4,2,8,60,0,0
35482,-100,4,2,1,60,0,0
35793,-100,4,2,1,65,0,0
38280,-100,4,2,8,60,0,0
40300,-100,4,2,1,60,0,0
40611,-100,4,2,1,60,0,0
40767,-100,4,2,1,65,0,0
41855,-100,4,2,2,65,0,0
42010,-100,4,2,1,65,0,0
42476,-100,4,2,1,5,0,0
42632,-100,4,2,1,65,0,0
43254,-100,4,2,2,70,0,0
43565,-100,4,2,2,75,0,0
43876,-100,4,2,2,80,0,0
44186,-100,4,2,2,85,0,0
44342,-100,4,2,1,85,0,0
44497,-100,4,2,2,80,0,0
44653,-100,4,2,1,70,0,0
45741,-90.9090909090909,4,2,2,80,0,1
45974,-90.9090909090909,4,2,1,5,0,1
46052,-90.9090909090909,4,2,2,85,0,1
46285,-90.9090909090909,4,2,2,5,0,1
46363,-90.9090909090909,4,2,2,80,0,1
48461,-90.9090909090909,4,2,2,5,0,1
48539,-90.9090909090909,4,2,2,85,0,1
48772,-90.9090909090909,4,2,1,5,0,1
48850,-90.9090909090909,4,2,2,80,0,1
53124,-90.9090909090909,4,2,1,5,0,1
53202,-90.9090909090909,4,2,2,80,0,1
54757,-100,4,2,1,75,0,0
55067,-100,4,2,1,80,0,0
55378,-100,4,2,1,85,0,0
55690,-90.9090909090909,4,2,2,80,0,1
55922,-90.9090909090909,4,2,2,5,0,1
56000,-90.9090909090909,4,2,2,85,0,1
56233,-90.9090909090909,4,2,2,5,0,1
56311,-90.9090909090909,4,2,2,80,0,1
58409,-90.9090909090909,4,2,2,5,0,1
58487,-90.9090909090909,4,2,2,85,0,1
58720,-90.9090909090909,4,2,2,5,0,1
58798,-90.9090909090909,4,2,2,80,0,1
64238,-90.9090909090909,4,2,1,80,0,1
64394,-90.9090909090909,4,2,2,80,0,1
68125,-100,4,2,2,70,0,0
68435,-100,4,2,1,70,0,0
70533,-100,4,2,1,5,0,0
70611,-100,4,2,1,70,0,0
73020,-100,4,2,1,5,0,0
73098,-100,4,2,2,70,0,0
73409,-100,4,2,1,70,0,0
75507,-100,4,2,2,5,0,0
75585,-100,4,2,1,70,0,0
78072,-100,4,2,6,70,0,0
78849,-100,4,2,6,70,0,0
79160,-100,4,2,1,70,0,0
79471,-100,4,2,6,70,0,0
79782,-100,4,2,1,70,0,0
79937,-100,4,2,6,70,0,0
80093,-100,4,2,1,70,0,0
80560,-250,4,2,1,70,0,0
80870,-250,4,2,1,60,0,0
81803,-250,4,2,1,50,0,0
83047,-250,4,2,1,40,0,0
83668,-250,4,2,1,35,0,0
84290,-250,4,2,1,30,0,0
84912,-250,4,2,1,25,0,0
85534,-250,4,2,1,20,0,0
86155,-250,4,2,1,5,0,0

[Colours]
Combo1 : 249,162,242
Combo2 : 251,186,121
Combo3 : 244,220,81
Combo4 : 177,192,252

[HitObjects]
93,45,509,5,0,3:0:0:0:
175,20,664,1,6,3:2:0:0:
13,70,975,6,0,B|-1:91|-1:91|1:133,1,65,6|0,3:1|0:0,0:0:0:0:
74,181,1286,2,0,B|88:202|88:202|86:244,1,65,10|0,0:1|0:0,0:0:0:0:
4,266,1597,1,2,3:2:0:0:
2,350,1752,1,2,3:2:0:0:
80,381,1908,1,10,0:0:0:0:
137,312,2063,6,0,L|207:307,1,65,2|0,0:0|3:0,0:0:0:0:
243,226,2374,2,0,L|282:284,1,65,2|8,0:0|0:0,0:0:0:0:
371,275,2685,2,0,L|340:338,1,65,2|0,0:0|3:0,0:0:0:0:
262,367,2996,1,2,3:2:0:0:
279,279,3151,1,10,0:0:0:0:
436,193,3462,6,0,P|443:159|432:116,1,65,2|0,3:1|0:0,0:0:0:0:
374,65,3773,2,0,P|340:72|297:61,1,65,10|0,2:1|0:0,0:0:0:0:
230,37,4084,1,2,3:2:0:0:
155,76,4239,1,2,3:2:0:0:
166,160,4395,1,10,0:0:0:0:
251,191,4550,6,0,P|287:199|320:191,1,65,2|0,0:0|3:0,0:0:0:0:
183,245,4861,2,0,P|194:280|217:304,1,65,2|8,0:0|0:0,0:0:0:0:
102,213,5172,2,0,P|77:240|67:272,1,65,2|0,3:2|0:0,0:0:0:0:
108,340,5483,1,2,3:2:0:0:
29,370,5638,1,10,0:0:0:0:
21,175,5949,6,0,B|14:148|14:148|21:100,1,65,6|0,3:1|0:0,0:0:0:0:
79,30,6260,2,0,B|106:37|106:37|154:30,1,65,10|0,0:1|0:0,0:0:0:0:
239,15,6571,1,2,3:2:0:0:
202,90,6726,1,2,3:2:0:0:
275,131,6882,1,10,0:0:0:0:
316,58,7037,6,0,B|351:54|351:54|389:59,1,65,2|0,0:0|3:0,0:0:0:0:
475,104,7348,2,0,B|441:118|441:118|414:143,1,65,2|8,0:0|0:0,0:0:0:0:
370,214,7659,2,0,B|391:243|391:243|402:279,1,65,2|0,0:0|3:0,0:0:0:0:
422,352,7970,1,2,3:2:0:0:
492,305,8125,1,10,0:0:0:0:
312,360,8436,6,0,P|304:327|313:291,1,65,2|0,3:1|0:0,0:0:0:0:
212,246,8747,2,0,P|220:279|208:317,1,65,10|0,0:1|0:0,0:0:0:0:
160,375,9058,1,2,3:2:0:0:
77,357,9213,1,2,3:2:0:0:
45,278,9369,1,10,0:0:0:0:
109,222,9524,6,0,L|100:145,1,65,2|0,0:0|3:0,0:0:0:0:
62,78,9835,2,0,L|136:71,1,65,2|10,0:0|0:0,0:0:0:0:
206,31,10146,2,0,L|213:105,1,65,2|0,3:2|0:0,0:0:0:0:
219,180,10457,1,2,3:2:0:0:
293,131,10612,2,0,P|329:126|365:134,1,65,8|0,0:0|3:0,0:0:0:0:
433,189,10923,5,2,3:2:0:0:
447,103,11079,1,6,3:2:0:0:
419,275,11390,1,2,3:2:0:0:
276,354,11700,1,6,3:2:0:0:
156,244,12011,1,2,3:2:0:0:
226,95,12322,1,6,3:2:0:0:
388,115,12633,5,2,3:2:0:0:
301,151,12788,1,6,3:2:0:0:
475,356,13410,5,6,3:2:0:0:
475,356,13721,2,0,P|483:327|474:290,1,52,2|0,3:2|0:0,0:0:0:0:
478,224,14032,2,0,P|449:216|412:225,1,52,2|0,3:2|0:0,0:0:0:0:
350,229,14343,2,0,P|342:258|351:295,1,52,2|0,3:2|0:0,0:0:0:0:
355,357,14654,6,0,P|319:366|250:344,1,104,2|2,3:2|3:2,0:0:0:0:
208,284,15120,2,0,L|196:161,1,104,10|2,0:0|0:0,0:0:0:0:
188,98,15586,1,8,0:0:0:0:
43,30,15897,5,2,3:2:0:0:
43,30,16208,2,0,L|37:91,1,52,2|0,3:2|0:0,0:0:0:0:
105,131,16519,2,0,L|69:181,1,52,2|0,3:2|0:0,0:0:0:0:
108,249,16830,2,0,L|51:274,1,52,2|0,3:2|0:0,0:0:0:0:
0,336,17141,6,0,L|101:378,1,104,2|2,3:2|3:2,0:0:0:0:
174,372,17607,2,0,P|210:360|294:383,1,104,10|2,0:0|0:0,0:0:0:0:
351,381,18073,1,8,0:0:0:0:
265,250,18384,6,0,P|260:221|267:190,1,52,2|0,3:2|0:0,0:0:0:0:
201,151,18695,2,0,P|223:132|253:122,1,52,2|0,3:2|0:0,0:0:0:0:
208,54,19006,2,0,P|243:46|313:83,1,104,2|0,3:2|3:2,0:0:0:0:
348,140,19472,6,0,P|383:148|453:111,1,104,2|2,0:0|0:0,0:0:0:0:
484,48,19939,2,0,L|430:42,1,52,2|8,3:2|0:0,0:0:0:0:
362,11,20250,1,2,3:2:0:0:
246,123,20561,1,8,0:0:0:0:
246,123,20871,6,0,P|230:166|254:226,1,104,2|0,3:2|3:0,0:0:0:0:
293,288,21338,1,2,0:0:0:0:
227,335,21493,2,0,P|201:300|133:290,1,104,2|8,3:2|0:0,0:0:0:0:
73,327,21959,1,8,0:0:0:0:
17,258,22115,6,0,L|24:192,1,58.4999982147217,6|0,3:2|3:0,0:0:0:0:
112,201,22426,2,0,L|119:135,1,58.4999982147217,10|0,0:0|3:0,0:0:0:0:
207,144,22737,2,0,L|214:78,1,58.4999982147217,10|0,0:0|3:0,0:0:0:0:
232,8,23048,2,0,L|272:12,2,29.2499991073609,8|8|4,0:0|0:0|3:3,0:0:0:0:
135,16,23358,5,6,3:2:0:0:
135,16,23669,2,0,B|100:27|100:27|55:13,1,65,10|0,0:1|0:0,0:0:0:0:
12,83,23980,2,0,L|4:157,1,65,2|0,3:2|0:0,0:0:0:0:
5,242,24291,1,10,0:0:0:0:
5,242,24602,6,0,P|59:224|134:260,1,130,2|10,3:2|0:0,0:0:0:0:
166,325,25068,2,0,P|220:343|295:307,1,130,2|2,0:1|3:1,0:0:0:0:
342,253,25535,1,10,0:1:0:0:
299,180,25690,1,2,0:1:0:0:
315,100,25845,5,0,3:0:0:0:
315,100,26156,2,0,P|310:65|318:34,1,65,10|0,0:0|0:0,0:0:0:0:
400,22,26467,2,0,P|435:26|466:18,1,65,0|0,3:0|0:0,0:0:0:0:
510,95,26778,1,10,0:0:0:0:
510,95,27089,6,0,B|502:135|502:135|510:166|510:166|500:228,1,130,2|10,3:2|0:0,0:0:0:0:
510,318,27555,2,0,P|461:296|385:316,1,130,2|2,0:1|3:1,0:0:0:0:
325,369,28022,1,10,0:1:0:0:
269,305,28178,1,2,0:1:0:0:
321,213,28333,6,0,L|311:141,1,65,6|0,3:2|0:0,0:0:0:0:
232,224,28643,2,0,L|222:152,1,65,10|0,0:0|0:0,0:0:0:0:
143,235,28954,2,0,L|121:79,1,130,2|8,3:2|0:0,0:0:0:0:
181,34,29421,6,0,P|125:13|52:53,1,130,2|2,0:0|0:0,0:0:0:0:
23,116,29887,2,0,L|13:188,1,65,10|0,0:0|0:0,0:0:0:0:
5,274,30198,2,0,P|52:281|84:372,1,130,2|8,3:2|0:0,0:0:0:0:
89,348,30820,6,0,B|124:367|153:343|153:343|145:304|159:262,1,130,6|8,3:2|0:0,0:0:0:0:
203,212,31286,1,2,0:0:0:0:
159,137,31441,2,0,L|175:-12,1,130,2|8,3:2|0:0,0:0:0:0:
252,54,31908,1,2,0:0:0:0:
343,13,32063,6,0,P|376:9|412:18,1,65,2|8,3:2|0:0,0:0:0:0:
478,78,32374,2,0,P|464:108|439:135,1,65,8|0,0:0|3:0,0:0:0:0:
354,162,32685,2,0,P|334:135|323:99,1,65,10|0,0:0|3:0,0:0:0:0:
252,54,32996,2,0,L|218:60,2,32.5,8|8|4,0:0|0:0|3:3,0:0:0:0:
343,13,33307,5,6,3:2:0:0:
128,80,33773,1,6,3:2:0:0:
219,59,33928,1,6,3:2:0:0:
2,191,34395,5,6,3:2:0:0:
93,332,34706,1,6,3:2:0:0:
250,272,35016,1,6,3:2:0:0:
170,301,35172,1,6,3:2:0:0:
330,246,35483,6,0,L|326:200,3,32.5,2|2|2|2,3:2|0:0|0:0|0:0,0:0:0:0:
364,281,35794,6,0,B|406:282|424:261|424:261|414:220|440:181,1,130,6|10,3:2|0:0,0:0:0:0:
509,147,36260,2,0,P|499:119|508:67,1,65,2|0,0:0|3:0,0:0:0:0:
458,8,36571,2,0,P|438:29|389:48,1,65,2|8,0:0|0:0,0:0:0:0:
309,14,36882,6,0,L|293:142,1,130,2|0,3:2|3:0,0:0:0:0:
283,233,37348,1,8,0:0:0:0:
283,233,37659,1,0,3:0:0:0:
197,239,37814,1,0,3:0:0:0:
160,160,37970,2,0,L|156:90,1,65,8|8,0:0|0:0,0:0:0:0:
154,0,38281,5,6,3:2:0:0:
16,215,38747,1,6,3:2:0:0:
7,131,38902,1,6,3:2:0:0:
37,383,39369,5,6,3:2:0:0:
16,215,39680,1,6,3:2:0:0:
173,276,39991,1,6,3:2:0:0:
78,290,40146,1,6,3:2:0:0:
268,262,40457,1,4,3:3:0:0:
220,192,40612,1,8,0:0:0:0:
260,111,40768,6,0,B|292:110|292:110|321:85|321:85|386:86,1,130,6|10,3:2|0:0,0:0:0:0:
474,43,41234,2,0,L|465:124,1,65,2|0,0:0|3:0,0:0:0:0:
491,190,41545,2,0,L|482:271,1,65,2|8,3:2|0:0,0:0:0:0:
397,300,41856,6,0,L|412:163,1,130,6|0,3:2|3:0,0:0:0:0:
330,171,42322,2,0,L|321:252,1,65,10|0,0:0|0:0,0:0:0:0:
301,332,42633,2,0,P|260:319|199:340,2,97.5,2|2|2,3:2|0:0|3:2,0:0:0:0:
393,363,43255,6,0,B|426:354|426:354|479:364,1,65,6|0,3:2|3:0,0:0:0:0:
512,279,43566,2,0,B|479:270|479:270|426:280,1,65,0|0,3:0|3:0,0:0:0:0:
362,278,43877,1,0,3:0:0:0:
332,200,44032,1,0,3:0:0:0:
398,147,44187,1,0,3:0:0:0:
469,193,44343,1,8,0:0:0:0:
512,109,44498,6,0,B|517:77|517:77|508:38,1,65,6|0,3:2|3:0,0:0:0:0:
429,0,44809,2,0,P|397:-5|348:6,1,65,10|0,0:0|3:0,0:0:0:0:
330,85,45120,2,0,P|298:90|246:76,1,65,10|0,0:0|3:0,0:0:0:0:
214,4,45431,1,10,0:0:0:0:
156,72,45586,1,10,0:0:0:0:
157,89,45664,1,10,0:0:0:0:
156,109,45742,6,0,B|128:123|128:123|95:95|34:122,1,107.25000327301,6|0,3:2|0:0,0:0:0:0:
12,109,46053,2,0,B|5:153|5:153|17:195|17:195|5:255,1,143.000004364014,10|2,0:1|3:2,0:0:0:0:
5,336,46519,1,2,3:2:0:0:
88,368,46675,1,10,0:0:0:0:
155,305,46830,6,0,B|194:298|194:298|235:311,1,71.5000021820069,2|0,3:2|0:0,0:0:0:0:
304,359,47141,2,0,B|343:366|343:366|384:353,1,71.5000021820069,2|10,3:2|0:1,0:0:0:0:
467,355,47452,2,0,L|482:197,1,143.000004364014,2|0,0:0|3:0,0:0:0:0:
501,114,47918,1,8,0:0:0:0:
501,114,48229,6,0,B|469:90|422:102|422:102|403:130|416:154,1,107.25000327301,2|0,3:2|0:0,0:0:0:0:
406,166,48540,2,0,B|370:178|370:178|333:164,1,71.5000021820069,10|0,0:1|0:0,0:0:0:0:
254,183,48851,1,2,3:2:0:0:
198,117,49006,1,2,3:2:0:0:
228,35,49162,1,10,0:0:0:0:
312,21,49317,6,0,L|458:29,1,143.000004364014,2|2,3:2|3:2,0:0:0:0:
501,114,49783,1,8,0:0:0:0:
422,157,49939,2,0,P|417:191|436:244,1,71.5000021820069,2|0,0:0|3:0,0:0:0:0:
490,297,50250,1,0,3:0:0:0:
429,368,50405,1,8,0:0:0:0:
429,368,50716,6,0,B|407:335|366:356|366:356|336:319|354:280,1,143.000004364014,2|10,3:2|0:0,0:0:0:0:
306,210,51182,2,0,L|318:123,1,71.5000021820069,2|0,0:0|3:0,0:0:0:0:
234,100,51493,2,0,L|246:13,1,71.5000021820069,2|8,3:2|0:0,0:0:0:0:
156,18,51804,6,0,P|114:36|13:4,1,143.000004364014,2|0,3:2|3:0,0:0:0:0:
6,100,52270,2,0,P|0:140|10:174,1,71.5000021820069,10|0,0:0|0:0,0:0:0:0:
17,257,52581,2,0,P|54:242|79:216,1,71.5000021820069,2|0,3:2|3:0,0:0:0:0:
147,168,52892,2,0,P|115:142|80:134,1,71.5000021820069,10|0,0:0|0:0,0:0:0:0:
212,102,53203,6,0,B|246:127|246:127|245:252,1,143.000004364014,6|10,3:2|0:0,0:0:0:0:
277,316,53669,2,0,P|240:306|204:314,1,71.5000021820069,2|0,0:0|3:0,0:0:0:0:
128,351,53980,2,0,P|91:361|55:353,1,71.5000021820069,2|8,3:2|0:0,0:0:0:0:
10,270,54291,2,0,B|18:236|18:236|11:198|11:198|26:128,1,143.000004364014,2|0,3:2|3:0,0:0:0:0:
17,39,54757,6,0,P|49:46|92:38,1,65,10|0,0:0|3:0,0:0:0:0:
167,3,55068,2,0,P|199:-4|242:4,1,65,10|0,0:0|3:0,0:0:0:0:
292,64,55379,1,10,0:0:0:0:
210,97,55535,1,0,3:0:0:0:
170,206,55690,6,0,B|167:229|167:229|180:263|180:263|173:323,1,107.25000327301,6|0,3:2|0:0,0:0:0:0:
177,352,56001,2,0,P|230:363|282:294,1,143.000004364014,10|2,0:1|3:2,0:0:0:0:
251,217,56467,1,2,3:2:0:0:
334,179,56623,1,10,0:0:0:0:
397,247,56778,6,0,L|386:323,1,71.5000021820069,2|0,3:2|0:0,0:0:0:0:
482,346,57089,2,0,L|490:268,1,71.5000021820069,2|10,3:2|0:1,0:0:0:0:
512,174,57400,2,0,P|458:182|402:116,1,143.000004364014,2|0,0:0|3:0,0:0:0:0:
448,28,57866,1,8,0:0:0:0:
448,28,58177,6,0,B|404:13|404:13|340:28,1,107.25000327301,2|0,3:2|0:0,0:0:0:0:
328,69,58488,2,0,L|317:153,1,71.5000021820069,10|0,0:1|0:0,0:0:0:0:
310,230,58799,1,2,3:2:0:0:
219,221,58954,1,2,3:2:0:0:
227,131,59110,1,10,0:0:0:0:
318,139,59265,6,0,P|348:147|393:139,1,71.5000021820069,2|0,3:2|0:0,0:0:0:0:
484,153,59576,2,0,P|459:177|442:225,1,71.5000021820069,2|8,3:2|0:0,0:0:0:0:
485,292,59887,2,0,L|342:313,1,143.000004364014,2|0,0:0|3:0,0:0:0:0:
253,362,60353,1,8,0:0:0:0:
253,362,60664,6,0,B|231:327|235:297|235:297|267:264|260:223,1,143.000004364014,6|10,3:2|0:0,0:0:0:0:
312,156,61130,2,0,L|301:85,1,71.5000021820069,2|0,0:0|3:0,0:0:0:0:
220,56,61441,2,0,L|209:128,1,71.5000021820069,2|8,3:2|0:0,0:0:0:0:
178,226,61752,6,0,B|136:225|136:225|103:242|103:242|39:235,1,143.000004364014,2|2,3:2|3:2,0:0:0:0:
5,155,62219,1,10,0:0:0:0:
68,94,62374,2,0,L|60:22,1,71.5000021820069,2|0,0:0|3:0,0:0:0:0:
146,7,62685,1,0,3:0:0:0:
220,56,62840,2,0,L|210:130,1,71.5000021820069,8|0,0:0|0:0,0:0:0:0:
183,213,63151,6,0,P|217:218|252:207,1,71.5000021820069,2|0,3:2|0:0,0:0:0:0:
127,269,63462,2,0,P|139:300|165:327,1,71.5000021820069,10|0,0:0|0:0,0:0:0:0:
50,248,63773,2,0,P|28:274|19:312,1,71.5000021820069,2|0,3:2|3:0,0:0:0:0:
74,377,64084,1,10,0:0:0:0:
165,327,64239,6,0,B|200:310|227:314|227:314|261:353|308:341,1,143.000004364014,6|0,3:2|3:0,0:0:0:0:
387,365,64706,1,8,0:0:0:0:
358,276,64861,1,0,3:0:0:0:
441,304,65016,2,0,L|520:311,1,71.5000021820069,10|0,0:0|3:0,0:0:0:0:
451,222,65327,2,0,L|455:167,2,35.7500010910034,8|8|0,0:0|0:0|3:0,0:0:0:0:
358,276,65638,6,0,B|339:240|365:201|365:201|358:125,1,143.000004364014,6|8,3:2|0:0,0:0:0:0:
292,76,66105,1,2,0:0:0:0:
358,11,66260,2,0,L|433:5,1,71.5000021820069,2|0,3:2|3:0,0:0:0:0:
512,22,66571,1,8,0:0:0:0:
436,105,66726,5,6,3:2:0:0:
272,2,67037,1,2,3:2:0:0:
137,130,67348,1,0,3:0:0:0:
68,66,67504,1,6,3:2:0:0:
206,194,67814,1,2,3:2:0:0:
68,66,68125,6,0,L|61:-3,1,65,6|0,3:1|0:0,0:0:0:0:
3,129,68436,2,0,L|10:198,1,65,10|0,0:1|0:0,0:0:0:0:
26,289,68747,1,2,3:2:0:0:
103,247,68902,1,2,3:2:0:0:
186,274,69058,1,10,0:0:0:0:
251,338,69213,6,0,P|286:345|326:333,1,65,2|0,0:0|3:0,0:0:0:0:
355,253,69524,2,0,P|319:260|280:248,1,65,2|8,0:0|0:0,0:0:0:0:
240,165,69835,2,0,P|275:172|315:160,1,65,2|0,0:0|3:0,0:0:0:0:
364,102,70146,1,2,3:2:0:0:
400,180,70301,1,10,0:0:0:0:
328,24,70612,6,0,B|355:28|355:28|409:18,1,65,2|0,3:1|0:0,0:0:0:0:
480,21,70923,2,0,B|474:47|474:47|486:102,1,65,10|0,2:1|0:0,0:0:0:0:
487,171,71234,1,2,3:2:0:0:
400,180,71390,1,2,3:2:0:0:
409,267,71545,1,10,0:0:0:0:
496,258,71700,6,0,P|502:294|498:328,1,65,2|0,0:0|3:0,0:0:0:0:
405,331,72011,2,0,P|411:295|407:261,1,65,2|8,0:0|0:0,0:0:0:0:
314,258,72322,2,0,P|320:294|316:328,1,65,2|0,3:2|0:0,0:0:0:0:
254,378,72633,1,2,3:2:0:0:
213,304,72788,1,10,0:0:0:0:
306,148,73099,6,0,B|300:114|300:114|308:79,1,65,6|0,3:1|0:0,0:0:0:0:
220,35,73410,2,0,B|226:69|226:69|218:104,1,65,10|0,0:1|0:0,0:0:0:0:
183,175,73721,1,2,3:2:0:0:
105,208,73877,1,2,3:2:0:0:
36,157,74032,1,10,0:0:0:0:
56,73,74187,6,0,L|46:4,1,65,2|0,0:0|3:0,0:0:0:0:
136,82,74498,2,0,L|126:13,1,65,2|8,0:0|0:0,0:0:0:0:
219,98,74809,2,0,L|209:29,1,65,2|0,0:0|3:0,0:0:0:0:
291,9,75120,1,2,3:2:0:0:
323,87,75276,1,10,0:0:0:0:
218,230,75586,6,0,P|182:224|138:236,1,65,2|0,3:1|0:0,0:0:0:0:
69,256,75897,2,0,P|75:292|63:336,1,65,10|0,0:1|0:0,0:0:0:0:
135,384,76208,1,2,3:2:0:0:
196,325,76364,1,2,3:2:0:0:
280,324,76519,1,10,0:0:0:0:
343,380,76675,6,0,L|424:368,1,65,2|0,0:0|3:0,0:0:0:0:
500,354,76985,2,0,L|449:289,1,65,2|10,0:0|0:0,0:0:0:0:
399,232,77296,2,0,L|368:308,1,65,2|0,3:2|0:0,0:0:0:0:
343,380,77608,1,2,3:2:0:0:
280,324,77763,2,0,B|273:290|273:290|282:244,1,65,8|0,0:0|3:0,0:0:0:0:
336,169,78073,5,2,3:2:0:0:
254,130,78229,1,6,3:2:0:0:
168,275,78540,1,2,3:2:0:0:
23,189,78851,1,6,3:2:0:0:
109,44,79162,1,2,3:2:0:0:
254,130,79472,1,6,3:2:0:0:
396,38,79783,5,2,3:2:0:0:
446,113,79939,2,0,B|455:138|455:138|447:188,1,65,6|0,3:2|3:0,0:0:0:0:
378,225,80250,2,0,P|380:243|377:265,2,32.5,8|8|8,0:0|0:0|0:0,0:0:0:0:
328,141,80561,6,0,B|291:117|230:114|230:114|118:59|211:-66|319:31|230:114|230:114|133:120|91:227|136:301|136:301|137:251|176:199|286:207|310:299|274:381|185:369,1,962,6|0,3:2|0:0,0:0:0:0:
