osu file format v14

[General]
AudioFilename: audio.mp3
AudioLeadIn: 0
PreviewTime: 45487
Countdown: 1
SampleSet: Soft
StackLeniency: 0.5
Mode: 0
LetterboxInBreaks: 0
WidescreenStoryboard: 1

[Editor]
Bookmarks: 2507,11678,14165,24113,46497,62352,62507,62663,62818,68880,78828,81316
DistanceSpacing: 0.5
BeatDivisor: 4
GridSize: 8
TimelineZoom: 1.4

[Metadata]
Title:Blue sky
TitleUnicode:Blue sky
Artist:Lena Liechtenauer (CV: Sawasawa Sawa)
ArtistUnicode:レナ・リヒテナウアー(CV: 沢澤砂羽)
Creator:tomatas95
Version:Easy
Source:千恋*万花
Tags:senren banka yuzusoft ゆずソフト eroge jpop j-pop pop japanese visual novel vn video game size galgame angel note haduki shunsuke shiina character
BeatmapID:2977914
BeatmapSetID:1372152

[Difficulty]
HPDrainRate:2
CircleSize:2.5
OverallDifficulty:2
ApproachRate:3
SliderMultiplier:1
SliderTickRate:1

[Events]
//Background and Video events
0,0,"Lenadaisuki.jpg",0,0
//Break Periods
//Storyboard Layer 0 (Background)
//Storyboard Layer 1 (Fail)
//Storyboard Layer 2 (Pass)
//Storyboard Layer 3 (Foreground)
//Storyboard Layer 4 (Overlay)
//Storyboard Sound Samples

[TimingPoints]
354,310.880829015544,4,2,1,70,1,0
354,-100,4,2,1,70,0,0
509,-100,4,2,1,30,0,0
664,-100,4,2,6,50,0,0
896,-100,4,2,6,5,0,0
974,-100,4,2,2,70,0,0
975,310.880829015544,4,2,2,70,1,0
1285,-100,4,2,1,70,0,0
3383,-100,4,2,1,5,0,0
3461,-100,4,2,1,70,0,0
5870,-100,4,2,1,5,0,0
5948,-100,4,2,2,70,0,0
6259,-100,4,2,1,70,0,0
8357,-100,4,2,2,5,0,0
8435,-100,4,2,1,70,0,0
10922,-100,4,2,6,70,0,0
11699,-100,4,2,6,70,0,0
12010,-100,4,2,1,70,0,0
12321,-100,4,2,6,70,0,0
12632,-100,4,2,1,70,0,0
12787,-100,4,2,6,70,0,0
13409,-100,4,2,1,50,0,0
13642,-100,4,2,1,5,0,0
13720,-100,4,2,1,50,0,0
15818,-100,4,2,1,5,0,0
15896,-100,4,2,4,50,0,0
16052,-100,4,2,1,50,0,0
18305,-100,4,2,1,5,0,0
18383,-100,4,2,4,50,0,0
18539,-100,4,2,1,50,0,0
20870,-100,4,2,4,50,0,0
21026,-100,4,2,1,50,0,0
22114,-100,4,2,2,65,0,0
22425,-100,4,2,1,65,0,0
23357,-100,4,2,2,60,0,0
23591,-100,4,2,1,5,0,0
23668,-100,4,2,1,80,0,0
23901,-100,4,2,1,5,0,0
23979,-100,4,2,1,60,0,0
25067,-100,4,2,2,70,0,0
25378,-100,4,2,1,70,0,0
25844,-100,4,2,1,60,0,0
27010,-100,4,2,1,5,0,0
27088,-100,4,2,1,60,0,0
27554,-100,4,2,2,70,0,0
28021,-100,4,2,1,70,0,0
28332,-100,4,2,2,60,0,0
28487,-100,4,2,1,60,0,0
30819,-100,4,2,2,65,0,0
31129,-100,4,2,1,65,0,0
32062,-100,4,2,1,70,0,0
33306,-100,4,2,8,60,0,0
35482,-100,4,2,1,60,0,0
35793,-100,4,2,1,65,0,0
38280,-100,4,2,8,60,0,0
40300,-100,4,2,1,60,0,0
40767,-100,4,2,1,65,0,0
41855,-100,4,2,2,65,0,0
42010,-100,4,2,1,65,0,0
42476,-100,4,2,1,5,0,0
42632,-100,4,2,1,65,0,0
43254,-100,4,2,2,70,0,0
43565,-100,4,2,2,75,0,0
43876,-100,4,2,2,80,0,0
44186,-100,4,2,2,85,0,0
44342,-100,4,2,1,85,0,0
44497,-100,4,2,2,80,0,0
44653,-100,4,2,1,70,0,0
45741,-100,4,2,2,80,0,1
45974,-100,4,2,1,5,0,1
46052,-100,4,2,2,85,0,1
46285,-100,4,2,2,5,0,1
46363,-100,4,2,2,80,0,1
48461,-100,4,2,2,5,0,1
48539,-100,4,2,2,85,0,1
48772,-100,4,2,1,5,0,1
48850,-100,4,2,2,80,0,1
53124,-100,4,2,1,5,0,1
53202,-100,4,2,2,80,0,1
54757,-100,4,2,1,75,0,0
55067,-100,4,2,1,80,0,0
55378,-100,4,2,1,85,0,0
55690,-100,4,2,2,80,0,1
55922,-100,4,2,2,5,0,1
56000,-100,4,2,2,85,0,1
56233,-100,4,2,2,5,0,1
56311,-100,4,2,2,80,0,1
58409,-100,4,2,2,5,0,1
58487,-100,4,2,2,85,0,1
58720,-100,4,2,2,5,0,1
58798,-100,4,2,2,80,0,1
64238,-100,4,2,1,80,0,1
64394,-100,4,2,2,80,0,1
68125,-100,4,2,2,70,0,0
68435,-100,4,2,1,70,0,0
70533,-100,4,2,1,5,0,0
70611,-100,4,2,1,70,0,0
73020,-100,4,2,1,5,0,0
73098,-100,4,2,2,70,0,0
73409,-100,4,2,1,70,0,0
75507,-100,4,2,2,5,0,0
75585,-100,4,2,1,70,0,0
78072,-100,4,2,6,70,0,0
78849,-100,4,2,6,70,0,0
79160,-100,4,2,1,70,0,0
79471,-100,4,2,6,70,0,0
79782,-100,4,2,1,70,0,0
79937,-100,4,2,6,70,0,0
80093,-100,4,2,1,70,0,0
80870,-100,4,2,1,60,0,0
81803,-100,4,2,1,50,0,0
83047,-100,4,2,1,40,0,0
83668,-100,4,2,1,35,0,0
84290,-100,4,2,1,30,0,0
84912,-100,4,2,1,25,0,0
85534,-100,4,2,1,20,0,0
86155,-100,4,2,1,5,0,0

[Colours]
Combo1 : 72,164,255
Combo2 : 233,238,23
Combo3 : 100,238,249
Combo4 : 244,164,91

[HitObjects]
42,41,664,5,6,3:2:0:0:
37,130,975,2,0,B|88:118|88:118|142:132,1,100,6|10,3:1|0:1,0:0:0:0:
189,200,1597,2,0,B|230:223|230:223|273:186|340:211,1,150,2|2,3:2|0:0,0:0:0:0:
384,275,2374,1,2,0:0:0:0:
472,259,2685,1,2,0:0:0:0:
496,172,2996,1,2,3:2:0:0:
475,38,3462,6,0,P|427:51|372:34,1,100,2|10,3:1|2:1,0:0:0:0:
289,24,4084,2,0,P|241:10|147:68,1,150,2|2,3:2|0:0,0:0:0:0:
166,142,4861,1,2,0:0:0:0:
107,210,5172,1,2,3:2:0:0:
22,178,5483,1,2,3:2:0:0:
56,44,5949,6,0,L|164:53,1,100,6|10,3:1|0:1,0:0:0:0:
166,142,6571,2,0,L|329:155,1,150,2|2,3:2|0:0,0:0:0:0:
413,151,7348,1,2,0:0:0:0:
473,217,7659,1,2,0:0:0:0:
424,292,7970,1,2,3:2:0:0:
296,336,8436,6,0,B|251:324|251:324|175:337,1,100,2|10,3:1|0:1,0:0:0:0:
118,374,9058,2,0,B|73:359|73:359|85:303|49:232,1,150,2|2,3:2|0:0,0:0:0:0:
24,176,9835,1,2,0:0:0:0:
88,112,10146,1,2,3:2:0:0:
170,147,10457,1,2,3:2:0:0:
242,260,10923,6,0,B|273:257|273:257|313:270,1,50,2|6,3:2|3:2,0:0:0:0:
333,342,11390,1,2,3:2:0:0:
422,342,11700,1,6,3:2:0:0:
470,266,12011,1,2,3:2:0:0:
430,185,12322,1,6,3:2:0:0:
340,178,12633,2,0,B|341:151|341:151|332:115,1,50,2|6,3:2|3:2,0:0:0:0:
191,24,13410,6,0,B|203:71|203:71|190:143,1,100,6|2,3:2|3:2,0:0:0:0:
141,195,14032,2,0,P|187:212|241:198,2,100,2|2|2,3:2|3:2|3:2,0:0:0:0:
52,177,14965,2,0,P|45:235|44:334,1,150,2|2,3:2|0:0,0:0:0:0:
169,376,15897,5,2,3:2:0:0:
236,316,16208,2,0,P|286:305|336:323,1,100,2|2,3:2|3:2,0:0:0:0:
408,366,16830,2,0,P|419:316|401:266,1,100,2|2,3:2|3:2,0:0:0:0:
356,194,17452,2,0,L|340:38,1,150,2|2,3:2|0:0,0:0:0:0:
469,4,18384,5,2,3:2:0:0:
482,92,18695,2,0,P|479:143|490:198,1,100,2|2,3:2|3:2,0:0:0:0:
494,333,19472,2,0,P|452:300|354:325,1,150,2|2,0:0|3:2,0:0:0:0:
275,342,20250,1,2,3:2:0:0:
232,167,20871,6,0,L|243:58,1,100,2|0,3:2|3:0,0:0:0:0:
151,61,21493,2,0,L|140:170,1,100,2|8,3:2|0:0,0:0:0:0:
139,250,22115,1,6,3:2:0:0:
75,314,22426,1,10,0:0:0:0:
9,251,22737,1,10,0:0:0:0:
15,76,23358,5,6,3:2:0:0:
89,25,23669,2,0,L|194:36,1,100,10|2,0:1|3:2,0:0:0:0:
276,62,24291,1,10,0:0:0:0:
344,2,24602,2,0,P|367:55|326:138,1,150,2|2,3:2|0:1,0:0:0:0:
252,178,25379,1,2,3:1:0:0:
196,300,25845,5,0,3:0:0:0:
269,353,26156,2,0,P|310:366|375:348,1,100,10|0,0:0|3:0,0:0:0:0:
454,341,26778,1,10,0:0:0:0:
439,252,27089,2,0,L|455:99,1,150,2|2,3:2|0:1,0:0:0:0:
454,12,27866,1,2,3:1:0:0:
328,61,28333,5,6,3:2:0:0:
280,136,28643,1,10,0:0:0:0:
320,216,28954,1,2,3:2:0:0:
292,348,29421,2,0,L|136:363,1,150,2|10,0:0|0:0,0:0:0:0:
52,362,30198,2,0,P|53:316|42:253,1,100,2|8,3:2|0:0,0:0:0:0:
6,180,30820,6,0,B|45:141|92:148|92:148|120:190|202:175,1,200,6|2,3:2|3:2,0:0:0:0:
322,59,32063,1,2,3:2:0:0:
244,12,32374,1,8,0:0:0:0:
158,38,32685,2,0,P|113:33|52:47,1,100,10|8,0:0|0:0,0:0:0:0:
25,127,33307,5,6,3:2:0:0:
57,257,33773,2,0,P|83:251|121:266,1,50,6|6,3:2|3:2,0:0:0:0:
231,304,34395,1,6,3:2:0:0:
256,217,34706,1,6,3:2:0:0:
220,134,35016,2,0,P|215:110|228:75,1,50,6|6,3:2|3:2,0:0:0:0:
387,16,35793,6,0,B|430:10|430:10|415:64|435:124,1,150,6|2,3:2|0:0,0:0:0:0:
483,189,36570,1,2,0:0:0:0:
427,260,36881,2,0,P|363:280|279:236,1,150,2|8,3:2|0:0,0:0:0:0:
292,158,37659,2,0,L|280:51,1,100,0|8,3:0|0:0,0:0:0:0:
208,4,38281,5,6,3:2:0:0:
164,131,38747,2,0,L|156:185,1,50,6|6,3:2|3:2,0:0:0:0:
68,282,39369,1,6,3:2:0:0:
8,214,39680,1,6,3:2:0:0:
33,127,39991,2,0,L|41:73,1,50,6|6,3:2|3:2,0:0:0:0:
213,28,40768,6,0,B|265:46|265:46|367:26,1,150,6|2,3:2|0:0,0:0:0:0:
446,9,41545,1,2,3:2:0:0:
486,89,41856,2,0,L|474:260,1,150,6|10,3:2|0:0,0:0:0:0:
477,328,42633,2,0,P|425:316|373:331,1,100,2|8,3:2|0:0,0:0:0:0:
297,362,43255,5,6,3:2:0:0:
230,300,43566,2,0,B|179:310|179:310|122:296,2,100,0|0|0,3:0|3:0|3:0,0:0:0:0:
301,245,44498,1,6,3:2:0:0:
267,161,44809,2,0,L|256:54,1,100,10|10,0:0|0:0,0:0:0:0:
189,1,45431,1,10,0:0:0:0:
101,21,45742,6,0,B|116:56|116:56|109:129,1,100,6|10,3:2|0:1,0:0:0:0:
27,153,46364,2,0,P|19:217|24:320,1,150,2|2,3:2|3:2,0:0:0:0:
72,376,47141,1,2,3:2:0:0:
147,321,47452,2,0,P|204:307|295:343,1,150,2|8,0:0|0:0,0:0:0:0:
372,366,48229,6,0,B|381:333|381:333|361:265,1,100,2|10,3:2|0:1,0:0:0:0:
292,213,48851,2,0,P|343:183|439:221,1,150,2|2,3:2|3:2,0:0:0:0:
476,131,49628,1,2,3:2:0:0:
433,51,49939,2,0,L|272:42,1,150,2|8,0:0|0:0,0:0:0:0:
211,97,50716,6,0,P|201:157|202:261,1,150,2|2,3:2|0:0,0:0:0:0:
217,334,51493,1,2,3:2:0:0:
133,368,51804,2,0,P|84:370|28:285,1,150,2|10,3:2|0:0,0:0:0:0:
13,207,52581,1,2,3:2:0:0:
63,132,52892,1,10,0:0:0:0:
145,168,53203,6,0,B|177:167|177:167|208:186|208:186|291:185,1,150,6|2,3:2|0:0,0:0:0:0:
375,158,53980,1,2,3:2:0:0:
423,233,54291,1,2,3:2:0:0:
365,355,54757,1,10,0:0:0:0:
289,305,55068,1,10,0:0:0:0:
219,362,55379,1,10,0:0:0:0:
133,335,55690,6,0,B|136:291|136:291|115:224,1,100,6|10,3:2|0:1,0:0:0:0:
33,202,56312,2,0,P|18:159|66:51,1,150,2|2,3:2|3:2,0:0:0:0:
129,21,57089,1,2,3:2:0:0:
188,88,57400,2,0,L|343:76,1,150,2|8,0:0|0:0,0:0:0:0:
413,28,58177,6,0,B|433:50|433:50|432:127,1,100,2|10,3:2|0:1,0:0:0:0:
362,177,58799,2,0,L|350:340,1,150,2|2,3:2|3:2,0:0:0:0:
425,376,59576,1,2,3:2:0:0:
495,320,59887,2,0,P|493:261|514:167,1,150,2|8,0:0|0:0,0:0:0:0:
505,82,60664,6,0,B|448:52|448:52|349:69,1,150,6|2,3:2|0:0,0:0:0:0:
297,127,61441,1,2,3:2:0:0:
208,113,61752,2,0,L|198:2,2,100,2|2|2,3:2|3:2|0:0,0:0:0:0:
227,246,62840,1,8,0:0:0:0:
162,311,63151,6,0,B|119:329|119:329|49:309,1,100,2|10,3:2|0:0,0:0:0:0:
8,245,63773,1,2,3:2:0:0:
24,111,64239,2,0,B|21:63|41:29|41:29|77:53|120:41,1,150,6|8,3:2|0:0,0:0:0:0:
188,71,65016,2,0,L|178:176,1,100,10|8,0:0|0:0,0:0:0:0:
115,234,65638,6,0,P|160:258|265:166,1,200,6|2,3:2|3:2,0:0:0:0:
333,62,66726,1,6,3:2:0:0:
415,25,67037,1,2,3:2:0:0:
481,85,67348,2,0,L|487:148,1,50,0|6,3:0|3:2,0:0:0:0:
506,222,67814,1,2,3:2:0:0:
452,294,68125,6,0,B|411:285|411:285|344:300,1,100,6|10,3:1|0:1,0:0:0:0:
267,322,68747,2,0,L|249:170,1,150,2|2,3:2|0:0,0:0:0:0:
251,83,69524,1,2,0:0:0:0:
191,15,69835,1,2,0:0:0:0:
102,33,70146,1,2,3:2:0:0:
24,143,70612,6,0,L|10:253,1,100,2|10,3:1|2:1,0:0:0:0:
24,331,71234,2,0,P|83:306|169:269,1,150,2|2,3:2|0:0,0:0:0:0:
196,189,72011,1,2,0:0:0:0:
273,143,72322,1,2,3:2:0:0:
334,208,72633,1,2,3:2:0:0:
318,342,73099,6,0,B|278:333|278:333|213:347,1,100,6|10,3:1|0:1,0:0:0:0:
132,364,73721,2,0,P|82:352|46:249,1,150,2|2,3:2|0:0,0:0:0:0:
25,180,74498,1,2,0:0:0:0:
96,124,74809,1,2,0:0:0:0:
168,177,75120,1,2,3:2:0:0:
229,297,75586,6,0,P|280:292|330:302,1,100,2|10,3:1|0:1,0:0:0:0:
412,332,76208,2,0,P|444:330|480:218,1,150,2|2,3:2|0:0,0:0:0:0:
457,151,76985,1,2,0:0:0:0:
369,130,77296,1,2,3:2:0:0:
306,194,77607,1,2,3:2:0:0:
225,302,78073,6,0,B|197:296|197:296|156:301,1,50,2|6,3:2|3:2,0:0:0:0:
88,320,78540,1,2,3:2:0:0:
20,260,78851,1,6,3:2:0:0:
38,171,79162,1,2,3:2:0:0:
123,144,79472,1,6,3:2:0:0:
188,205,79783,2,0,B|214:208|214:208|241:201,1,50,2|6,3:2|3:2,0:0:0:0:
256,192,80561,12,0,86312,0:0:0:0:
