osu file format v14

[General]
AudioFilename: audio.mp3
AudioLeadIn: 0
PreviewTime: 38082
Countdown: 0
SampleSet: Soft
StackLeniency: 0.3
Mode: 0
LetterboxInBreaks: 0
WidescreenStoryboard: 0

[Editor]
Bookmarks: 16131,106863
DistanceSpacing: 0.8
BeatDivisor: 7
GridSize: 16
TimelineZoom: 1.9

[Metadata]
Title:Majo Saiban
TitleUnicode:魔女裁判
Artist:Len feat. ina
ArtistUnicode:Len feat. 否
Creator:gazimal
Version:Dependence
Source:
Tags:Japanese ponbot wring satellite JPop Pop J-Pop
BeatmapID:3957631
BeatmapSetID:1917852

[Difficulty]
HPDrainRate:4
CircleSize:4.2
OverallDifficulty:8.8
ApproachRate:9.4
SliderMultiplier:2.5
SliderTickRate:1

[Events]
//Background and Video events
0,0,"91443502_p0.png",0,0
//Break Periods
//Storyboard Layer 0 (Background)
//Storyboard Layer 1 (Fail)
//Storyboard Layer 2 (Pass)
//Storyboard Layer 3 (Foreground)
//Storyboard Layer 4 (Overlay)
//Storyboard Sound Samples

[TimingPoints]
522,487.80487804878,4,2,1,31,1,0
522,-400,4,2,1,31,0,0
1253,-400,4,2,1,5,0,0
1375,-66.6666666666667,4,2,1,31,0,0
1660,-90.9090909090909,4,2,1,31,0,0
1822,-90.9090909090909,4,2,1,5,0,0
1985,-133.333333333333,4,2,1,31,0,0
2148,-58.8235294117647,4,2,1,31,0,0
3326,-133.333333333333,4,2,1,31,0,0
3570,-400,4,2,1,5,0,0
3692,-133.333333333333,4,2,1,31,0,0
4424,-266.666666666667,4,2,1,31,0,0
5020,-58.8235294117647,4,2,1,31,0,0
5400,-133.333333333333,4,2,1,31,0,0
6131,-133.333333333333,4,2,1,31,0,0
7839,-200,4,2,1,31,0,0
8204,-400,4,2,1,5,0,0
8326,497.92531120332,4,2,1,31,1,0
8326,-66.6666666666667,4,2,1,51,0,0
8448,-400,4,2,1,5,0,0
8823,-333.333333333333,4,2,1,51,0,0
8948,-333.333333333333,4,2,1,46,0,0
9321,-400,4,2,1,5,0,0
9446,-333.333333333333,4,2,1,46,0,0
9695,-400,4,2,1,5,0,0
9819,-133.333333333333,4,2,1,46,0,0
10193,-400,4,2,1,5,0,0
10318,487.80487804878,4,2,1,31,1,0
10318,-133.333333333333,4,2,1,31,0,0
11171,-333.333333333333,4,2,1,46,0,0
11293,-400,4,2,1,5,0,0
11415,-333.333333333333,4,2,1,46,0,0
12269,478.08764940239,4,2,1,31,1,0
12269,-133.333333333333,4,2,1,31,0,0
12627,-333.333333333333,4,2,1,46,0,0
13344,-133.333333333333,4,2,1,46,0,0
13583,-400,4,2,1,5,0,0
13703,-133.333333333333,4,2,1,46,0,0
14180,487.80487804878,4,2,1,31,1,0
14546,-333.333333333333,4,2,1,46,0,0
16619,-333.333333333333,4,2,2,46,0,0
16680,-400,4,2,1,5,0,0
17595,-333.333333333333,4,2,2,46,0,0
17656,-400,4,2,1,5,0,0
18570,-333.333333333333,4,2,2,46,0,0
18631,-400,4,2,1,5,0,0
19546,-333.333333333333,4,2,2,46,0,0
19607,-400,4,2,1,5,0,0
20521,-333.333333333333,4,2,2,46,0,0
20582,-400,4,2,1,5,0,0
21497,-333.333333333333,4,2,2,46,0,0
21558,-400,4,2,1,5,0,0
22473,-333.333333333333,4,2,2,46,0,0
22534,-400,4,2,1,5,0,0
23448,-333.333333333333,4,2,2,46,0,0
23936,-66.6666666666667,4,2,1,61,0,0
24099,-400,4,2,1,5,0,0
24180,-200,4,2,1,61,0,0
24343,-400,4,2,1,5,0,0
24424,-200,4,2,1,61,0,0
24912,-66.6666666666667,4,2,1,61,0,0
25074,-400,4,2,1,5,0,0
25156,-66.6666666666667,4,2,1,61,0,0
25237,-400,4,2,1,5,0,0
25318,-66.6666666666667,4,2,1,61,0,0
25643,-333.333333333333,4,2,1,61,0,0
25806,-400,4,2,1,5,0,0
25887,-58.8235294117647,4,2,1,61,0,0
26050,-400,4,2,1,5,0,0
26131,-333.333333333333,4,2,1,61,0,0
26294,-400,4,2,1,5,0,0
26375,-58.8235294117647,4,2,1,61,0,0
26538,-400,4,2,1,5,0,0
26619,-58.8235294117647,4,2,1,61,0,0
27595,-333.333333333333,4,2,1,61,0,0
27757,-400,4,2,1,5,0,0
27839,-66.6666666666667,4,2,1,61,0,0
28001,-400,4,2,1,5,0,0
28082,-66.6666666666667,4,2,1,61,0,0
28245,-400,4,2,1,5,0,0
28326,-333.333333333333,4,2,1,61,0,0
28489,-400,4,2,1,5,0,0
28570,-133.333333333333,4,2,1,61,0,0
28733,-400,4,2,1,5,0,0
28814,-133.333333333333,4,2,1,61,0,0
29546,-400,4,2,1,5,0,0
29627,-133.333333333333,4,2,1,61,0,0
31009,-333.333333333333,4,2,1,61,0,0
31172,-400,4,2,1,5,0,0
31253,-333.333333333333,4,2,1,61,0,0
31578,-133.333333333333,4,2,1,61,0,0
31741,-55.5555555555556,4,2,1,61,0,0
31904,-400,4,2,1,5,0,0
31985,-66.6666666666667,4,2,1,61,0,0
32148,-400,4,2,1,5,0,0
32229,-83.3333333333333,4,2,1,61,0,0
32391,-400,4,2,1,5,0,0
32473,-55.5555555555556,4,2,1,61,0,0
32635,-400,4,2,1,5,0,0
32717,-83.3333333333333,4,2,1,61,0,0
32879,-400,4,2,1,5,0,0
32961,-83.3333333333333,4,2,1,61,0,0
33123,-400,4,2,1,5,0,0
33204,-55.5555555555556,4,2,1,61,0,0
33367,-400,4,2,1,5,0,0
33448,-133.333333333333,4,2,1,61,0,0
33692,-55.5555555555556,4,2,1,61,0,0
33855,-400,4,2,1,5,0,0
33936,-55.5555555555556,4,2,1,61,0,0
35156,-83.3333333333333,4,2,1,61,0,0
35643,-58.8235294117647,4,2,1,61,0,0
35806,-400,4,2,1,5,0,0
35887,-58.8235294117647,4,2,1,61,0,0
36009,-43.4782608695652,4,2,1,61,0,0
36049,-34.4827586206897,4,2,1,61,0,0
36619,-43.4782608695652,4,2,1,61,0,0
37595,-333.333333333333,4,2,1,61,0,0
39058,-55.5555555555556,4,2,1,91,0,0
39465,-400,4,2,1,5,0,0
39546,-50,4,2,1,86,0,0
41009,-33.3333333333333,4,2,1,86,0,0
41172,-400,4,2,1,5,0,0
41253,-33.3333333333333,4,2,1,86,0,0
41416,-400,4,2,1,5,0,0
41497,-50,4,2,1,86,0,0
41985,-33.3333333333333,4,2,1,86,0,0
42148,-400,4,2,1,5,0,0
42229,-50,4,2,1,86,0,0
42717,-33.3333333333333,4,2,1,86,0,0
42879,-400,4,2,1,5,0,0
42961,-33.3333333333333,4,2,1,86,0,0
43123,-400,4,2,1,5,0,0
43204,-33.3333333333333,4,2,1,86,0,0
43367,-400,4,2,1,5,0,0
43448,-50,4,2,1,86,0,0
44424,-33.3333333333333,4,2,1,86,0,0
44587,-400,4,2,1,5,0,0
44668,-33.3333333333333,4,2,1,86,0,0
45074,-400,4,2,1,5,0,0
45156,-33.3333333333333,4,2,1,86,0,0
45318,-400,4,2,1,5,0,0
45400,-50,4,2,1,86,0,0
45887,-33.3333333333333,4,2,1,86,0,0
46050,-400,4,2,1,5,0,0
46131,-33.3333333333333,4,2,1,86,0,0
46294,-400,4,2,1,5,0,0
46375,-50,4,2,1,86,0,0
46863,-33.3333333333333,4,2,1,86,0,0
47026,-400,4,2,1,5,0,0
47107,-33.3333333333333,4,2,1,86,0,0
47269,-400,4,2,1,5,0,0
47351,-50,4,2,1,86,0,0
48326,-33.3333333333333,4,2,1,86,0,0
48489,-400,4,2,1,5,0,0
48570,-33.3333333333333,4,2,1,86,0,0
48814,-33.3333333333333,4,2,1,86,0,0
48977,-400,4,2,1,5,0,0
49058,-33.3333333333333,4,2,1,86,0,0
49221,-400,4,2,1,5,0,0
49302,-50,4,2,1,86,0,0
49790,-33.3333333333333,4,2,1,86,0,0
49952,-400,4,2,1,5,0,0
50034,-50,4,2,1,86,0,0
50521,-33.3333333333333,4,2,1,86,0,0
50684,-400,4,2,1,5,0,0
50765,-33.3333333333333,4,2,1,86,0,0
50928,-400,4,2,1,5,0,0
51009,-33.3333333333333,4,2,1,86,0,0
51172,-400,4,2,1,5,0,0
51253,-50,4,2,1,86,0,0
51985,-33.3333333333333,4,2,1,86,0,0
52148,-400,4,2,1,5,0,0
52229,-33.3333333333333,4,2,1,86,0,0
52391,-400,4,2,1,5,0,0
52473,-33.3333333333333,4,2,1,86,0,0
52635,-400,4,2,1,5,0,0
52717,-33.3333333333333,4,2,1,86,0,0
52879,-400,4,2,1,5,0,0
52961,-33.3333333333333,4,2,1,86,0,0
53123,-400,4,2,1,5,0,0
53204,-33.3333333333333,4,2,1,86,0,0
54424,-100,4,2,1,86,0,0
55156,-500,4,2,1,61,0,0
55562,-400,4,2,1,5,0,0
55643,-33.3333333333333,4,2,1,86,0,0
55806,-400,4,2,1,5,0,0
55887,-50,4,2,1,86,0,0
56050,-400,4,2,1,5,0,0
56131,-58.8235294117647,4,2,1,86,0,0
56294,-400,4,2,1,5,0,0
56375,-58.8235294117647,4,2,1,86,0,0
56782,-400,4,2,1,5,0,0
56863,-58.8235294117647,4,2,1,86,0,0
57026,-400,4,2,1,5,0,0
57107,-133.333333333333,4,2,1,86,0,0
57269,-400,4,2,1,5,0,0
57351,-66.6666666666667,4,2,1,86,0,0
57513,-400,4,2,1,5,0,0
57595,-66.6666666666667,4,2,1,86,0,0
57757,-400,4,2,1,5,0,0
57839,-66.6666666666667,4,2,1,86,0,0
58570,-100,4,2,1,86,0,0
58733,-400,4,2,1,5,0,0
58814,-66.6666666666667,4,2,1,86,0,0
58977,-400,4,2,1,5,0,0
59058,-100,4,2,1,86,0,0
59221,-400,4,2,1,5,0,0
59302,-58.8235294117647,4,2,1,86,0,0
59465,-400,4,2,1,5,0,0
59546,-58.8235294117647,4,2,1,86,0,0
59708,-400,4,2,1,5,0,0
59790,-58.8235294117647,4,2,1,86,0,0
60196,-400,4,2,1,5,0,0
60278,-58.8235294117647,4,2,1,86,0,0
60521,-50,4,2,1,86,0,0
60684,-400,4,2,1,5,0,0
60765,-50,4,2,1,86,0,0
61009,-83.3333333333333,4,2,1,86,0,0
62961,-55.5555555555556,4,2,1,86,0,0
63123,-400,4,2,1,5,0,0
63204,-55.5555555555556,4,2,1,86,0,0
63367,-400,4,2,1,5,0,0
63448,-55.5555555555556,4,2,1,86,0,0
63611,-400,4,2,1,5,0,0
63692,-55.5555555555556,4,2,1,86,0,0
64424,-66.6666666666667,4,2,1,86,0,0
64587,-400,4,2,1,5,0,0
64668,-100,4,2,1,86,0,0
64830,-400,4,2,1,5,0,0
64912,-100,4,2,1,86,0,0
65156,-66.6666666666667,4,2,1,86,0,0
65318,-400,4,2,1,5,0,0
65400,-100,4,2,1,86,0,0
65562,-400,4,2,1,5,0,0
65643,-100,4,2,1,86,0,0
65725,-66.6666666666667,4,2,1,86,0,0
66131,-66.6666666666667,4,2,1,86,0,0
66538,-400,4,2,1,5,0,0
66619,-55.5555555555556,4,2,1,86,0,0
67351,-71.4285714285714,4,2,1,86,0,0
67513,-400,4,2,1,5,0,0
67595,-71.4285714285714,4,2,1,86,0,0
67676,-58.8235294117647,4,2,1,86,0,0
68082,-83.3333333333333,4,2,1,86,0,0
68245,-400,4,2,1,5,0,0
68326,-133.333333333333,4,2,1,86,0,0
68489,-400,4,2,1,5,0,0
68570,-76.9230769230769,4,2,1,86,0,0
68733,-400,4,2,1,5,0,0
68814,-200,4,2,1,86,0,0
69302,-100,4,2,1,61,0,0
69465,-400,4,2,1,5,0,0
69546,-200,4,2,1,61,0,0
69790,-100,4,2,1,61,0,0
69952,-400,4,2,1,5,0,0
70034,-200,4,2,1,61,0,0
70278,-100,4,2,1,61,0,0
70440,-400,4,2,1,5,0,0
70522,-200,4,2,1,61,0,0
70765,-100,4,2,1,61,0,0
70928,-400,4,2,1,5,0,0
71009,-200,4,2,1,61,0,0
71253,-100,4,2,1,61,0,0
71416,-400,4,2,1,5,0,0
71497,-200,4,2,1,61,0,0
71740,-200,4,2,2,61,0,0
71822,-400,4,2,1,5,0,0
71904,-200,4,2,2,61,0,0
71985,-400,4,2,1,5,0,0
72066,-200,4,2,2,61,0,0
72148,-400,4,2,1,5,0,0
72229,-1000,4,2,2,61,0,0
72635,-400,4,2,1,5,0,0
72717,-100,4,2,2,66,0,0
73082,-400,4,2,1,5,0,0
73204,-100,4,2,2,66,0,0
74058,-400,4,2,1,5,0,0
74180,-200,4,2,2,66,0,0
74546,-400,4,2,1,5,0,0
74668,-66.6666666666667,4,2,2,66,0,0
74851,-400,4,2,1,5,0,0
74912,-100,4,2,2,66,0,0
75156,-400,4,2,2,66,0,0
76131,-400,4,2,2,66,0,1
76212,-400,4,2,2,66,0,0
76619,-100,4,2,2,66,0,0
76985,-400,4,2,1,5,0,0
77107,-100,4,2,2,66,0,0
77961,-400,4,2,1,5,0,0
78082,-100,4,2,2,66,0,0
78448,-400,4,2,1,5,0,0
78570,-66.6666666666667,4,2,2,66,0,0
78753,-400,4,2,1,5,0,0
78814,-100,4,2,2,66,0,0
79058,-100,4,2,2,66,0,0
80034,-66.6666666666667,4,2,2,66,0,0
81985,-200,4,2,2,66,0,0
83936,-200,4,2,2,66,0,1
84017,-200,4,2,2,66,0,0
84424,-66.6666666666667,4,2,2,66,0,0
84912,-100,4,2,2,66,0,0
86375,-100,4,2,2,66,0,0
87839,-142.857142857143,4,2,2,66,0,0
88326,-66.6666666666667,4,2,1,71,0,0
88489,-400,4,2,1,5,0,0
88570,-200,4,2,1,71,0,0
88733,-400,4,2,1,5,0,0
88814,-200,4,2,1,71,0,0
89302,-66.6666666666667,4,2,1,71,0,0
89465,-400,4,2,1,5,0,0
89546,-66.6666666666667,4,2,1,71,0,0
90034,-333.333333333333,4,2,1,71,0,0
90196,-400,4,2,1,5,0,0
90278,-58.8235294117647,4,2,1,71,0,0
90440,-400,4,2,1,5,0,0
90521,-333.333333333333,4,2,1,71,0,0
90684,-400,4,2,1,5,0,0
90765,-58.8235294117647,4,2,1,71,0,0
90928,-400,4,2,1,5,0,0
91009,-58.8235294117647,4,2,1,71,0,0
91497,-55.5555555555556,4,2,1,71,0,0
91985,-333.333333333333,4,2,1,71,0,0
92148,-400,4,2,1,5,0,0
92229,-55.5555555555556,4,2,1,71,0,0
92391,-400,4,2,1,5,0,0
92473,-55.5555555555556,4,2,1,71,0,0
92635,-400,4,2,1,5,0,0
92717,-333.333333333333,4,2,1,71,0,0
92879,-400,4,2,1,5,0,0
92961,-166.666666666667,4,2,1,71,0,0
93286,-66.6666666666667,4,2,1,71,0,0
93530,-400,4,2,1,5,0,0
93611,-66.6666666666667,4,2,1,71,0,0
93936,-400,4,2,1,5,0,0
94017,-66.6666666666667,4,2,1,71,0,0
95156,-66.6666666666667,4,2,1,71,0,0
95562,-400,4,2,1,5,0,0
95643,-133.333333333333,4,2,1,71,0,0
96050,-400,4,2,1,5,0,0
96131,-58.8235294117647,4,2,1,71,0,0
96294,-400,4,2,1,5,0,0
96375,-58.8235294117647,4,2,1,71,0,0
96538,-400,4,2,1,5,0,0
96619,-58.8235294117647,4,2,1,71,0,0
96782,-400,4,2,1,5,0,0
96863,-58.8235294117647,4,2,1,71,0,0
97026,-400,4,2,1,5,0,0
97107,-58.8235294117647,4,2,1,71,0,0
97269,-400,4,2,1,5,0,0
97351,-58.8235294117647,4,2,1,71,0,0
97513,-400,4,2,1,5,0,0
97595,-58.8235294117647,4,2,1,71,0,0
97757,-400,4,2,1,5,0,0
97839,-200,4,2,1,71,0,0
98082,-50,4,2,1,71,0,0
98245,-400,4,2,1,5,0,0
98326,-333.333333333333,4,2,1,71,0,0
98489,-400,4,2,1,5,0,0
98570,-58.8235294117647,4,2,1,71,0,0
98733,-400,4,2,1,5,0,0
98814,-58.8235294117647,4,2,1,71,0,0
98977,-400,4,2,1,5,0,0
99058,-58.8235294117647,4,2,1,71,0,0
100196,-400,4,2,1,5,0,0
100278,-250,4,2,1,71,0,0
100643,-58.8235294117647,4,2,1,71,0,0
100826,-400,4,2,1,5,0,0
100887,-58.8235294117647,4,2,1,71,0,0
101192,-400,4,2,1,5,0,0
101253,-58.8235294117647,4,2,1,71,0,0
101985,-333.333333333333,4,2,1,71,0,0
102473,-333.333333333333,4,2,2,61,0,0
103448,-55.5555555555556,4,2,1,90,0,0
103855,-400,4,2,1,5,0,0
103936,-400,4,2,1,90,0,0
104017,-400,4,2,1,5,0,0
106863,-400,4,2,1,66,0,0
107594,-200,4,2,1,66,0,0
107839,-33.3333333333333,4,2,1,86,0,0
108001,-400,4,2,1,5,0,0
108082,-125,4,2,1,86,0,0
108326,-83.3333333333333,4,2,1,86,0,0
108814,-50,4,2,1,86,0,0
109302,-33.3333333333333,4,2,1,86,0,0
109465,-400,4,2,1,5,0,0
109546,-33.3333333333333,4,2,1,86,0,0
109708,-400,4,2,1,5,0,0
109790,-50,4,2,1,86,0,0
110278,-33.3333333333333,4,2,1,86,0,0
110440,-400,4,2,1,5,0,0
110521,-33.3333333333333,4,2,1,86,0,0
110684,-400,4,2,1,5,0,0
110765,-33.3333333333333,4,2,1,86,0,0
110928,-400,4,2,1,5,0,0
111009,-33.3333333333333,4,2,1,86,0,0
111172,-400,4,2,1,5,0,0
111253,-33.3333333333333,4,2,1,86,0,0
111660,-400,4,2,1,5,0,0
111741,-50,4,2,1,86,0,0
112717,-33.3333333333333,4,2,1,86,0,0
112879,-400,4,2,1,5,0,0
112961,-33.3333333333333,4,2,1,86,0,0
113367,-400,4,2,1,5,0,0
113448,-33.3333333333333,4,2,1,86,0,0
113611,-400,4,2,1,5,0,0
113692,-33.3333333333333,4,2,1,86,0,0
113855,-400,4,2,1,5,0,0
113936,-33.3333333333333,4,2,1,86,0,0
114343,-400,4,2,1,5,0,0
114424,-33.3333333333333,4,2,1,86,0,0
114830,-400,4,2,1,5,0,0
114912,-33.3333333333333,4,2,1,86,0,0
115156,-250,4,2,1,86,0,0
115400,-33.3333333333333,4,2,1,86,0,0
115562,-400,4,2,1,5,0,0
115643,-33.3333333333333,4,2,1,86,0,0
115806,-400,4,2,1,5,0,0
115887,-250,4,2,1,86,0,0
116375,-33.3333333333333,4,2,1,86,0,0
116538,-400,4,2,1,5,0,0
116619,-33.3333333333333,4,2,1,86,0,0
116782,-400,4,2,1,5,0,0
116863,-33.3333333333333,4,2,1,86,0,0
117026,-400,4,2,1,5,0,0
117107,-33.3333333333333,4,2,1,86,0,0
117269,-400,4,2,1,5,0,0
117351,-33.3333333333333,4,2,1,86,0,0
119546,-100,4,2,1,56,0,0
119790,-133.333333333333,4,2,1,56,0,0
119952,-400,4,2,1,5,0,0
120034,-40,4,2,1,86,0,0
120196,-400,4,2,1,5,0,0
120278,-40,4,2,1,86,0,0
120359,-38.4615384615385,4,2,1,86,0,0
121009,-66.6666666666667,4,2,1,86,0,0
121172,-400,4,2,1,5,0,0
121253,-58.8235294117647,4,2,1,86,0,0
121416,-400,4,2,1,5,0,0
121497,-333.333333333333,4,2,1,86,0,0
121660,-400,4,2,1,5,0,0
121741,-58.8235294117647,4,2,1,86,0,0
121904,-400,4,2,1,5,0,0
121985,-58.8235294117647,4,2,1,86,0,0
122148,-400,4,2,1,5,0,0
122229,-58.8235294117647,4,2,1,86,0,0
122961,-100,4,2,1,86,0,0
123123,-400,4,2,1,5,0,0
123204,-66.6666666666667,4,2,1,86,0,0
123367,-400,4,2,1,5,0,0
123448,-58.8235294117647,4,2,1,86,0,0
123611,-400,4,2,1,5,0,0
123692,-58.8235294117647,4,2,1,86,0,0
123855,-400,4,2,1,5,0,0
123936,-58.8235294117647,4,2,1,86,0,0
124099,-400,4,2,1,5,0,0
124180,-58.8235294117647,4,2,1,86,0,0
124587,-400,4,2,1,5,0,0
124668,-133.333333333333,4,2,1,86,0,0
124912,-58.8235294117647,4,2,1,86,0,0
125074,-400,4,2,1,5,0,0
125156,-58.8235294117647,4,2,1,86,0,0
125318,-400,4,2,1,5,0,0
125400,-50,4,2,1,86,0,0
125562,-400,4,2,1,5,0,0
125643,-50,4,2,1,86,0,0
127757,-400,4,2,1,5,0,0
127839,-50,4,2,1,86,0,0
128001,-400,4,2,1,5,0,0
128082,-50,4,2,1,86,0,0
128977,-400,4,2,1,5,0,0
129058,-50,4,2,1,86,0,0
129627,-133.333333333333,4,2,1,86,0,0
131009,-55.5555555555556,4,2,1,86,0,0
131172,-400,4,2,1,5,0,0
131253,-55.5555555555556,4,2,1,86,0,0
131416,-400,4,2,1,5,0,0
131497,-55.5555555555556,4,2,1,86,0,0
131660,-400,4,2,1,5,0,0
131741,-55.5555555555556,4,2,1,86,0,0
131904,-400,4,2,1,5,0,0
131985,-55.5555555555556,4,2,1,86,0,0
132066,-50,4,2,1,86,0,0
132473,-66.6666666666667,4,2,1,86,0,0
132635,-400,4,2,1,5,0,0
132717,-100,4,2,1,86,0,0
132879,-400,4,2,1,5,0,0
132961,-100,4,2,1,86,0,0
133123,-400,4,2,1,5,0,0
133204,-250,4,2,1,61,0,0
133692,-100,4,2,1,61,0,0
133855,-400,4,2,1,5,0,0
133936,-250,4,2,1,61,0,0
134180,-100,4,2,1,61,0,0
134343,-400,4,2,1,5,0,0
134424,-250,4,2,1,61,0,0
134668,-100,4,2,1,61,0,0
134830,-400,4,2,1,5,0,0
134912,-250,4,2,1,61,0,0
135156,-1000,4,2,1,61,0,0
136578,-400,4,2,1,5,0,0
136619,-250,4,2,1,61,0,0
136660,-400,4,2,1,5,0,0

[Colours]
Combo1 : 0,111,111
Combo2 : 192,192,192

[HitObjects]
21,357,278,5,0,0:0:0:0:
21,357,400,1,0,0:0:0:0:
21,357,522,2,0,B|41:345|40:317|40:317|17:332|20:359,1,93.75,2|0,3:2|0:0,0:0:0:0:
21,357,1375,6,0,B|41:345|40:317|40:317|17:332|20:359,1,93.75,2|0,0:0|0:0,0:0:0:0:
19,356,1660,6,0,B|39:345|40:317|40:317|18:332|18:358,1,91.6666694641114,2|0,0:0|0:0,0:0:0:0:
21,357,1985,5,2,3:2:0:0:
19,356,2148,6,0,B|39:345|40:317|40:317|16:330|17:357,3,94.4444462458293,2|2|2|2,0:0|0:0|0:0|0:0,0:0:0:0:
21,357,2717,5,0,3:2:0:0:
21,357,2961,5,0,3:2:0:0:
147,318,3204,5,2,0:0:0:0:
147,318,3326,2,0,B|127:306|128:278|128:278|151:293|148:320,1,93.75,2|0,0:0|0:0,0:0:0:0:
248,348,3692,6,0,B|228:360|229:388|229:388|252:373|249:346,2,93.75,2|2|2,0:0|0:0|0:0,0:0:0:0:
357,312,4302,5,2,0:0:0:0:
357,312,4424,2,0,B|337:300|338:272|338:272|361:287|358:314,1,93.75,0|0,3:2|0:0,0:0:0:0:
456,366,5074,6,0,B|476:355|475:326|475:326|453:340|454:367,2,94.4444462458293,2|2|2,0:0|0:0|0:0,0:0:0:0:
456,366,5400,6,0,B|476:354|475:326|475:326|452:341|455:368,1,93.75,2|2,0:0|0:0,0:0:0:0:
357,312,5765,2,0,B|337:300|338:272|338:272|361:287|358:314,1,93.75,2|2,0:0|0:0,0:0:0:0:
462,249,6131,5,2,0:0:0:0:
476,233,6253,1,0,0:0:0:0:
480,209,6375,2,0,B|460:221|461:249|461:249|484:234|481:207,1,93.75,2|0,0:0|3:2,0:0:0:0:
485,202,6782,5,0,3:2:0:0:
487,196,6863,1,0,3:2:0:0:
454,360,7107,5,0,0:0:0:0:
461,383,7269,1,0,0:0:0:0:
357,312,7513,5,0,0:0:0:0:
359,318,7595,1,0,0:0:0:0:
463,250,7839,6,0,B|483:238|482:210|482:210|459:225|462:252,1,93.75
359,318,8326,6,0,B|343:329|329:353|329:353|343:329|346:310,1,93.7500035762788,6|0,3:2|0:0,0:0:0:0:
359,318,8948,5,2,0:0:0:0:
487,48,9197,6,0,P|482:37|477:27,1,18.7499994277954,2|0,0:0|0:0,0:0:0:0:
423,101,9446,2,0,P|439:120|449:127,1,37.4999988555909,2|2,0:0|0:0,0:0:0:0:
400,27,9819,2,0,B|366:-5|319:11|319:11|361:3|385:29,1,140.625005364418,2|0,0:0|0:0,0:0:0:0:
487,48,10317,5,2,0:0:0:0:
487,48,10683,1,0,0:0:0:0:
339,86,11171,6,0,P|328:93|319:96,1,18.7499994277954,2|0,0:0|0:0,0:0:0:0:
322,94,11415,1,0,0:0:0:0:
248,106,11537,2,0,P|247:92|249:83,1,18.7499994277954,2|0,0:0|0:0,0:0:0:0:
276,17,11781,2,0,P|287:23|294:29,3,18.7499994277954
294,171,12269,6,0,P|265:217|256:258,1,93.7500035762788,2|0,0:0|0:0,0:0:0:0:
185,286,12627,2,0,P|193:294|200:305,1,18.7499994277954
295,317,12866,2,0,P|287:325|280:336,1,18.7499994277954
218,370,13105,2,0,P|226:378|233:389,1,18.7499994277954,2|0,0:0|0:0,0:0:0:0:
256,254,13344,6,0,P|268:209|294:171,1,93.7500035762788,2|0,0:0|0:0,0:0:0:0:
282,219,13703,2,0,P|270:173|244:135,1,93.7500035762788,2|0,0:0|0:0,0:0:0:0:
236,133,14061,1,0,0:0:0:0:
229,135,14180,1,2,0:0:0:0:
27,364,14546,6,0,P|39:358|46:351,1,18.7499994277954,0|2,0:0|0:0,0:0:0:0:
42,354,14911,1,0,0:0:0:0:
114,358,15033,2,0,P|114:344|112:335,1,18.7499994277954,2|2,0:0|0:0,0:0:0:0:
73,278,15277,1,0,0:0:0:0:
113,339,15399,2,0,P|118:346|125:353,1,18.7499994277954,2|0,0:0|0:0,0:0:0:0:
73,278,15643,2,0,P|67:270|60:263,2,18.7499994277954
256,384,16131,5,2,0:0:0:0:
256,384,16619,6,0,P|260:378|267:374,1,9.37499971389771,2|0,0:0|0:0,0:0:0:0:
209,320,17595,6,0,P|205:314|198:310,1,9.37499971389771,2|0,0:0|0:0,0:0:0:0:
312,290,18570,6,0,P|316:284|323:280,1,9.37499971389771,2|0,0:0|0:0,0:0:0:0:
172,204,19546,6,0,P|168:198|161:194,1,9.37499971389771,2|0,0:0|0:0,0:0:0:0:
368,146,20521,6,0,P|372:140|379:136,1,9.37499971389771,2|0,0:0|0:0,0:0:0:0:
140,75,21497,6,0,P|136:69|129:65,1,9.37499971389771,2|0,0:0|0:0,0:0:0:0:
370,6,22473,6,0,P|374:0|381:-4,1,9.37499971389771,2|0,0:0|0:0,0:0:0:0:
251,383,23448,5,0,0:0:0:0:
240,381,23517,5,0,0:0:0:0:
234,374,23587,5,0,0:0:0:0:
235,363,23657,5,0,0:0:0:0:
242,357,23727,5,0,0:0:0:0:
252,357,23796,5,0,0:0:0:0:
259,362,23866,5,0,0:0:0:0:
264,367,23936,6,0,B|233:356|201:358|201:358|180:323|214:297,1,125.000004768372,0|0,1:2|0:0,0:0:0:0:
151,357,24180,2,0,P|129:373|103:383,1,41.6666666666667
207,302,24424,1,0,1:2:0:0:
361,356,24587,5,0,0:0:0:0:
357,345,24668,1,0,0:0:0:0:
459,262,24830,5,0,0:0:0:0:
446,272,24912,2,0,P|438:222|506:245,1,125.000004768372,0|0,1:2|0:0,0:0:0:0:
459,262,25156,2,0,P|441:289|412:303,1,62.5000023841859,2|0,0:0|0:0,0:0:0:0:
354,333,25318,2,0,B|334:325|327:306|290:299,2,62.5000023841859,2|0|0,0:0|1:2|0:0,0:0:0:0:
236,348,25643,6,0,P|218:350|207:356,1,24.9999992370606,2|0,0:0|0:0,0:0:0:0:
151,375,25887,2,0,B|162:364|184:360|184:360|215:301|174:254,1,141.666669368744,2|0,1:2|0:0,0:0:0:0:
117,304,26131,6,0,P|99:308|89:316,1,24.9999992370606,2|0,0:0|0:0,0:0:0:0:
34,303,26375,2,0,B|86:295|121:334|196:329,1,141.666669368744,2|0,1:2|0:0,0:0:0:0:
254,240,26619,1,0,0:0:0:0:
243,147,26782,5,0,0:0:0:0:
228,150,26863,1,0,1:2:0:0:
77,194,27026,5,0,0:0:0:0:
92,197,27107,2,0,B|131:164|167:97|123:50|35:90|86:168|165:144,1,212.500004053116,2|0,0:0|1:2,0:0:0:0:
437,149,27595,6,0,P|445:140|459:133,1,24.9999992370606
444,175,27839,2,0,P|425:116|376:78,1,125.000004768372,2|0,1:2|0:0,0:0:0:0:
453,69,28082,6,0,P|404:107|386:166,1,125.000004768372
373,124,28326,2,0,P|384:130|393:140,1,24.9999992370606,2|0,1:2|0:0,0:0:0:0:
457,260,28570,6,0,B|478:266|498:247|498:247|476:247|473:274,1,62.5000023841859
431,278,28814,1,0,1:2:0:0:
504,367,28977,5,0,0:0:0:0:
510,357,29058,1,0,0:0:0:0:
370,343,29221,5,0,0:0:0:0:
376,353,29302,2,0,P|409:321|377:285,1,93.7500035762788,0|0,1:2|0:0,0:0:0:0:
386,287,29627,1,0,0:0:0:0:
283,379,29790,5,0,1:2:0:0:
204,269,29952,1,0,0:0:0:0:
282,297,30115,1,0,0:0:0:0:
201,354,30278,5,0,1:2:0:0:
209,192,30440,1,0,0:0:0:0:
128,249,30603,1,0,0:0:0:0:
139,268,30765,6,0,P|147:251|149:238,2,31.2500011920929,0|0|0,1:2|0:0|0:0,0:0:0:0:
106,343,31009,6,0,P|107:357|120:374,1,24.9999992370606
115,336,31253,1,0,1:2:0:0:
119,318,31335,5,0,0:0:0:0:
111,297,31416,5,0,0:0:0:0:
89,281,31497,5,0,0:0:0:0:
54,287,31578,6,0,P|38:294|22:312,1,31.2500011920929
0,322,31741,6,0,B|60:326|71:270|166:289,1,149.999995422363,2|0,1:2|0:0,0:0:0:0:
238,325,31985,6,0,B|275:327|308:291|283:235|248:316,1,125.000004768372,2|0,0:0|0:0,0:0:0:0:
374,342,32229,2,0,B|411:335|438:381|483:371,1,99.9999969482423,2|0,1:2|0:0,0:0:0:0:
487,325,32473,6,0,B|412:317|397:385|326:373,1,149.999995422363,2|0,0:0|0:0,0:0:0:0:
248,354,32717,6,0,B|221:339|208:272|226:275|246:355,1,99.9999969482423,2|0,1:2|0:0,0:0:0:0:
217,348,32961,2,0,B|216:317|268:272|274:289|215:346,1,99.9999969482423,2|0,0:0|0:0,0:0:0:0:
300,349,33204,6,0,B|251:367|229:256|151:283,1,149.999995422363,2|0,1:2|0:0,0:0:0:0:
48,342,33448,2,0,P|38:358|24:369,2,31.2500011920929
122,204,33692,2,0,B|123:119|55:140|58:140|101:157|105:212,1,149.999995422363,2|0,1:2|0:0,0:0:0:0:
54,243,33936,6,0,P|139:166|251:121,3,224.999993133545,0|0|0|0,0:0|1:2|0:0|1:2,0:0:0:0:
103,199,34912,1,0,0:0:0:0:
62,55,35074,5,0,0:0:0:0:
62,68,35156,2,0,P|43:17|22:45,1,99.9999969482423,0|0,1:2|0:0,0:0:0:0:
71,80,35400,1,0,0:0:0:0:
196,46,35562,5,0,0:0:0:0:
188,30,35643,2,0,B|164:96|253:87|247:173,1,141.666669368744,2|0,1:2|0:0,0:0:0:0:
168,166,35887,1,0,0:0:0:0:
249,294,36049,2,0,B|302:275|259:208|321:201,1,120.833337020874,2|0,0:0|1:2,0:0:0:0:
186,370,36294,5,0,0:0:0:0:
180,360,36375,1,0,0:0:0:0:
342,289,36538,5,0,0:0:0:0:
339,299,36619,2,0,B|269:291|317:216|238:182,1,141.666669368744,2|0,1:2|0:0,0:0:0:0:
345,175,36863,1,0,0:0:0:0:
225,281,36985,2,0,P|290:264|392:255,1,141.666669368744,2|0,0:0|1:2,0:0:0:0:
83,222,37229,5,0,0:0:0:0:
71,217,37351,1,0,0:0:0:0:
58,213,37473,1,0,0:0:0:0:
135,91,37595,6,0,L|142:74,2,12.4999996185303,2|0|0,1:2|0:0|0:0,0:0:0:0:
205,26,39058,6,0,B|170:218|374:171|290:397,1,375.000014305115,0|0,1:2|0:0,0:0:0:0:
306,129,39546,6,0,B|347:90|341:25|284:17|284:17|292:55|277:79|277:79|306:99|302:120,2,250,6|0|0,1:2|0:0|1:2,0:0:0:0:
306,129,40278,1,2,0:0:0:0:
294,270,40440,5,2,0:0:0:0:
294,270,40521,2,0,B|307:325|366:352|401:306|401:306|365:294|351:269|351:269|319:285|303:271,1,250,0|2,1:2|0:0,0:0:0:0:
178,189,40928,5,2,0:0:0:0:
178,189,41009,2,0,B|123:172|70:210|92:264|92:264|120:238|149:239|149:239|152:203|172:196,1,250,0|0,1:2|0:0,0:0:0:0:
306,129,41253,6,0,B|347:90|341:25|284:17|284:17|292:55|277:79|277:79|306:99|302:120,1,250,2|0,0:0|0:0,0:0:0:0:
294,270,41497,6,0,B|307:325|366:352|401:306|401:306|365:294|351:269|351:269|319:285|303:271,1,250,2|0,1:2|0:0,0:0:0:0:
178,189,41904,5,2,0:0:0:0:
178,189,41985,2,0,B|123:172|70:210|92:264|92:264|120:238|149:239|149:239|152:203|172:196,1,250,0|0,1:2|0:0,0:0:0:0:
306,129,42229,6,0,B|347:90|341:25|284:17|284:17|292:55|277:79|277:79|306:99|302:120,1,250,2|0,0:0|1:2,0:0:0:0:
306,129,42717,6,0,B|347:90|341:25|284:17|284:17|292:55|277:79|277:79|306:99|302:120,1,250,2|0,0:0|0:0,0:0:0:0:
294,270,42961,6,0,B|307:325|366:352|401:306|401:306|365:294|351:269|351:269|319:285|303:271,1,250,2|0,1:2|0:0,0:0:0:0:
178,189,43204,2,0,B|123:172|70:210|92:264|92:264|120:238|149:239|149:239|152:203|172:196,1,250,2|0,0:0|0:0,0:0:0:0:
162,202,43448,6,0,B|152:203|149:239|149:239|120:238|92:264|92:264|70:210|123:172|178:189,2,250,6|2|0,1:2|0:0|1:2,0:0:0:0:
162,202,44180,1,2,0:0:0:0:
311,275,44343,5,2,0:0:0:0:
311,275,44424,2,0,B|319:285|351:269|351:269|365:294|401:306|401:306|366:352|307:325|294:270,1,250,0|0,1:2|0:0,0:0:0:0:
311,275,44668,1,2,0:0:0:0:
301,109,44830,5,2,0:0:0:0:
301,109,44912,2,0,B|306:99|277:79|277:79|292:55|284:17|284:17|341:25|347:90|306:129,1,250,0|0,1:2|0:0,0:0:0:0:
162,202,45156,6,0,B|152:203|149:239|149:239|120:238|92:264|92:264|70:210|123:172|178:189,1,250,2|0,0:0|0:0,0:0:0:0:
311,275,45400,6,0,B|319:285|351:269|351:269|365:294|401:306|401:306|366:352|307:325|294:270,1,250,2|0,1:2|0:0,0:0:0:0:
301,109,45805,5,2,0:0:0:0:
301,109,45887,2,0,B|306:99|277:79|277:79|292:55|284:17|284:17|341:25|347:90|306:129,1,250,0|0,1:2|0:0,0:0:0:0:
162,202,46131,6,0,B|152:203|149:239|149:239|120:238|92:264|92:264|70:210|123:172|178:189,1,250,2|0,0:0|0:0,0:0:0:0:
311,275,46375,6,0,B|319:285|351:269|351:269|365:294|401:306|401:306|366:352|307:325|294:270,1,250,2|2,1:2|0:0,0:0:0:0:
301,109,46782,5,2,0:0:0:0:
301,109,46863,2,0,B|306:99|277:79|277:79|292:55|284:17|284:17|341:25|347:90|306:129,1,250,0|0,1:2|0:0,0:0:0:0:
162,202,47107,6,0,B|152:203|149:239|149:239|120:238|92:264|92:264|70:210|123:172|178:189,1,250,2|0,0:0|0:0,0:0:0:0:
306,129,47351,6,0,B|347:90|341:25|284:17|284:17|292:55|277:79|277:79|306:99|302:120,2,250,6|0|0,1:2|0:0|1:2,0:0:0:0:
306,129,48083,1,2,0:0:0:0:
294,270,48245,5,2,0:0:0:0:
294,270,48326,2,0,B|307:325|366:352|401:306|401:306|365:294|351:269|351:269|319:285|303:271,1,250,0|0,1:2|0:0,0:0:0:0:
294,270,48570,1,2,0:0:0:0:
178,189,48733,5,2,0:0:0:0:
178,189,48814,2,0,B|123:172|70:210|92:264|92:264|120:238|149:239|149:239|152:203|172:196,1,250,0|0,1:2|0:0,0:0:0:0:
306,129,49058,6,0,B|347:90|341:25|284:17|284:17|292:55|277:79|277:79|306:99|302:120,1,250,2|0,0:0|0:0,0:0:0:0:
294,270,49302,6,0,B|307:325|366:352|401:306|401:306|365:294|351:269|351:269|319:285|303:271,1,250,2|0,1:2|0:0,0:0:0:0:
178,189,49709,5,2,0:0:0:0:
178,189,49790,2,0,B|123:172|70:210|92:264|92:264|120:238|149:239|149:239|152:203|172:196,1,250,0|0,1:2|0:0,0:0:0:0:
306,129,50034,6,0,B|347:90|341:25|284:17|284:17|292:55|277:79|277:79|306:99|302:120,1,250,2|0,0:0|1:2,0:0:0:0:
306,129,50522,6,0,B|347:90|341:25|284:17|284:17|292:55|277:79|277:79|306:99|302:120,1,250,2|0,0:0|0:0,0:0:0:0:
294,270,50766,6,0,B|307:325|366:352|401:306|401:306|365:294|351:269|351:269|319:285|303:271,1,250,2|0,1:2|0:0,0:0:0:0:
178,189,51009,2,0,B|123:172|70:210|92:264|92:264|120:238|149:239|149:239|152:203|172:196,1,250,2|0,0:0|0:0,0:0:0:0:
306,129,51253,6,0,B|347:90|341:25|284:17|284:17|292:55|277:79|277:79|306:99|302:120,2,250,6|0|0,1:2|0:0|1:2,0:0:0:0:
162,202,51822,5,0,0:0:0:0:
162,202,51904,5,0,0:0:0:0:
162,202,51985,6,0,B|152:203|149:239|149:239|120:238|92:264|92:264|70:210|123:172|178:189,1,250,2|0,0:0|0:0,0:0:0:0:
294,270,52229,6,0,B|307:325|366:352|401:306|401:306|365:294|351:269|351:269|319:285|303:271,1,250,2|0,1:2|0:0,0:0:0:0:
301,109,52473,6,0,B|305:98|276:78|276:78|291:54|283:16|283:16|340:24|346:89|305:128,1,250,2|0,0:0|0:0,0:0:0:0:
176,188,52717,6,0,B|122:171|69:209|91:263|91:263|119:237|148:238|148:238|151:202|161:201,1,250,2|0,1:2|0:0,0:0:0:0:
311,275,52961,6,0,B|318:284|350:268|350:268|364:293|400:305|400:305|365:351|306:324|293:269,1,250
256,192,53204,5,2,1:2:0:0:
256,192,53611,5,2,0:0:0:0:
250,185,53692,1,0,1:2:0:0:
256,192,53936,5,2,0:0:0:0:
262,199,54180,5,2,1:2:0:0:
263,197,54424,5,2,0:0:0:0:
260,200,54505,5,0,0:0:0:0:
255,200,54587,5,0,0:0:0:0:
252,198,54668,5,2,1:2:0:0:
249,195,54749,5,0,0:0:0:0:
249,191,54830,5,0,0:0:0:0:
252,187,54912,5,2,0:0:0:0:
255,186,54993,5,0,0:0:0:0:
260,186,55074,5,0,0:0:0:0:
263,189,55156,6,0,P|248:172|242:148,1,41.6666666666667
279,55,55643,6,0,P|251:177|214:297,1,250.000009536744,6|0,1:2|0:0,0:0:0:0:
321,227,55887,2,0,B|315:227|307:200|307:200|252:187|217:226|217:226|240:228|251:238,1,166.666666666667
291,299,56131,2,0,P|335:244|393:203,1,141.666669368744,0|0,1:2|0:0,0:0:0:0:
470,231,56375,5,0,0:0:0:0:
471,241,56456,5,0,0:0:0:0:
469,250,56537,5,0,0:0:0:0:
462,257,56619,6,0,P|404:216|360:161,1,141.666669368744,8|0,1:2|0:0,0:0:0:0:
427,123,56863,2,0,P|483:93|436:51,1,141.666669368744
446,39,57107,6,0,P|481:55|495:82,1,62.5000023841859,0|0,1:2|0:0,0:0:0:0:
368,70,57351,2,0,B|329:80|292:10|220:27,1,125.000004768372
354,29,57595,2,0,P|292:41|231:69,1,125.000004768372,8|0,1:2|0:0,0:0:0:0:
170,117,57839,5,0,0:0:0:0:
175,106,57920,1,0,0:0:0:0:
92,34,58082,5,0,1:2:0:0:
97,45,58163,1,0,0:0:0:0:
182,143,58326,6,0,P|181:112|188:75,2,62.5000023841859
160,84,58570,6,0,P|187:105|209:162,1,83.3333333333333,8|0,1:2|0:0,0:0:0:0:
96,256,58814,2,0,P|72:219|119:246,1,125
136,246,59058,6,0,P|92:230|43:223,1,83.3333333333333,0|0,1:2|0:0,0:0:0:0:
31,258,59302,2,0,P|99:235|168:220,1,141.666669368744
278,180,59546,2,0,B|319:153|338:205|331:208|348:255|397:235,1,141.666669368744,8|0,1:2|0:0,0:0:0:0:
278,180,59790,5,0,0:0:0:0:
259,207,59871,5,0,0:0:0:0:
267,233,59952,5,0,0:0:0:0:
284,238,60034,6,0,B|325:265|344:213|337:210|354:163|403:183,1,141.666669368744,0|0,1:2|0:0,0:0:0:0:
471,196,60278,2,0,B|485:171|474:155|474:155|458:145|454:130,2,70.833334684372
475,84,60521,2,0,P|465:166|453:281,1,166.666666666667,8|0,1:2|0:0,0:0:0:0:
459,355,60765,5,0,0:0:0:0:
451,360,60847,5,0,0:0:0:0:
442,359,60928,5,0,0:0:0:0:
437,353,61009,6,0,B|430:307|485:281|485:281|485:313|447:325,2,149.999995422363,0|0|8,1:2|0:0|1:2,0:0:0:0:
323,374,61660,5,0,0:0:0:0:
319,384,61741,1,0,0:0:0:0:
272,299,61904,5,0,0:0:0:0:
264,307,61985,1,0,1:2:0:0:
250,208,62148,5,0,0:0:0:0:
236,216,62229,1,0,0:0:0:0:
87,317,62391,5,0,0:0:0:0:
101,322,62473,1,8,1:2:0:0:
85,168,62635,5,0,0:0:0:0:
71,162,62717,1,0,0:0:0:0:
235,76,62879,5,0,0:0:0:0:
246,71,62961,2,0,B|245:56|250:39|250:39|170:16|153:78,1,149.999995422363,6|0,1:2|0:0,0:0:0:0:
129,46,63204,2,0,L|299:76,1,149.999995422363
194,26,63448,2,0,B|181:20|168:8|168:8|132:25|132:25|111:76|47:88,1,149.999995422363,8|0,1:2|0:0,0:0:0:0:
103,190,63692,2,0,B|64:133|55:34|55:34|28:32|0:13,2,224.999993133545,0|0|0,0:0|1:2|0:0,0:0:0:0:
111,191,64343,5,0,0:0:0:0:
117,184,64424,2,0,P|43:206|46:260,1,125.000004768372,8|0,1:2|0:0,0:0:0:0:
138,208,64668,2,0,P|183:184|196:141,1,83.3333333333333
250,100,64912,6,0,L|240:53,2,41.6666666666667,0|0|0,1:2|0:0|0:0,0:0:0:0:
195,243,65156,2,0,P|121:221|124:167,1,125.000004768372
216,219,65400,2,0,P|261:243|274:286,1,83.3333333333333,8|0,1:2|0:0,0:0:0:0:
164,277,65643,1,0,0:0:0:0:
164,277,65725,6,0,L|198:139,2,125.000004768372,0|0|0,0:0|1:2|0:0,0:0:0:0:
160,289,66131,1,0,0:0:0:0:
36,369,66294,5,0,0:0:0:0:
31,358,66375,2,0,P|56:329|90:401,1,125.000004768372,8|0,1:2|0:0,0:0:0:0:
5,384,66619,6,0,B|89:403|121:295|245:320,2,224.999993133545,0|0|0,0:0|1:2|0:0,0:0:0:0:
394,189,67351,2,0,B|433:174|464:206|464:206|489:181|523:187,1,116.666663106283,8|0,1:2|0:0,0:0:0:0:
498,186,67595,1,0,0:0:0:0:
410,262,67676,2,0,P|431:187|444:112,2,141.666669368744,0|0|0,0:0|1:2|0:0,0:0:0:0:
410,262,68082,6,0,P|383:207|389:155,1,99.9999969482423
439,269,68326,2,0,P|429:306|409:324,1,62.5000023841859,8|0,1:2|0:0,0:0:0:0:
345,151,68570,2,0,P|392:125|443:106,1,108.333328374227
499,50,68814,6,0,L|504:19,2,20.8333333333333,0|0|0,1:2|0:0|0:0,0:0:0:0:
499,50,69058,1,0,0:0:0:0:
345,151,69302,6,0,P|360:99|370:60,1,83.3333333333333,0|0,3:2|0:0,0:0:0:0:
379,92,69546,2,0,P|383:78|386:63,2,20.8333333333333
258,212,69790,6,0,P|243:264|233:303,1,83.3333333333333,0|0,3:2|0:0,0:0:0:0:
224,271,70034,2,0,P|220:285|217:300,2,20.8333333333333
195,132,70278,6,0,P|210:80|220:41,1,83.3333333333333,0|0,3:2|0:0,0:0:0:0:
229,73,70522,2,0,P|233:59|236:44,2,20.8333333333333
126,209,70765,6,0,P|111:261|101:300,1,83.3333333333333,0|0,3:2|0:0,0:0:0:0:
92,268,71009,2,0,P|88:282|85:297,2,20.8333333333333
63,129,71253,6,0,P|78:77|88:38,1,83.3333333333333,0|0,3:2|0:0,0:0:0:0:
97,70,71497,2,0,P|101:56|104:41,2,20.8333333333333
92,267,71741,6,0,P|89:277|86:288,1,20.8333333333333,2|0,3:2|0:0,0:0:0:0:
228,73,71904,6,0,P|231:63|234:52,1,20.8333333333333,2|0,0:0|0:0,0:0:0:0:
224,270,72066,6,0,P|221:280|218:291,1,20.8333333333333,2|0,0:0|0:0,0:0:0:0:
378,92,72229,6,0,P|381:82|384:71,1,20.8333333333333,2|0,0:0|0:0,0:0:0:0:
478,84,72717,6,0,B|436:119|392:68|401:68|368:14|313:40,1,187.5,0|0,3:2|0:0,0:0:0:0:
82,136,73204,6,0,B|99:138|102:116|100:117|99:96|119:94,1,62.5
121,140,73448,6,0,B|103:142|100:120|102:121|103:100|83:98,1,62.5
172,75,73692,6,0,B|120:56|97:120|105:117|94:179|34:174,1,187.5,8|0,0:0|0:0,0:0:0:0:
84,54,74180,6,0,B|81:25|46:28|49:31|17:39|7:9,1,93.75,0|0,3:2|0:0,0:0:0:0:
17,154,74668,6,0,B|55:139|73:187|67:185|75:231|120:228,1,140.625005364418
155,230,74912,6,0,B|137:228|134:250|136:249|137:270|117:272,1,62.5,0|0,3:2|0:0,0:0:0:0:
199,155,75156,6,0,B|215:146|225:166|223:165|230:185|249:180,2,62.5,0|8|0,3:2|0:0|0:0,0:0:0:0:
183,247,76619,6,0,B|162:196|224:170|222:178|283:164|275:103,1,187.5,0|0,3:2|0:0,0:0:0:0:
266,211,77107,6,0,B|265:229|288:229|286:227|307:224|311:244,1,62.5
362,369,77351,6,0,B|347:355|332:370|335:371|316:383|306:369,1,62.5
420,230,77595,6,0,B|474:232|473:299|466:293|454:355|513:373,1,187.5,8|0,0:0|0:0,0:0:0:0:
155,217,78082,6,0,B|198:184|239:237|230:237|260:292|317:269,1,187.5,0|0,3:2|0:0,0:0:0:0:
245,0,78570,6,0,B|223:34|267:62|265:55|310:72|297:118,1,140.625005364418
298,116,78814,6,0,B|294:86|324:82|322:86|352:74|345:51,1,83.3333333333333,0|0,3:2|3:2,0:0:0:0:
337,47,79058,5,0,3:2:0:0:
245,0,79221,5,0,0:0:0:0:
184,59,79383,5,0,0:0:0:0:
137,129,79546,5,8,0:0:0:0:
55,152,79708,5,0,0:0:0:0:
0,100,79871,5,0,0:0:0:0:
87,34,80034,6,0,B|138:15|160:78|152:76|163:137|225:133,2,187.5,0|0|4,3:2|0:0|3:2,0:0:0:0:
227,363,81009,5,0,0:0:0:0:
270,361,81172,5,0,0:0:0:0:
293,324,81335,5,0,0:0:0:0:
512,196,81497,5,8,0:0:0:0:
452,126,81660,5,0,0:0:0:0:
349,155,81822,5,0,0:0:0:0:
326,244,81985,6,0,B|322:273|352:277|350:273|380:285|373:308,1,83.3333333333333,0|0,3:2|0:0,0:0:0:0:
326,244,82473,5,8,3:2:0:0:
312,214,82635,5,0,0:0:0:0:
273,207,82798,5,0,0:0:0:0:
17,257,82961,5,0,3:2:0:0:
66,333,83123,5,0,0:0:0:0:
162,340,83286,5,0,0:0:0:0:
225,279,83448,6,0,B|228:249|198:245|200:249|170:237|177:214,1,83.3333333333333,8|0,0:0|0:0,0:0:0:0:
173,273,83936,6,0,B|169:243|199:239|197:243|227:231|220:208,1,83.3333333333333
223,109,84424,6,0,B|202:160|264:186|262:178|323:192|315:253,1,187.5,0|0,3:2|0:0,0:0:0:0:
191,161,84790,5,0,0:0:0:0:
220,213,84912,6,0,B|237:215|240:193|238:194|237:173|257:171,1,62.5
206,366,85156,6,0,B|221:373|231:353|228:353|234:333|254:337,1,62.5
80,297,85400,6,0,B|60:295|61:274|62:275|60:253|43:255,2,62.5,8|0|0,0:0|0:0|0:0,0:0:0:0:
446,157,85887,6,0,B|466:155|465:134|463:135|466:113|483:115,2,62.5,0|0|0,3:2|0:0|0:0,0:0:0:0:
107,94,86375,6,0,B|73:99|63:55|68:57|50:12|14:27,1,125,0|0,0:0|3:2,0:0:0:0:
256,2,86782,5,0,3:2:0:0:
256,2,86863,5,0,3:2:0:0:
256,2,87351,5,8,0:0:0:0:
196,68,87432,5,0,0:0:0:0:
225,154,87513,5,0,0:0:0:0:
295,204,87595,5,0,0:0:0:0:
323,279,87676,5,0,0:0:0:0:
301,353,87757,5,0,0:0:0:0:
255,382,87839,6,0,L|249:346,1,21.874999332428
245,381,87961,6,0,L|254:345,1,21.874999332428
236,376,88082,6,0,L|259:348,1,21.874999332428
236,376,88204,6,0,L|259:348,1,21.874999332428
234,307,88326,6,0,B|322:278|322:278|337:298|366:313,1,125.000004768372,0|0,1:2|0:0,0:0:0:0:
215,296,88570,2,0,L|261:281,1,41.6666666666667
385,235,88814,1,0,1:2:0:0:
340,384,88977,5,0,0:0:0:0:
335,375,89058,1,0,0:0:0:0:
117,331,89221,5,0,0:0:0:0:
112,340,89302,2,0,P|93:284|162:244,1,125.000004768372,0|0,1:2|0:0,0:0:0:0:
117,331,89546,2,0,P|100:366|71:380,1,62.5000023841859
215,296,89708,2,0,L|284:269,2,62.5000023841859,0|0|0,0:0|1:2|0:0,0:0:0:0:
444,213,90034,6,0,P|457:216|470:223,1,24.9999992370606,2|0,0:0|0:0,0:0:0:0:
349,230,90278,2,0,P|432:182|477:167,1,141.666669368744,2|0,1:2|0:0,0:0:0:0:
348,56,90521,6,0,P|335:53|324:47,1,24.9999992370606,2|0,0:0|0:0,0:0:0:0:
384,51,90765,2,0,B|331:40|301:112|236:98,1,141.666669368744,2|0,1:2|0:0,0:0:0:0:
186,61,91009,1,0,0:0:0:0:
28,37,91172,5,0,0:0:0:0:
23,27,91253,1,0,1:2:0:0:
160,179,91416,5,0,0:0:0:0:
162,190,91497,2,0,B|131:285|94:293|6:262|75:199|151:230|174:280,1,224.999993133545,2|0,0:0|1:2,0:0:0:0:
482,376,91985,6,0,P|492:361|498:348,1,24.9999992370606
477,384,92229,2,0,P|451:307|473:214,1,149.999995422363,2|0,1:2|0:0,0:0:0:0:
469,224,92473,2,0,P|415:285|323:312,1,149.999995422363
436,222,92717,6,0,P|448:221|460:222,1,24.9999992370606,0|0,1:2|0:0,0:0:0:0:
295,358,92961,2,0,P|285:343|279:330,2,24.9999992370606
305,367,93204,5,0,1:2:0:0:
265,360,93286,2,0,B|285:283|378:282|378:282|353:303|341:326,1,187.500007152558
243,368,93611,5,0,0:0:0:0:
176,291,93692,2,0,B|138:290|88:254|88:254|138:289|145:344,1,187.500007152558,0|0,1:2|0:0,0:0:0:0:
138,336,94017,1,0,0:0:0:0:
254,186,94180,5,0,1:2:0:0:
124,83,94343,1,0,0:0:0:0:
218,0,94505,1,0,0:0:0:0:
149,158,94668,5,0,1:2:0:0:
45,73,94830,1,0,0:0:0:0:
178,30,94993,1,0,0:0:0:0:
254,186,95156,6,0,B|283:222|257:301|183:275|181:273|180:272|97:228|50:308|73:354,1,312.500011920929,0|0,1:2|0:0,0:0:0:0:
73,354,95643,6,0,B|95:362|128:337|104:306|103:305|102:305|69:272|100:238|125:242,1,156.250005960465,0|0,1:2|0:0,0:0:0:0:
130,354,96131,6,0,B|124:342|119:325|119:325|71:290|13:306,1,141.666669368744,2|0,1:2|0:0,0:0:0:0:
226,384,96375,6,0,B|304:358|333:338|305:306|266:351,1,141.666669368744,2|0,0:0|0:0,0:0:0:0:
272,343,96619,2,0,B|239:305|211:337|240:357|318:383,1,141.666669368744,2|0,1:2|0:0,0:0:0:0:
444,308,96863,6,0,B|444:302|455:284|455:284|403:268|386:309|386:309|390:339|379:363,1,141.666669368744,2|0,0:0|0:0,0:0:0:0:
442,384,97107,6,0,P|389:295|348:274,1,141.666669368744,2|0,1:2|0:0,0:0:0:0:
352,192,97351,2,0,P|264:136|218:136,1,141.666669368744,2|0,0:0|0:0,0:0:0:0:
32,119,97595,6,0,P|87:94|94:155,1,141.666669368744,2|0,1:2|0:0,0:0:0:0:
18,233,97839,2,0,P|2:225|-14:226,2,20.8333333333333
100,317,98082,6,0,B|136:323|174:355|174:355|137:323|124:289,1,166.666666666667,2|0,1:2|0:0,0:0:0:0:
229,134,98326,6,0,P|239:124|254:114,1,24.9999992370606
216,154,98570,2,0,P|205:69|231:9,1,141.666669368744,0|0,1:2|0:0,0:0:0:0:
305,253,98814,2,0,B|310:288|270:303|270:297|206:312|222:350,1,141.666669368744
277,376,99058,2,0,P|256:305|234:239,2,141.666669368744,0|0|0,1:2|0:0|0:0,0:0:0:0:
456,350,99465,5,0,0:0:0:0:
464,344,99546,5,0,1:2:0:0:
404,345,99668,1,0,0:0:0:0:
340,284,99790,1,0,0:0:0:0:
341,194,99912,1,0,0:0:0:0:
413,129,100034,6,0,B|456:94|490:140|490:140|489:188|527:179,1,141.666669368744,2|0,1:2|0:0,0:0:0:0:
512,171,100278,2,0,L|470:179,2,25,0|0|0,0:0|0:0|1:2,0:0:0:0:
341,194,100643,6,0,B|336:194|320:199|320:199|214:154|214:154|201:165|194:164,1,159.375003039837
181,165,100887,1,0,0:0:0:0:
286,104,101009,2,0,B|286:109|291:125|291:125|246:231|246:231|257:244|256:250,1,159.375003039837,2|0,1:2|0:0,0:0:0:0:
265,259,101253,1,0,0:0:0:0:
315,163,101375,2,0,L|208:196,1,106.250002026558,0|0,0:0|1:2,0:0:0:0:
450,84,101619,5,0,0:0:0:0:
463,89,101741,1,0,0:0:0:0:
475,94,101863,1,0,0:0:0:0:
256,2,101985,6,0,L|233:6,2,12.4999996185303,2|0|0,1:2|0:0|0:0,0:0:0:0:
243,379,102473,6,0,L|256:382,1,12.4999996185303,2|0,0:0|0:0,0:0:0:0:
205,26,103448,6,0,B|170:218|374:171|290:397,1,375.000014305115,0|0,3:2|0:0,0:0:0:0:
307,30,103936,6,0,B|342:218|138:171|212:367,1,375.000014305115,0|8,3:2|0:0,0:0:0:0:
208,171,107107,5,0,0:0:0:0:
212,262,107229,1,0,0:0:0:0:
278,310,107351,1,2,1:2:0:0:
285,341,107473,1,0,0:0:0:0:
278,357,107594,2,0,L|267:371,2,15.625
133,242,107839,6,0,B|159:272|166:320|124:351|124:351|133:301|189:291|227:309,1,250,6|0,1:2|0:0,0:0:0:0:
255,202,108082,6,0,L|257:186,4,16.6666666666667
253,175,108326,6,0,L|262:214,3,37.4999988555909,0|0|0|0,1:2|0:0|0:0|0:0,0:0:0:0:
256,192,108570,5,2,0:0:0:0:
281,70,108733,5,2,0:0:0:0:
281,70,108814,2,0,B|242:77|196:59|191:7|191:7|229:40|210:93|175:117,1,250,0|2,1:2|0:0,0:0:0:0:
356,284,109221,5,2,0:0:0:0:
356,284,109302,2,0,B|368:246|407:216|454:237|454:237|407:254|370:211|367:168,1,250,0|0,1:2|0:0,0:0:0:0:
133,242,109546,6,0,B|159:272|166:320|124:351|124:351|133:301|189:291|227:309,1,250,2|0,0:0|0:0,0:0:0:0:
281,70,109790,6,0,B|242:77|196:59|191:7|191:7|229:40|210:93|175:117,1,250,2|0,1:2|0:0,0:0:0:0:
356,284,110196,5,2,0:0:0:0:
356,284,110278,2,0,B|368:246|407:216|454:237|454:237|407:254|370:211|367:168,1,250,0|0,1:2|0:0,0:0:0:0:
133,242,110521,6,0,B|159:272|166:320|124:351|124:351|133:301|189:291|227:309,1,250,2|0,0:0|0:0,0:0:0:0:
281,70,110765,6,0,B|242:77|196:59|191:7|191:7|229:40|210:93|175:117,1,250,2|0,1:2|0:0,0:0:0:0:
356,284,111009,6,0,B|368:246|407:216|454:237|454:237|407:254|370:211|367:168,1,250,2|0,0:0|0:0,0:0:0:0:
228,281,111253,5,0,1:2:0:0:
226,290,111334,5,0,0:0:0:0:
224,300,111415,5,0,0:0:0:0:
223,307,111497,6,0,B|189:291|133:301|124:351|124:351|166:320|159:272|133:242,1,250,2|0,0:0|0:0,0:0:0:0:
367,171,111741,6,0,B|370:211|407:254|454:237|454:237|407:216|368:246|356:284,2,250,6|0|0,1:2|0:0|1:2,0:0:0:0:
256,192,112473,1,2,0:0:0:0:
177,114,112635,5,2,0:0:0:0:
177,114,112717,2,0,B|210:93|229:40|191:7|191:7|196:59|242:77|281:70,1,250,0|0,1:2|0:0,0:0:0:0:
256,192,112961,1,2,0:0:0:0:
223,307,113123,5,2,0:0:0:0:
223,307,113204,2,0,B|189:291|133:301|124:351|124:351|166:320|159:272|133:242,1,250,0|0,1:2|0:0,0:0:0:0:
367,171,113448,6,0,B|370:211|407:254|454:237|454:237|407:216|368:246|356:284,1,250,2|0,0:0|0:0,0:0:0:0:
177,114,113692,6,0,B|210:93|229:40|191:7|191:7|196:59|242:77|281:70,1,250,2|0,1:2|0:0,0:0:0:0:
256,192,113936,1,0,0:0:0:0:
133,242,114099,5,2,0:0:0:0:
133,242,114180,2,0,B|159:272|166:320|124:351|124:351|133:301|189:291|223:307,1,250,0|0,1:2|0:0,0:0:0:0:
256,192,114424,1,2,0:0:0:0:
281,70,114587,5,0,0:0:0:0:
281,70,114668,2,0,B|242:77|196:59|191:7|191:7|229:40|210:93|177:114,1,250,0|0,1:2|0:0,0:0:0:0:
256,192,114912,5,2,0:0:0:0:
263,191,114993,5,0,0:0:0:0:
262,184,115074,5,0,0:0:0:0:
254,183,115156,6,0,L|256:194,4,8.33333333333333,2|0|0|0|0,1:2|0:0|0:0|0:0|0:0,0:0:0:0:
367,171,115400,6,0,B|370:211|407:254|454:237|454:237|407:216|368:246|356:284,1,250,2|0,0:0|0:0,0:0:0:0:
177,114,115643,6,0,B|210:93|229:40|191:7|191:7|196:59|242:77|281:70,1,250,6|0,1:2|0:0,0:0:0:0:
256,192,115887,6,0,L|252:179,4,8.33333333333333
223,307,116131,5,0,1:2:0:0:
223,307,116213,5,0,0:0:0:0:
223,307,116294,5,0,0:0:0:0:
223,307,116375,6,0,B|189:291|133:301|124:351|124:351|166:320|159:272|133:242,1,250,2|0,0:0|0:0,0:0:0:0:
367,171,116619,6,0,B|370:211|407:254|454:237|454:237|407:216|368:246|356:284,1,250,2|0,1:2|0:0,0:0:0:0:
177,114,116863,6,0,B|210:93|229:40|191:7|191:7|196:59|242:77|281:70,1,250,2|0,0:0|0:0,0:0:0:0:
223,307,117107,6,0,B|189:291|133:301|124:351|124:351|166:320|159:272|133:242,1,250,2|0,1:2|0:0,0:0:0:0:
256,192,117351,5,0,0:0:0:0:
256,192,117595,5,2,1:2:0:0:
256,192,117839,1,0,0:0:0:0:
248,183,118001,5,2,0:0:0:0:
256,192,118082,1,0,1:2:0:0:
264,201,118245,5,0,0:0:0:0:
256,192,118326,1,2,0:0:0:0:
256,192,118570,5,2,1:2:0:0:
260,186,118814,5,2,0:0:0:0:
255,186,118895,5,0,0:0:0:0:
252,187,118976,5,0,0:0:0:0:
249,191,119058,5,2,1:2:0:0:
249,195,119139,5,0,0:0:0:0:
252,198,119220,5,0,0:0:0:0:
255,200,119301,5,2,0:0:0:0:
260,200,119383,5,0,0:0:0:0:
263,197,119464,5,0,0:0:0:0:
264,191,119546,6,0,L|254:144,2,41.6666666666667,0|0|0,3:2|3:2|3:2,0:0:0:0:
288,275,119790,6,0,L|271:353,1,62.5000023841859,0|0,3:2|0:0,0:0:0:0:
230,382,120034,6,0,B|223:346|253:285|294:291|294:291|278:343|201:303,1,208.333333333333,6|0,1:2|0:0,0:0:0:0:
122,289,120278,2,0,B|226:239|298:436|412:370,2,312.5,0|0|0,0:0|1:2|0:0,0:0:0:0:
52,356,120847,5,0,0:0:0:0:
33,359,120928,5,0,0:0:0:0:
17,349,121009,2,0,P|72:299|100:350,1,125.000004768372,8|0,1:2|0:0,0:0:0:0:
129,356,121253,6,0,P|129:286|171:231,1,141.666669368744
136,332,121497,2,0,P|133:348|125:356,1,24.9999992370606,0|0,1:2|0:0,0:0:0:0:
111,220,121741,2,0,B|161:200|194:265|241:263,1,141.666669368744
94,241,121985,2,0,P|147:182|146:118,1,141.666669368744,8|0,1:2|0:0,0:0:0:0:
106,45,122229,5,0,0:0:0:0:
100,32,122310,1,0,0:0:0:0:
237,25,122473,5,0,1:2:0:0:
243,38,122554,1,0,0:0:0:0:
97,75,122717,6,0,P|105:42|112:-17,2,70.833334684372
79,80,122961,6,0,P|116:49|160:38,1,83.3333333333333,8|0,1:2|0:0,0:0:0:0:
329,30,123204,2,0,B|371:16|400:99|458:81,1,125.000004768372
323,90,123448,6,0,P|408:44|463:34,1,141.666669368744,0|0,1:2|0:0,0:0:0:0:
303,241,123692,2,0,B|371:224|366:167|366:167|363:194|328:206,1,141.666669368744
241,215,123936,2,0,B|232:270|337:254|325:314,1,141.666669368744,8|0,1:2|0:0,0:0:0:0:
201,257,124180,5,0,0:0:0:0:
199,232,124261,5,0,0:0:0:0:
217,215,124343,5,0,0:0:0:0:
241,215,124424,6,0,B|249:159|144:175|156:115,1,141.666669368744,0|0,1:2|0:0,0:0:0:0:
113,52,124668,2,0,P|119:33|121:12,2,31.2500011920929
124,137,124912,2,0,P|55:113|29:50,1,141.666669368744,8|0,1:2|0:0,0:0:0:0:
194,199,125156,2,0,B|200:258|269:261|259:183|204:187,1,141.666669368744
210,279,125400,6,0,P|302:275|374:332,1,166.666666666667,0|0,1:2|0:0,0:0:0:0:
479,368,125643,1,0,0:0:0:0:
479,368,125806,5,0,0:0:0:0:
478,374,125887,1,8,1:2:0:0:
366,375,126050,5,0,0:0:0:0:
361,384,126131,1,0,0:0:0:0:
244,354,126294,5,0,0:0:0:0:
230,360,126375,1,0,1:2:0:0:
136,287,126538,5,0,0:0:0:0:
117,284,126619,1,0,0:0:0:0:
89,168,126782,5,0,0:0:0:0:
70,145,126863,1,8,1:2:0:0:
180,43,127026,5,0,0:0:0:0:
165,15,127107,1,0,0:0:0:0:
467,166,127269,5,0,0:0:0:0:
455,177,127351,2,0,B|450:213|483:261|544:197|507:135|332:110|231:154|173:232,1,416.666666666667,6|0,1:2|0:0,0:0:0:0:
247,355,127839,2,0,B|224:376|255:406|279:385|283:325|183:295,1,166.666666666667,8|0,1:2|0:0,0:0:0:0:
52,360,128082,2,0,B|112:359|165:313|158:213|132:192|90:226|76:276|134:277,2,250,0|0|0,0:0|1:2|0:0,0:0:0:0:
40,352,128652,1,0,0:0:0:0:
38,342,128733,1,0,0:0:0:0:
41,330,128814,2,0,B|16:336|6:308|32:282|121:285|103:401,1,166.666666666667,8|0,1:2|0:0,0:0:0:0:
281,363,129058,6,0,B|342:389|391:323|381:324|416:233|510:273,2,250,0|0|0,0:0|1:2|0:0,0:0:0:0:
188,296,129627,2,0,P|174:282|148:270,2,31.2500011920929,0|0|8,0:0|0:0|1:2,0:0:0:0:
464,340,129952,5,0,0:0:0:0:
467,348,130034,1,0,0:0:0:0:
304,285,130196,5,0,0:0:0:0:
307,293,130278,1,0,1:2:0:0:
435,173,130439,5,0,0:0:0:0:
438,181,130521,1,0,0:0:0:0:
255,131,130684,5,0,0:0:0:0:
257,138,130766,1,8,1:2:0:0:
464,13,130928,5,0,0:0:0:0:
470,22,131009,2,0,B|478:-7|521:-12|517:58|466:87|400:48,1,149.999995422363
342,95,131253,6,0,P|274:56|202:44,1,149.999995422363,0|0,1:2|0:0,0:0:0:0:
328,37,131497,2,0,B|299:27|288:20|288:20|247:66|179:85,1,149.999995422363
378,185,131741,2,0,B|416:182|446:214|446:214|417:184|413:122,1,149.999995422363,8|0,1:2|0:0,0:0:0:0:
415,140,131985,1,0,0:0:0:0:
381,268,132066,2,0,P|451:183|541:149,2,166.666666666667,0|0|0,0:0|1:2|0:0,0:0:0:0:
364,296,132473,2,0,P|410:352|478:356,1,125.000004768372
288,235,132717,2,0,P|345:255|353:283,1,83.3333333333333,8|0,1:2|0:0,0:0:0:0:
161,224,132961,2,0,P|141:180|152:132,1,83.3333333333333
35,23,133204,6,0,L|16:17,2,16.6666666666667,0|0|0,1:2|0:0|0:0,0:0:0:0:
48,28,133448,1,0,0:0:0:0:
145,146,133692,6,0,L|66:119,1,83.3333333333333,0|0,3:2|0:0,0:0:0:0:
102,113,133936,2,0,L|83:107,2,16.6666666666667
351,272,134180,6,0,L|429:245,1,83.3333333333333,0|0,3:2|0:0,0:0:0:0:
394,239,134424,2,0,L|413:233,2,16.6666666666667
139,367,134668,6,0,L|60:340,1,83.3333333333333,0|0,3:2|0:0,0:0:0:0:
96,334,134912,2,0,L|77:328,2,16.6666666666667
435,384,135156,6,0,L|504:361,1,72.9166666666667,0|0,3:2|0:0,0:0:0:0:
504,355,136619,6,0,L|494:358,1,8.33333333333333
