osu file format v14

[General]
AudioFilename: audio.mp3
AudioLeadIn: 0
PreviewTime: -1
Countdown: 0
SampleSet: None
StackLeniency: 0.7
Mode: 3
LetterboxInBreaks: 0
SpecialStyle: 0
WidescreenStoryboard: 1

[Editor]
DistanceSpacing: 0.8
BeatDivisor: 4
GridSize: 8
TimelineZoom: 1.6

[Metadata]
Title:U.N. Owen was her?
TitleUnicode:U.N.オーエンは彼女なのか?
Artist:Len
ArtistUnicode:Len
Creator:Crystalys-
Version:Rage Flandere
Source:東方プロジェクト
Tags:flandere scarlet emperor of time
BeatmapID:2168534
BeatmapSetID:1037252

[Difficulty]
HPDrainRate:8
CircleSize:4
OverallDifficulty:8.4
ApproachRate:5
SliderMultiplier:1.4
SliderTickRate:1

[Events]
//Background and Video events
0,0,"cropped-1280-720-217830.jpg",0,0
//Break Periods
//Storyboard Layer 0 (Background)
//Storyboard Layer 1 (Fail)
//Storyboard Layer 2 (Pass)
//Storyboard Layer 3 (Foreground)
//Storyboard Layer 4 (Overlay)
//Storyboard Sound Samples

[TimingPoints]
0,333.333333333333,4,2,0,30,1,0
24666,-100,4,2,0,30,0,1
45999,-100,4,2,0,30,0,0
83333,-100,4,2,0,30,0,1
115333,-100,4,2,0,30,0,0

[HitObjects]
64,192,0,5,0,0:0:0:0:
192,192,0,1,0,0:0:0:0:
448,192,0,1,0,0:0:0:0:
320,192,166,1,0,0:0:0:0:
448,192,166,1,0,0:0:0:0:
64,192,249,1,0,0:0:0:0:
192,192,249,1,0,0:0:0:0:
320,192,333,1,0,0:0:0:0:
448,192,333,1,0,0:0:0:0:
64,192,499,1,0,0:0:0:0:
320,192,499,1,0,0:0:0:0:
192,192,666,128,0,749:0:0:0:0:
448,192,666,1,0,0:0:0:0:
64,192,749,128,0,833:0:0:0:0:
320,192,833,128,0,916:0:0:0:0:
192,192,916,128,0,999:0:0:0:0:
448,192,999,128,0,1083:0:0:0:0:
64,192,999,1,0,0:0:0:0:
320,192,999,1,0,0:0:0:0:
192,192,1083,128,0,1166:0:0:0:0:
64,192,1166,128,0,1249:0:0:0:0:
320,192,1166,1,0,0:0:0:0:
448,192,1249,128,0,1333:0:0:0:0:
320,192,1333,128,0,1416:0:0:0:0:
192,192,1416,128,0,1499:0:0:0:0:
448,192,1499,128,0,1583:0:0:0:0:
320,192,1583,128,0,1666:0:0:0:0:
64,192,1666,128,0,1916:0:0:0:0:
192,192,1666,1,0,0:0:0:0:
192,192,1916,128,0,1999:0:0:0:0:
320,192,1916,1,0,0:0:0:0:
320,192,1999,128,0,2083:0:0:0:0:
64,192,1999,1,0,0:0:0:0:
448,192,1999,1,0,0:0:0:0:
448,192,2166,128,0,2249:0:0:0:0:
64,192,2166,1,0,0:0:0:0:
64,192,2333,128,0,2416:0:0:0:0:
320,192,2333,1,0,0:0:0:0:
448,192,2333,1,0,0:0:0:0:
192,192,2416,128,0,2499:0:0:0:0:
448,192,2499,128,0,2583:0:0:0:0:
64,192,2499,1,0,0:0:0:0:
320,192,2583,128,0,2666:0:0:0:0:
192,192,2583,1,0,0:0:0:0:
192,192,2666,128,0,2749:0:0:0:0:
448,192,2666,1,0,0:0:0:0:
64,192,2749,128,0,2833:0:0:0:0:
320,192,2833,128,0,2916:0:0:0:0:
448,192,2833,1,0,0:0:0:0:
448,192,2916,128,0,2999:0:0:0:0:
192,192,2999,128,0,3083:0:0:0:0:
64,192,2999,1,0,0:0:0:0:
64,192,3083,128,0,3166:0:0:0:0:
320,192,3166,128,0,3249:0:0:0:0:
448,192,3166,1,0,0:0:0:0:
448,192,3249,128,0,3333:0:0:0:0:
192,192,3333,1,0,0:0:0:0:
64,192,3333,128,0,3583:0:0:0:0:
448,192,3583,128,0,3833:0:0:0:0:
320,192,3583,1,0,0:0:0:0:
64,192,3833,1,0,0:0:0:0:
320,192,3833,128,0,3999:0:0:0:0:
192,192,3999,1,0,0:0:0:0:
448,192,3999,1,0,0:0:0:0:
64,192,3999,128,0,4083:0:0:0:0:
320,192,4083,128,0,4166:0:0:0:0:
192,192,4166,128,0,4249:0:0:0:0:
448,192,4249,128,0,4333:0:0:0:0:
64,192,4333,128,0,4416:0:0:0:0:
320,192,4333,1,0,0:0:0:0:
192,192,4416,128,0,4499:0:0:0:0:
320,192,4499,128,0,4583:0:0:0:0:
64,192,4499,1,0,0:0:0:0:
448,192,4583,128,0,4666:0:0:0:0:
192,192,4666,128,0,4749:0:0:0:0:
64,192,4749,128,0,4833:0:0:0:0:
448,192,4833,128,0,4916:0:0:0:0:
320,192,4916,128,0,4999:0:0:0:0:
64,192,4999,1,0,0:0:0:0:
192,192,4999,128,0,5249:0:0:0:0:
320,192,5249,128,0,5499:0:0:0:0:
448,192,5249,1,0,0:0:0:0:
64,192,5333,1,0,0:0:0:0:
192,192,5333,1,0,0:0:0:0:
64,192,5499,128,0,5666:0:0:0:0:
448,192,5499,1,0,0:0:0:0:
320,192,5666,1,0,0:0:0:0:
448,192,5666,128,0,5833:0:0:0:0:
192,192,5666,1,0,0:0:0:0:
64,192,5749,128,0,5833:0:0:0:0:
192,192,5833,128,0,5916:0:0:0:0:
320,192,5833,1,0,0:0:0:0:
320,192,5916,128,0,5999:0:0:0:0:
448,192,5916,1,0,0:0:0:0:
64,192,5999,128,0,6083:0:0:0:0:
192,192,5999,1,0,0:0:0:0:
448,192,6083,128,0,6166:0:0:0:0:
320,192,6166,128,0,6249:0:0:0:0:
64,192,6166,1,0,0:0:0:0:
192,192,6249,128,0,6333:0:0:0:0:
64,192,6333,128,0,6416:0:0:0:0:
448,192,6333,1,0,0:0:0:0:
320,192,6416,128,0,6499:0:0:0:0:
192,192,6499,128,0,6583:0:0:0:0:
448,192,6499,1,0,0:0:0:0:
448,192,6583,128,0,6666:0:0:0:0:
64,192,6583,1,0,0:0:0:0:
320,192,6666,128,0,6916:0:0:0:0:
192,192,6666,1,0,0:0:0:0:
64,192,6749,1,0,0:0:0:0:
448,192,6833,1,0,0:0:0:0:
192,192,6916,128,0,7166:0:0:0:0:
64,192,6916,1,0,0:0:0:0:
448,192,6999,1,0,0:0:0:0:
320,192,7083,1,0,0:0:0:0:
448,192,7166,128,0,7333:0:0:0:0:
64,192,7166,1,0,0:0:0:0:
192,192,7249,1,0,0:0:0:0:
64,192,7333,1,0,0:0:0:0:
320,192,7333,1,0,0:0:0:0:
192,192,7416,1,0,0:0:0:0:
448,192,7499,1,0,0:0:0:0:
64,192,7499,1,0,0:0:0:0:
320,192,7583,1,0,0:0:0:0:
192,192,7666,1,0,0:0:0:0:
448,192,7749,1,0,0:0:0:0:
64,192,7833,1,0,0:0:0:0:
192,192,7833,1,0,0:0:0:0:
320,192,7916,1,0,0:0:0:0:
192,192,7999,1,0,0:0:0:0:
448,192,8083,1,0,0:0:0:0:
64,192,8166,1,0,0:0:0:0:
320,192,8166,1,0,0:0:0:0:
192,192,8249,1,0,0:0:0:0:
64,192,8333,1,0,0:0:0:0:
448,192,8333,1,0,0:0:0:0:
320,192,8333,1,0,0:0:0:0:
320,192,8499,1,0,0:0:0:0:
64,192,8583,1,0,0:0:0:0:
448,192,8583,1,0,0:0:0:0:
192,192,8583,1,0,0:0:0:0:
192,192,8749,1,0,0:0:0:0:
448,192,8833,1,0,0:0:0:0:
64,192,8833,1,0,0:0:0:0:
320,192,8833,1,0,0:0:0:0:
192,192,8916,1,0,0:0:0:0:
448,192,8999,1,0,0:0:0:0:
64,192,8999,1,0,0:0:0:0:
320,192,9083,1,0,0:0:0:0:
192,192,9166,1,0,0:0:0:0:
448,192,9166,1,0,0:0:0:0:
320,192,9249,1,0,0:0:0:0:
64,192,9333,1,0,0:0:0:0:
448,192,9416,1,0,0:0:0:0:
192,192,9499,1,0,0:0:0:0:
64,192,9499,1,0,0:0:0:0:
320,192,9583,1,0,0:0:0:0:
192,192,9666,1,0,0:0:0:0:
64,192,9749,1,0,0:0:0:0:
320,192,9833,1,0,0:0:0:0:
448,192,9833,1,0,0:0:0:0:
192,192,9916,1,0,0:0:0:0:
192,192,9999,1,0,0:0:0:0:
64,192,9999,1,0,0:0:0:0:
448,192,9999,1,0,0:0:0:0:
320,192,10166,1,0,0:0:0:0:
320,192,10249,1,0,0:0:0:0:
448,192,10249,1,0,0:0:0:0:
64,192,10249,1,0,0:0:0:0:
64,192,10416,1,0,0:0:0:0:
192,192,10499,1,0,0:0:0:0:
320,192,10499,1,0,0:0:0:0:
448,192,10583,1,0,0:0:0:0:
64,192,10666,1,0,0:0:0:0:
192,192,10666,1,0,0:0:0:0:
320,192,10666,1,0,0:0:0:0:
448,192,10749,1,0,0:0:0:0:
64,192,10833,1,0,0:0:0:0:
192,192,10833,1,0,0:0:0:0:
320,192,10916,1,0,0:0:0:0:
448,192,10999,1,0,0:0:0:0:
64,192,11083,1,0,0:0:0:0:
192,192,11166,1,0,0:0:0:0:
448,192,11166,1,0,0:0:0:0:
320,192,11249,1,0,0:0:0:0:
64,192,11333,1,0,0:0:0:0:
320,192,11416,1,0,0:0:0:0:
192,192,11499,1,0,0:0:0:0:
448,192,11499,1,0,0:0:0:0:
320,192,11583,1,0,0:0:0:0:
64,192,11666,1,0,0:0:0:0:
448,192,11666,1,0,0:0:0:0:
192,192,11666,1,0,0:0:0:0:
192,192,11833,1,0,0:0:0:0:
64,192,11916,1,0,0:0:0:0:
320,192,11916,1,0,0:0:0:0:
448,192,11916,1,0,0:0:0:0:
192,192,12083,1,0,0:0:0:0:
64,192,12166,1,0,0:0:0:0:
320,192,12166,1,0,0:0:0:0:
448,192,12166,1,0,0:0:0:0:
192,192,12249,1,0,0:0:0:0:
64,192,12333,1,0,0:0:0:0:
320,192,12333,1,0,0:0:0:0:
448,192,12333,1,0,0:0:0:0:
192,192,12416,1,0,0:0:0:0:
64,192,12499,1,0,0:0:0:0:
448,192,12499,1,0,0:0:0:0:
320,192,12583,1,0,0:0:0:0:
192,192,12666,1,0,0:0:0:0:
448,192,12749,1,0,0:0:0:0:
320,192,12833,1,0,0:0:0:0:
64,192,12833,1,0,0:0:0:0:
448,192,12916,1,0,0:0:0:0:
192,192,12999,1,0,0:0:0:0:
320,192,13083,1,0,0:0:0:0:
64,192,13166,1,0,0:0:0:0:
448,192,13166,1,0,0:0:0:0:
192,192,13249,1,0,0:0:0:0:
320,192,13333,1,0,0:0:0:0:
64,192,13333,1,0,0:0:0:0:
192,192,13416,1,0,0:0:0:0:
320,192,13499,1,0,0:0:0:0:
192,192,13583,1,0,0:0:0:0:
448,192,13583,1,0,0:0:0:0:
320,192,13666,1,0,0:0:0:0:
192,192,13749,1,0,0:0:0:0:
64,192,13833,1,0,0:0:0:0:
320,192,13833,1,0,0:0:0:0:
192,192,13916,1,0,0:0:0:0:
320,192,13999,1,0,0:0:0:0:
64,192,13999,1,0,0:0:0:0:
448,192,13999,128,0,14333:0:0:0:0:
192,192,14333,128,0,14666:0:0:0:0:
64,192,14666,128,0,14999:0:0:0:0:
320,192,14999,128,0,15333:0:0:0:0:
192,192,15333,128,0,15666:0:0:0:0:
448,192,15666,128,0,15999:0:0:0:0:
64,192,15999,128,0,16333:0:0:0:0:
320,192,16333,128,0,16666:0:0:0:0:
192,192,16499,1,0,0:0:0:0:
64,192,16499,1,0,0:0:0:0:
64,192,16666,1,0,0:0:0:0:
192,192,16666,1,0,0:0:0:0:
448,192,16666,128,0,16999:0:0:0:0:
192,192,16833,128,0,16999:0:0:0:0:
64,192,16999,128,0,17333:0:0:0:0:
320,192,17166,128,0,17333:0:0:0:0:
192,192,17333,128,0,17666:0:0:0:0:
320,192,17499,128,0,17666:0:0:0:0:
448,192,17666,128,0,17999:0:0:0:0:
64,192,17833,128,0,17999:0:0:0:0:
192,192,17999,128,0,18333:0:0:0:0:
320,192,18166,128,0,18333:0:0:0:0:
448,192,18333,128,0,18666:0:0:0:0:
320,192,18499,128,0,18666:0:0:0:0:
64,192,18666,1,0,0:0:0:0:
192,192,18666,1,0,0:0:0:0:
320,192,18749,1,0,0:0:0:0:
448,192,18749,1,0,0:0:0:0:
192,192,18833,1,0,0:0:0:0:
64,192,18833,1,0,0:0:0:0:
320,192,18916,1,0,0:0:0:0:
448,192,18916,1,0,0:0:0:0:
192,192,18999,1,0,0:0:0:0:
64,192,18999,1,0,0:0:0:0:
320,192,19083,1,0,0:0:0:0:
448,192,19083,1,0,0:0:0:0:
192,192,19166,1,0,0:0:0:0:
64,192,19166,1,0,0:0:0:0:
320,192,19249,1,0,0:0:0:0:
448,192,19249,1,0,0:0:0:0:
64,192,19333,1,0,0:0:0:0:
192,192,19333,1,0,0:0:0:0:
448,192,19333,1,0,0:0:0:0:
320,192,19416,1,0,0:0:0:0:
64,192,19499,1,0,0:0:0:0:
448,192,19499,1,0,0:0:0:0:
192,192,19583,1,0,0:0:0:0:
448,192,19666,1,0,0:0:0:0:
320,192,19749,1,0,0:0:0:0:
64,192,19833,1,0,0:0:0:0:
448,192,19833,1,0,0:0:0:0:
192,192,19916,1,0,0:0:0:0:
448,192,19999,1,0,0:0:0:0:
192,192,20083,1,0,0:0:0:0:
64,192,20166,1,0,0:0:0:0:
320,192,20166,1,0,0:0:0:0:
192,192,20249,1,0,0:0:0:0:
448,192,20333,1,0,0:0:0:0:
64,192,20416,1,0,0:0:0:0:
192,192,20499,1,0,0:0:0:0:
448,192,20499,1,0,0:0:0:0:
320,192,20583,1,0,0:0:0:0:
192,192,20666,1,0,0:0:0:0:
448,192,20749,1,0,0:0:0:0:
64,192,20833,1,0,0:0:0:0:
320,192,20833,1,0,0:0:0:0:
192,192,20916,1,0,0:0:0:0:
64,192,20999,1,0,0:0:0:0:
448,192,21083,1,0,0:0:0:0:
320,192,21166,1,0,0:0:0:0:
192,192,21166,1,0,0:0:0:0:
448,192,21249,1,0,0:0:0:0:
64,192,21333,1,0,0:0:0:0:
192,192,21416,1,0,0:0:0:0:
320,192,21499,1,0,0:0:0:0:
64,192,21499,1,0,0:0:0:0:
192,192,21583,1,0,0:0:0:0:
320,192,21666,1,0,0:0:0:0:
64,192,21749,1,0,0:0:0:0:
192,192,21833,1,0,0:0:0:0:
448,192,21833,1,0,0:0:0:0:
320,192,21916,1,0,0:0:0:0:
192,192,21999,1,0,0:0:0:0:
64,192,21999,1,0,0:0:0:0:
448,192,21999,1,0,0:0:0:0:
320,192,22083,1,0,0:0:0:0:
64,192,22166,1,0,0:0:0:0:
448,192,22166,1,0,0:0:0:0:
192,192,22249,1,0,0:0:0:0:
448,192,22333,1,0,0:0:0:0:
320,192,22416,1,0,0:0:0:0:
64,192,22499,1,0,0:0:0:0:
192,192,22499,1,0,0:0:0:0:
448,192,22583,1,0,0:0:0:0:
320,192,22666,1,0,0:0:0:0:
64,192,22749,1,0,0:0:0:0:
192,192,22833,1,0,0:0:0:0:
448,192,22833,1,0,0:0:0:0:
320,192,22916,1,0,0:0:0:0:
64,192,22999,1,0,0:0:0:0:
192,192,23083,1,0,0:0:0:0:
64,192,23166,1,0,0:0:0:0:
448,192,23166,1,0,0:0:0:0:
192,192,23249,1,0,0:0:0:0:
320,192,23333,1,0,0:0:0:0:
192,192,23416,1,0,0:0:0:0:
64,192,23499,1,0,0:0:0:0:
320,192,23499,1,0,0:0:0:0:
448,192,23583,1,0,0:0:0:0:
192,192,23666,1,0,0:0:0:0:
320,192,23749,1,0,0:0:0:0:
448,192,23833,1,0,0:0:0:0:
64,192,23833,1,0,0:0:0:0:
320,192,23916,1,0,0:0:0:0:
192,192,23999,1,0,0:0:0:0:
64,192,23999,1,0,0:0:0:0:
448,192,23999,1,0,0:0:0:0:
320,192,24083,1,0,0:0:0:0:
448,192,24166,1,0,0:0:0:0:
192,192,24166,1,0,0:0:0:0:
64,192,24249,1,0,0:0:0:0:
320,192,24333,1,0,0:0:0:0:
448,192,24333,1,0,0:0:0:0:
192,192,24333,1,0,0:0:0:0:
64,192,24416,1,0,0:0:0:0:
320,192,24499,1,0,0:0:0:0:
448,192,24499,1,0,0:0:0:0:
64,192,24583,1,0,0:0:0:0:
192,192,24583,1,0,0:0:0:0:
448,192,24666,1,0,0:0:0:0:
64,192,24666,1,0,0:0:0:0:
320,192,24666,128,0,24999:0:0:0:0:
192,192,24749,1,0,0:0:0:0:
448,192,24833,1,0,0:0:0:0:
64,192,24916,1,0,0:0:0:0:
64,192,24999,128,0,25333:0:0:0:0:
192,192,24999,1,0,0:0:0:0:
320,192,25083,1,0,0:0:0:0:
448,192,25166,1,0,0:0:0:0:
320,192,25249,1,0,0:0:0:0:
192,192,25333,128,0,25666:0:0:0:0:
448,192,25333,1,0,0:0:0:0:
64,192,25416,1,0,0:0:0:0:
320,192,25499,1,0,0:0:0:0:
448,192,25583,1,0,0:0:0:0:
448,192,25666,128,0,25999:0:0:0:0:
64,192,25666,1,0,0:0:0:0:
320,192,25749,1,0,0:0:0:0:
192,192,25833,1,0,0:0:0:0:
64,192,25916,1,0,0:0:0:0:
320,192,25999,128,0,26333:0:0:0:0:
192,192,25999,1,0,0:0:0:0:
448,192,26083,1,0,0:0:0:0:
64,192,26166,1,0,0:0:0:0:
192,192,26249,1,0,0:0:0:0:
64,192,26333,128,0,26499:0:0:0:0:
448,192,26333,1,0,0:0:0:0:
320,192,26416,1,0,0:0:0:0:
192,192,26499,128,0,26666:0:0:0:0:
448,192,26499,1,0,0:0:0:0:
64,192,26583,1,0,0:0:0:0:
448,192,26666,128,0,26999:0:0:0:0:
320,192,26666,1,0,0:0:0:0:
64,192,26749,1,0,0:0:0:0:
192,192,26833,1,0,0:0:0:0:
320,192,26916,1,0,0:0:0:0:
64,192,26999,128,0,27333:0:0:0:0:
192,192,26999,1,0,0:0:0:0:
448,192,27083,1,0,0:0:0:0:
320,192,27166,1,0,0:0:0:0:
192,192,27249,1,0,0:0:0:0:
320,192,27333,128,0,27499:0:0:0:0:
448,192,27333,1,0,0:0:0:0:
64,192,27416,1,0,0:0:0:0:
192,192,27499,128,0,27666:0:0:0:0:
448,192,27499,1,0,0:0:0:0:
64,192,27583,1,0,0:0:0:0:
64,192,27666,128,0,27833:0:0:0:0:
320,192,27666,1,0,0:0:0:0:
192,192,27749,1,0,0:0:0:0:
448,192,27833,128,0,27999:0:0:0:0:
320,192,27833,1,0,0:0:0:0:
192,192,27916,1,0,0:0:0:0:
320,192,27999,128,0,28166:0:0:0:0:
64,192,27999,1,0,0:0:0:0:
192,192,28083,1,0,0:0:0:0:
64,192,28166,128,0,28249:0:0:0:0:
448,192,28166,1,0,0:0:0:0:
192,192,28249,128,0,28333:0:0:0:0:
448,192,28249,1,0,0:0:0:0:
320,192,28333,128,0,28499:0:0:0:0:
64,192,28333,1,0,0:0:0:0:
448,192,28416,1,0,0:0:0:0:
192,192,28499,128,0,28666:0:0:0:0:
64,192,28499,1,0,0:0:0:0:
320,192,28583,1,0,0:0:0:0:
64,192,28666,128,0,28833:0:0:0:0:
448,192,28666,1,0,0:0:0:0:
320,192,28749,1,0,0:0:0:0:
448,192,28833,128,0,28999:0:0:0:0:
192,192,28833,1,0,0:0:0:0:
64,192,28916,1,0,0:0:0:0:
320,192,28999,128,0,29166:0:0:0:0:
192,192,28999,1,0,0:0:0:0:
448,192,29083,1,0,0:0:0:0:
192,192,29166,128,0,29333:0:0:0:0:
64,192,29166,1,0,0:0:0:0:
320,192,29249,1,0,0:0:0:0:
448,192,29333,128,0,29999:0:0:0:0:
64,192,29333,1,0,0:0:0:0:
192,192,29416,1,0,0:0:0:0:
320,192,29499,1,0,0:0:0:0:
64,192,29583,1,0,0:0:0:0:
192,192,29666,1,0,0:0:0:0:
320,192,29749,1,0,0:0:0:0:
192,192,29833,1,0,0:0:0:0:
64,192,29916,1,0,0:0:0:0:
64,192,29999,128,0,30333:0:0:0:0:
192,192,29999,1,0,0:0:0:0:
320,192,29999,1,0,0:0:0:0:
448,192,30083,1,0,0:0:0:0:
320,192,30166,1,0,0:0:0:0:
192,192,30249,1,0,0:0:0:0:
320,192,30333,128,0,30666:0:0:0:0:
448,192,30333,1,0,0:0:0:0:
192,192,30416,1,0,0:0:0:0:
64,192,30499,1,0,0:0:0:0:
192,192,30583,1,0,0:0:0:0:
64,192,30666,128,0,30999:0:0:0:0:
448,192,30666,1,0,0:0:0:0:
192,192,30749,1,0,0:0:0:0:
320,192,30833,1,0,0:0:0:0:
448,192,30916,1,0,0:0:0:0:
320,192,30999,128,0,31333:0:0:0:0:
192,192,30999,1,0,0:0:0:0:
448,192,31083,1,0,0:0:0:0:
64,192,31166,1,0,0:0:0:0:
192,192,31249,1,0,0:0:0:0:
64,192,31333,128,0,31666:0:0:0:0:
448,192,31333,1,0,0:0:0:0:
192,192,31416,1,0,0:0:0:0:
320,192,31499,1,0,0:0:0:0:
192,192,31583,1,0,0:0:0:0:
448,192,31666,128,0,31833:0:0:0:0:
320,192,31666,1,0,0:0:0:0:
64,192,31749,1,0,0:0:0:0:
320,192,31833,128,0,31999:0:0:0:0:
192,192,31833,1,0,0:0:0:0:
448,192,31916,1,0,0:0:0:0:
64,192,31999,128,0,32333:0:0:0:0:
192,192,31999,1,0,0:0:0:0:
448,192,32083,1,0,0:0:0:0:
192,192,32166,1,0,0:0:0:0:
448,192,32249,1,0,0:0:0:0:
192,192,32333,128,0,32666:0:0:0:0:
320,192,32333,1,0,0:0:0:0:
64,192,32416,1,0,0:0:0:0:
448,192,32499,1,0,0:0:0:0:
320,192,32583,1,0,0:0:0:0:
448,192,32666,128,0,32833:0:0:0:0:
64,192,32666,1,0,0:0:0:0:
192,192,32749,1,0,0:0:0:0:
64,192,32833,128,0,32999:0:0:0:0:
320,192,32833,1,0,0:0:0:0:
448,192,32916,1,0,0:0:0:0:
320,192,32999,128,0,33166:0:0:0:0:
192,192,32999,1,0,0:0:0:0:
64,192,33083,1,0,0:0:0:0:
192,192,33166,128,0,33333:0:0:0:0:
448,192,33166,1,0,0:0:0:0:
64,192,33249,1,0,0:0:0:0:
448,192,33333,128,0,33499:0:0:0:0:
320,192,33333,1,0,0:0:0:0:
64,192,33416,1,0,0:0:0:0:
320,192,33499,128,0,33583:0:0:0:0:
192,192,33499,1,0,0:0:0:0:
64,192,33583,128,0,33666:0:0:0:0:
448,192,33583,1,0,0:0:0:0:
192,192,33666,128,0,33833:0:0:0:0:
320,192,33666,1,0,0:0:0:0:
448,192,33749,1,0,0:0:0:0:
64,192,33833,128,0,33999:0:0:0:0:
320,192,33833,1,0,0:0:0:0:
192,192,33916,1,0,0:0:0:0:
448,192,33999,128,0,35333:0:0:0:0:
320,192,33999,1,0,0:0:0:0:
192,192,34083,1,0,0:0:0:0:
64,192,34166,1,0,0:0:0:0:
192,192,34249,1,0,0:0:0:0:
320,192,34333,1,0,0:0:0:0:
192,192,34416,1,0,0:0:0:0:
64,192,34499,1,0,0:0:0:0:
320,192,34583,1,0,0:0:0:0:
64,192,34666,1,0,0:0:0:0:
192,192,34666,1,0,0:0:0:0:
320,192,34749,1,0,0:0:0:0:
192,192,34833,1,0,0:0:0:0:
64,192,34916,1,0,0:0:0:0:
320,192,34916,1,0,0:0:0:0:
192,192,34999,1,0,0:0:0:0:
64,192,35083,1,0,0:0:0:0:
320,192,35166,1,0,0:0:0:0:
192,192,35166,1,0,0:0:0:0:
64,192,35249,1,0,0:0:0:0:
320,192,35333,1,0,0:0:0:0:
192,192,35333,1,0,0:0:0:0:
64,192,35416,1,0,0:0:0:0:
448,192,35499,1,0,0:0:0:0:
192,192,35499,1,0,0:0:0:0:
320,192,35583,1,0,0:0:0:0:
192,192,35666,1,0,0:0:0:0:
320,192,35749,1,0,0:0:0:0:
448,192,35833,1,0,0:0:0:0:
64,192,35833,1,0,0:0:0:0:
192,192,35916,1,0,0:0:0:0:
64,192,35999,1,0,0:0:0:0:
320,192,36083,1,0,0:0:0:0:
64,192,36166,1,0,0:0:0:0:
192,192,36166,1,0,0:0:0:0:
320,192,36249,1,0,0:0:0:0:
192,192,36333,1,0,0:0:0:0:
320,192,36416,1,0,0:0:0:0:
64,192,36499,1,0,0:0:0:0:
192,192,36499,1,0,0:0:0:0:
448,192,36583,1,0,0:0:0:0:
320,192,36666,1,0,0:0:0:0:
192,192,36749,1,0,0:0:0:0:
64,192,36833,1,0,0:0:0:0:
320,192,36833,1,0,0:0:0:0:
192,192,36916,1,0,0:0:0:0:
448,192,36999,1,0,0:0:0:0:
64,192,37083,1,0,0:0:0:0:
192,192,37166,1,0,0:0:0:0:
448,192,37166,1,0,0:0:0:0:
320,192,37249,1,0,0:0:0:0:
448,192,37333,1,0,0:0:0:0:
192,192,37416,1,0,0:0:0:0:
64,192,37499,1,0,0:0:0:0:
320,192,37499,1,0,0:0:0:0:
192,192,37583,1,0,0:0:0:0:
64,192,37666,1,0,0:0:0:0:
320,192,37749,1,0,0:0:0:0:
192,192,37833,1,0,0:0:0:0:
64,192,37833,1,0,0:0:0:0:
320,192,37916,1,0,0:0:0:0:
192,192,37999,1,0,0:0:0:0:
64,192,38083,1,0,0:0:0:0:
320,192,38166,1,0,0:0:0:0:
448,192,38166,1,0,0:0:0:0:
192,192,38249,1,0,0:0:0:0:
320,192,38333,1,0,0:0:0:0:
192,192,38416,1,0,0:0:0:0:
320,192,38499,1,0,0:0:0:0:
448,192,38499,1,0,0:0:0:0:
64,192,38583,1,0,0:0:0:0:
192,192,38666,1,0,0:0:0:0:
320,192,38749,1,0,0:0:0:0:
64,192,38833,1,0,0:0:0:0:
192,192,38833,1,0,0:0:0:0:
448,192,38916,1,0,0:0:0:0:
320,192,38999,1,0,0:0:0:0:
64,192,39083,1,0,0:0:0:0:
192,192,39166,1,0,0:0:0:0:
448,192,39166,1,0,0:0:0:0:
320,192,39249,1,0,0:0:0:0:
64,192,39333,1,0,0:0:0:0:
192,192,39416,1,0,0:0:0:0:
320,192,39499,1,0,0:0:0:0:
448,192,39499,1,0,0:0:0:0:
192,192,39583,1,0,0:0:0:0:
448,192,39666,1,0,0:0:0:0:
320,192,39749,1,0,0:0:0:0:
192,192,39833,1,0,0:0:0:0:
64,192,39833,1,0,0:0:0:0:
320,192,39916,1,0,0:0:0:0:
192,192,39999,1,0,0:0:0:0:
448,192,39999,128,0,40666:0:0:0:0:
320,192,40166,1,0,0:0:0:0:
64,192,40166,1,0,0:0:0:0:
192,192,40249,1,0,0:0:0:0:
64,192,40333,1,0,0:0:0:0:
192,192,40416,1,0,0:0:0:0:
64,192,40499,1,0,0:0:0:0:
192,192,40583,1,0,0:0:0:0:
320,192,40666,1,0,0:0:0:0:
64,192,40666,1,0,0:0:0:0:
192,192,40749,1,0,0:0:0:0:
448,192,40833,1,0,0:0:0:0:
64,192,40833,1,0,0:0:0:0:
320,192,40916,1,0,0:0:0:0:
448,192,40999,1,0,0:0:0:0:
192,192,41083,1,0,0:0:0:0:
64,192,41166,1,0,0:0:0:0:
320,192,41166,1,0,0:0:0:0:
448,192,41249,1,0,0:0:0:0:
192,192,41333,1,0,0:0:0:0:
320,192,41416,1,0,0:0:0:0:
64,192,41499,1,0,0:0:0:0:
192,192,41499,1,0,0:0:0:0:
320,192,41583,1,0,0:0:0:0:
448,192,41666,1,0,0:0:0:0:
192,192,41749,1,0,0:0:0:0:
64,192,41833,1,0,0:0:0:0:
320,192,41833,1,0,0:0:0:0:
192,192,41916,1,0,0:0:0:0:
64,192,41999,1,0,0:0:0:0:
320,192,42083,1,0,0:0:0:0:
192,192,42166,1,0,0:0:0:0:
448,192,42166,1,0,0:0:0:0:
320,192,42249,1,0,0:0:0:0:
192,192,42333,1,0,0:0:0:0:
64,192,42416,1,0,0:0:0:0:
320,192,42499,1,0,0:0:0:0:
448,192,42499,1,0,0:0:0:0:
192,192,42583,1,0,0:0:0:0:
320,192,42666,1,0,0:0:0:0:
448,192,42749,1,0,0:0:0:0:
64,192,42833,1,0,0:0:0:0:
192,192,42833,1,0,0:0:0:0:
448,192,42916,1,0,0:0:0:0:
320,192,42999,1,0,0:0:0:0:
192,192,43083,1,0,0:0:0:0:
64,192,43166,1,0,0:0:0:0:
448,192,43166,1,0,0:0:0:0:
320,192,43249,1,0,0:0:0:0:
192,192,43333,1,0,0:0:0:0:
448,192,43333,1,0,0:0:0:0:
64,192,43333,1,0,0:0:0:0:
320,192,43416,1,0,0:0:0:0:
448,192,43499,1,0,0:0:0:0:
64,192,43499,1,0,0:0:0:0:
192,192,43583,1,0,0:0:0:0:
320,192,43666,1,0,0:0:0:0:
192,192,43749,1,0,0:0:0:0:
448,192,43833,1,0,0:0:0:0:
320,192,43833,1,0,0:0:0:0:
64,192,43916,1,0,0:0:0:0:
192,192,43999,1,0,0:0:0:0:
448,192,44083,1,0,0:0:0:0:
320,192,44166,1,0,0:0:0:0:
64,192,44166,1,0,0:0:0:0:
192,192,44249,1,0,0:0:0:0:
448,192,44333,1,0,0:0:0:0:
320,192,44416,1,0,0:0:0:0:
192,192,44499,1,0,0:0:0:0:
64,192,44499,1,0,0:0:0:0:
320,192,44583,1,0,0:0:0:0:
448,192,44666,1,0,0:0:0:0:
64,192,44749,1,0,0:0:0:0:
192,192,44833,1,0,0:0:0:0:
320,192,44833,1,0,0:0:0:0:
448,192,44916,1,0,0:0:0:0:
64,192,44999,1,0,0:0:0:0:
192,192,45083,1,0,0:0:0:0:
320,192,45166,1,0,0:0:0:0:
448,192,45166,1,0,0:0:0:0:
192,192,45249,1,0,0:0:0:0:
64,192,45333,1,0,0:0:0:0:
448,192,45333,1,0,0:0:0:0:
320,192,45416,1,0,0:0:0:0:
192,192,45416,1,0,0:0:0:0:
64,192,45499,1,0,0:0:0:0:
448,192,45499,1,0,0:0:0:0:
192,192,45583,1,0,0:0:0:0:
320,192,45583,1,0,0:0:0:0:
64,192,45666,1,0,0:0:0:0:
448,192,45666,1,0,0:0:0:0:
192,192,45749,1,0,0:0:0:0:
320,192,45749,1,0,0:0:0:0:
64,192,45833,1,0,0:0:0:0:
448,192,45833,1,0,0:0:0:0:
192,192,45916,1,0,0:0:0:0:
320,192,45916,1,0,0:0:0:0:
448,192,45999,1,0,0:0:0:0:
64,192,45999,128,0,46083:0:0:0:0:
192,192,46083,128,0,46166:0:0:0:0:
320,192,46166,128,0,46249:0:0:0:0:
448,192,46249,128,0,46333:0:0:0:0:
192,192,46333,128,0,46416:0:0:0:0:
64,192,46333,1,0,0:0:0:0:
64,192,46416,128,0,46499:0:0:0:0:
320,192,46499,128,0,46583:0:0:0:0:
192,192,46583,128,0,46666:0:0:0:0:
448,192,46666,128,0,46749:0:0:0:0:
64,192,46666,1,0,0:0:0:0:
64,192,46749,128,0,46833:0:0:0:0:
320,192,46833,128,0,46916:0:0:0:0:
192,192,46916,128,0,46999:0:0:0:0:
448,192,46999,128,0,47083:0:0:0:0:
320,192,46999,1,0,0:0:0:0:
64,192,47083,128,0,47166:0:0:0:0:
192,192,47166,128,0,47249:0:0:0:0:
320,192,47249,128,0,47333:0:0:0:0:
64,192,47333,128,0,47416:0:0:0:0:
448,192,47333,1,0,0:0:0:0:
448,192,47416,128,0,47499:0:0:0:0:
192,192,47499,128,0,47583:0:0:0:0:
320,192,47583,128,0,47666:0:0:0:0:
448,192,47666,128,0,47749:0:0:0:0:
64,192,47666,1,0,0:0:0:0:
192,192,47749,128,0,47833:0:0:0:0:
64,192,47833,128,0,47916:0:0:0:0:
320,192,47916,128,0,47999:0:0:0:0:
192,192,47999,128,0,48083:0:0:0:0:
64,192,47999,1,0,0:0:0:0:
448,192,48083,128,0,48166:0:0:0:0:
320,192,48166,128,0,48249:0:0:0:0:
192,192,48249,128,0,48333:0:0:0:0:
64,192,48333,128,0,48416:0:0:0:0:
320,192,48333,1,0,0:0:0:0:
448,192,48416,128,0,48499:0:0:0:0:
192,192,48499,1,0,0:0:0:0:
64,192,48499,1,0,0:0:0:0:
320,192,48499,128,0,48583:0:0:0:0:
448,192,48583,128,0,48666:0:0:0:0:
192,192,48666,1,0,0:0:0:0:
64,192,48666,1,0,0:0:0:0:
320,192,48666,128,0,48749:0:0:0:0:
448,192,48749,128,0,48833:0:0:0:0:
64,192,48833,128,0,48916:0:0:0:0:
192,192,48916,128,0,48999:0:0:0:0:
320,192,48999,128,0,49083:0:0:0:0:
448,192,48999,1,0,0:0:0:0:
64,192,49083,128,0,49166:0:0:0:0:
192,192,49166,128,0,49249:0:0:0:0:
448,192,49249,128,0,49333:0:0:0:0:
320,192,49333,128,0,49416:0:0:0:0:
64,192,49333,1,0,0:0:0:0:
192,192,49416,128,0,49499:0:0:0:0:
448,192,49499,128,0,49583:0:0:0:0:
64,192,49583,128,0,49666:0:0:0:0:
192,192,49666,1,0,0:0:0:0:
320,192,49666,128,0,49749:0:0:0:0:
448,192,49749,128,0,49833:0:0:0:0:
192,192,49833,128,0,49916:0:0:0:0:
64,192,49916,128,0,49999:0:0:0:0:
320,192,49999,128,0,50083:0:0:0:0:
448,192,49999,1,0,0:0:0:0:
192,192,50083,128,0,50166:0:0:0:0:
64,192,50166,128,0,50249:0:0:0:0:
320,192,50249,128,0,50333:0:0:0:0:
448,192,50333,128,0,50416:0:0:0:0:
192,192,50416,128,0,50499:0:0:0:0:
320,192,50499,128,0,50583:0:0:0:0:
64,192,50499,1,0,0:0:0:0:
64,192,50583,128,0,50666:0:0:0:0:
192,192,50666,128,0,50749:0:0:0:0:
320,192,50666,1,0,0:0:0:0:
448,192,50749,128,0,50833:0:0:0:0:
320,192,50833,128,0,50916:0:0:0:0:
192,192,50916,128,0,50999:0:0:0:0:
64,192,50999,1,0,0:0:0:0:
448,192,50999,1,0,0:0:0:0:
192,192,51083,1,0,0:0:0:0:
320,192,51083,1,0,0:0:0:0:
64,192,51166,1,0,0:0:0:0:
448,192,51166,1,0,0:0:0:0:
192,192,51249,1,0,0:0:0:0:
64,192,51333,1,0,0:0:0:0:
448,192,51333,1,0,0:0:0:0:
320,192,51333,128,0,51416:0:0:0:0:
192,192,51416,128,0,51499:0:0:0:0:
64,192,51499,128,0,51583:0:0:0:0:
320,192,51666,128,0,51749:0:0:0:0:
448,192,51666,1,0,0:0:0:0:
192,192,51749,128,0,51833:0:0:0:0:
64,192,51833,128,0,51916:0:0:0:0:
448,192,51999,128,0,52083:0:0:0:0:
192,192,51999,1,0,0:0:0:0:
320,192,52083,128,0,52166:0:0:0:0:
192,192,52166,128,0,52249:0:0:0:0:
448,192,52166,1,0,0:0:0:0:
64,192,52333,128,0,52416:0:0:0:0:
320,192,52333,1,0,0:0:0:0:
448,192,52416,128,0,52499:0:0:0:0:
320,192,52499,128,0,52583:0:0:0:0:
192,192,52499,1,0,0:0:0:0:
448,192,52666,128,0,52749:0:0:0:0:
64,192,52749,128,0,52833:0:0:0:0:
192,192,52833,128,0,52916:0:0:0:0:
320,192,52833,1,0,0:0:0:0:
448,192,52999,128,0,53083:0:0:0:0:
64,192,52999,1,0,0:0:0:0:
320,192,53083,128,0,53166:0:0:0:0:
192,192,53166,128,0,53249:0:0:0:0:
448,192,53166,1,0,0:0:0:0:
64,192,53333,128,0,53833:0:0:0:0:
192,192,53499,1,0,0:0:0:0:
448,192,53666,1,0,0:0:0:0:
320,192,53666,1,0,0:0:0:0:
448,192,53833,128,0,53916:0:0:0:0:
192,192,53833,1,0,0:0:0:0:
320,192,53916,128,0,53999:0:0:0:0:
64,192,53916,1,0,0:0:0:0:
192,192,53999,128,0,54083:0:0:0:0:
448,192,53999,1,0,0:0:0:0:
64,192,54083,128,0,54166:0:0:0:0:
320,192,54166,128,0,54249:0:0:0:0:
192,192,54333,128,0,54416:0:0:0:0:
64,192,54333,1,0,0:0:0:0:
448,192,54416,128,0,54499:0:0:0:0:
64,192,54499,128,0,54583:0:0:0:0:
192,192,54666,1,0,0:0:0:0:
320,192,54666,128,0,54749:0:0:0:0:
448,192,54749,128,0,54833:0:0:0:0:
64,192,54833,128,0,54916:0:0:0:0:
192,192,54999,128,0,55083:0:0:0:0:
448,192,54999,1,0,0:0:0:0:
320,192,55083,128,0,55166:0:0:0:0:
64,192,55166,128,0,55249:0:0:0:0:
448,192,55333,128,0,55416:0:0:0:0:
192,192,55416,128,0,55499:0:0:0:0:
64,192,55499,1,0,0:0:0:0:
320,192,55499,128,0,55583:0:0:0:0:
448,192,55499,1,0,0:0:0:0:
64,192,55666,128,0,55749:0:0:0:0:
448,192,55666,1,0,0:0:0:0:
192,192,55749,128,0,55833:0:0:0:0:
320,192,55833,1,0,0:0:0:0:
448,192,55833,128,0,55916:0:0:0:0:
320,192,55999,128,0,56666:0:0:0:0:
64,192,55999,1,0,0:0:0:0:
192,192,56166,1,0,0:0:0:0:
64,192,56333,1,0,0:0:0:0:
448,192,56333,1,0,0:0:0:0:
64,192,56499,128,0,56583:0:0:0:0:
192,192,56499,1,0,0:0:0:0:
192,192,56583,128,0,56666:0:0:0:0:
448,192,56583,1,0,0:0:0:0:
448,192,56666,1,0,0:0:0:0:
64,192,56666,128,0,56749:0:0:0:0:
192,192,56749,128,0,56833:0:0:0:0:
320,192,56833,128,0,56916:0:0:0:0:
64,192,56999,128,0,57083:0:0:0:0:
448,192,56999,1,0,0:0:0:0:
192,192,57083,128,0,57166:0:0:0:0:
448,192,57166,128,0,57249:0:0:0:0:
192,192,57333,128,0,57416:0:0:0:0:
64,192,57333,1,0,0:0:0:0:
320,192,57416,128,0,57499:0:0:0:0:
64,192,57499,1,0,0:0:0:0:
448,192,57499,128,0,57583:0:0:0:0:
192,192,57666,128,0,57749:0:0:0:0:
320,192,57666,1,0,0:0:0:0:
64,192,57749,128,0,57833:0:0:0:0:
448,192,57833,1,0,0:0:0:0:
320,192,57833,128,0,57916:0:0:0:0:
192,192,57999,128,0,58083:0:0:0:0:
448,192,58083,128,0,58166:0:0:0:0:
320,192,58166,1,0,0:0:0:0:
64,192,58166,128,0,58249:0:0:0:0:
192,192,58249,1,0,0:0:0:0:
320,192,58333,128,0,58416:0:0:0:0:
448,192,58333,1,0,0:0:0:0:
448,192,58416,128,0,58499:0:0:0:0:
64,192,58499,1,0,0:0:0:0:
192,192,58499,128,0,58583:0:0:0:0:
64,192,58666,128,0,59166:0:0:0:0:
320,192,58666,1,0,0:0:0:0:
448,192,58833,1,0,0:0:0:0:
192,192,58999,1,0,0:0:0:0:
320,192,58999,1,0,0:0:0:0:
448,192,59166,128,0,59249:0:0:0:0:
320,192,59249,128,0,59333:0:0:0:0:
192,192,59333,128,0,59416:0:0:0:0:
64,192,59333,1,0,0:0:0:0:
64,192,59416,128,0,59499:0:0:0:0:
448,192,59499,1,0,0:0:0:0:
320,192,59499,128,0,59583:0:0:0:0:
192,192,59583,1,0,0:0:0:0:
448,192,59666,128,0,59749:0:0:0:0:
64,192,59666,1,0,0:0:0:0:
64,192,59749,128,0,59833:0:0:0:0:
320,192,59833,1,0,0:0:0:0:
192,192,59833,128,0,59916:0:0:0:0:
448,192,59916,1,0,0:0:0:0:
320,192,59999,128,0,60083:0:0:0:0:
64,192,59999,1,0,0:0:0:0:
64,192,60083,128,0,60166:0:0:0:0:
448,192,60166,1,0,0:0:0:0:
192,192,60166,128,0,60249:0:0:0:0:
320,192,60249,1,0,0:0:0:0:
448,192,60333,128,0,60416:0:0:0:0:
64,192,60333,1,0,0:0:0:0:
192,192,60416,128,0,60499:0:0:0:0:
64,192,60499,1,0,0:0:0:0:
320,192,60499,128,0,60583:0:0:0:0:
448,192,60583,1,0,0:0:0:0:
448,192,60666,128,0,60749:0:0:0:0:
192,192,60666,1,0,0:0:0:0:
64,192,60749,1,0,0:0:0:0:
192,192,60749,128,0,60833:0:0:0:0:
320,192,60833,1,0,0:0:0:0:
64,192,60833,128,0,60916:0:0:0:0:
448,192,60916,1,0,0:0:0:0:
448,192,60999,128,0,61083:0:0:0:0:
192,192,60999,1,0,0:0:0:0:
320,192,61083,128,0,61166:0:0:0:0:
64,192,61166,1,0,0:0:0:0:
192,192,61166,128,0,61249:0:0:0:0:
448,192,61249,1,0,0:0:0:0:
64,192,61333,1,0,0:0:0:0:
320,192,61333,1,0,0:0:0:0:
192,192,61583,1,0,0:0:0:0:
448,192,61583,1,0,0:0:0:0:
64,192,61583,1,0,0:0:0:0:
320,192,61833,1,0,0:0:0:0:
64,192,61833,1,0,0:0:0:0:
448,192,61833,1,0,0:0:0:0:
64,192,61999,1,0,0:0:0:0:
192,192,61999,1,0,0:0:0:0:
320,192,61999,1,0,0:0:0:0:
448,192,61999,128,0,62333:0:0:0:0:
192,192,62333,128,0,62666:0:0:0:0:
64,192,62333,1,0,0:0:0:0:
64,192,62666,128,0,62999:0:0:0:0:
320,192,62666,1,0,0:0:0:0:
320,192,62999,128,0,63333:0:0:0:0:
448,192,62999,1,0,0:0:0:0:
192,192,63333,128,0,63666:0:0:0:0:
64,192,63333,1,0,0:0:0:0:
448,192,63666,128,0,63999:0:0:0:0:
320,192,63666,1,0,0:0:0:0:
64,192,63999,128,0,64333:0:0:0:0:
192,192,63999,1,0,0:0:0:0:
320,192,64333,128,0,64666:0:0:0:0:
448,192,64333,1,0,0:0:0:0:
448,192,64666,128,0,64999:0:0:0:0:
64,192,64666,1,0,0:0:0:0:
192,192,64833,128,0,64999:0:0:0:0:
64,192,64999,128,0,65333:0:0:0:0:
320,192,64999,1,0,0:0:0:0:
320,192,65166,128,0,65333:0:0:0:0:
192,192,65333,128,0,65666:0:0:0:0:
448,192,65333,1,0,0:0:0:0:
320,192,65499,128,0,65666:0:0:0:0:
448,192,65666,128,0,65999:0:0:0:0:
64,192,65666,1,0,0:0:0:0:
64,192,65833,128,0,65999:0:0:0:0:
192,192,65999,128,0,66333:0:0:0:0:
320,192,65999,1,0,0:0:0:0:
320,192,66166,128,0,66333:0:0:0:0:
448,192,66333,128,0,66666:0:0:0:0:
64,192,66333,1,0,0:0:0:0:
320,192,66499,128,0,66666:0:0:0:0:
192,192,66666,128,0,66999:0:0:0:0:
64,192,66666,1,0,0:0:0:0:
64,192,66833,128,0,66999:0:0:0:0:
320,192,66999,1,0,0:0:0:0:
448,192,66999,1,0,0:0:0:0:
64,192,67083,1,0,0:0:0:0:
192,192,67083,1,0,0:0:0:0:
320,192,67166,1,0,0:0:0:0:
448,192,67166,1,0,0:0:0:0:
192,192,67249,1,0,0:0:0:0:
64,192,67249,1,0,0:0:0:0:
320,192,67333,1,0,0:0:0:0:
448,192,67333,1,0,0:0:0:0:
64,192,67333,1,0,0:0:0:0:
64,192,67499,1,0,0:0:0:0:
192,192,67499,1,0,0:0:0:0:
192,192,67583,1,0,0:0:0:0:
320,192,67583,1,0,0:0:0:0:
448,192,67666,1,0,0:0:0:0:
320,192,67749,1,0,0:0:0:0:
192,192,67833,1,0,0:0:0:0:
64,192,67916,1,0,0:0:0:0:
448,192,67999,1,0,0:0:0:0:
64,192,68083,1,0,0:0:0:0:
448,192,68166,1,0,0:0:0:0:
64,192,68249,1,0,0:0:0:0:
320,192,68333,1,0,0:0:0:0:
448,192,68333,1,0,0:0:0:0:
64,192,68416,1,0,0:0:0:0:
192,192,68416,1,0,0:0:0:0:
320,192,68499,1,0,0:0:0:0:
448,192,68499,1,0,0:0:0:0:
64,192,68583,1,0,0:0:0:0:
192,192,68583,1,0,0:0:0:0:
320,192,68666,1,0,0:0:0:0:
448,192,68666,1,0,0:0:0:0:
192,192,68833,1,0,0:0:0:0:
320,192,68916,1,0,0:0:0:0:
448,192,68999,1,0,0:0:0:0:
64,192,68999,1,0,0:0:0:0:
192,192,68999,1,0,0:0:0:0:
320,192,69166,1,0,0:0:0:0:
320,192,69333,1,0,0:0:0:0:
192,192,69333,1,0,0:0:0:0:
448,192,69333,1,0,0:0:0:0:
64,192,69499,1,0,0:0:0:0:
192,192,69583,1,0,0:0:0:0:
192,192,69833,1,0,0:0:0:0:
320,192,69999,1,0,0:0:0:0:
64,192,69999,1,0,0:0:0:0:
448,192,69999,1,0,0:0:0:0:
192,192,70166,1,0,0:0:0:0:
64,192,70166,1,0,0:0:0:0:
192,192,70249,1,0,0:0:0:0:
64,192,70249,1,0,0:0:0:0:
320,192,70333,1,0,0:0:0:0:
448,192,70333,1,0,0:0:0:0:
448,192,70499,1,0,0:0:0:0:
320,192,70499,1,0,0:0:0:0:
320,192,70583,1,0,0:0:0:0:
448,192,70583,1,0,0:0:0:0:
320,192,70666,1,0,0:0:0:0:
448,192,70666,1,0,0:0:0:0:
64,192,70833,1,0,0:0:0:0:
192,192,70916,1,0,0:0:0:0:
64,192,70999,1,0,0:0:0:0:
448,192,70999,1,0,0:0:0:0:
320,192,70999,1,0,0:0:0:0:
320,192,71166,1,0,0:0:0:0:
192,192,71249,1,0,0:0:0:0:
320,192,71333,1,0,0:0:0:0:
192,192,71416,1,0,0:0:0:0:
320,192,71499,1,0,0:0:0:0:
448,192,71499,1,0,0:0:0:0:
192,192,71583,1,0,0:0:0:0:
64,192,71583,1,0,0:0:0:0:
320,192,71666,1,0,0:0:0:0:
192,192,71749,1,0,0:0:0:0:
320,192,71833,1,0,0:0:0:0:
448,192,71833,1,0,0:0:0:0:
64,192,71916,1,0,0:0:0:0:
192,192,71916,1,0,0:0:0:0:
320,192,71999,1,0,0:0:0:0:
448,192,71999,1,0,0:0:0:0:
192,192,72083,1,0,0:0:0:0:
320,192,72166,1,0,0:0:0:0:
448,192,72166,1,0,0:0:0:0:
64,192,72249,1,0,0:0:0:0:
192,192,72249,1,0,0:0:0:0:
320,192,72333,1,0,0:0:0:0:
448,192,72333,1,0,0:0:0:0:
192,192,72416,1,0,0:0:0:0:
64,192,72416,1,0,0:0:0:0:
320,192,72499,1,0,0:0:0:0:
448,192,72499,1,0,0:0:0:0:
192,192,72583,1,0,0:0:0:0:
64,192,72583,1,0,0:0:0:0:
64,192,72666,1,0,0:0:0:0:
320,192,72666,1,0,0:0:0:0:
448,192,72666,1,0,0:0:0:0:
192,192,72749,1,0,0:0:0:0:
320,192,72833,1,0,0:0:0:0:
64,192,72833,1,0,0:0:0:0:
448,192,72916,1,0,0:0:0:0:
192,192,72999,1,0,0:0:0:0:
320,192,73083,1,0,0:0:0:0:
64,192,73166,1,0,0:0:0:0:
192,192,73166,1,0,0:0:0:0:
448,192,73249,1,0,0:0:0:0:
320,192,73333,1,0,0:0:0:0:
192,192,73416,1,0,0:0:0:0:
64,192,73499,1,0,0:0:0:0:
448,192,73499,1,0,0:0:0:0:
320,192,73583,1,0,0:0:0:0:
192,192,73666,1,0,0:0:0:0:
320,192,73749,1,0,0:0:0:0:
448,192,73833,1,0,0:0:0:0:
64,192,73833,1,0,0:0:0:0:
192,192,73916,1,0,0:0:0:0:
64,192,73999,1,0,0:0:0:0:
320,192,74083,1,0,0:0:0:0:
192,192,74166,1,0,0:0:0:0:
448,192,74166,1,0,0:0:0:0:
320,192,74249,1,0,0:0:0:0:
64,192,74333,1,0,0:0:0:0:
192,192,74416,1,0,0:0:0:0:
448,192,74499,1,0,0:0:0:0:
64,192,74499,1,0,0:0:0:0:
320,192,74583,1,0,0:0:0:0:
192,192,74666,1,0,0:0:0:0:
320,192,74749,1,0,0:0:0:0:
448,192,74833,1,0,0:0:0:0:
192,192,74833,1,0,0:0:0:0:
320,192,74916,1,0,0:0:0:0:
64,192,74999,1,0,0:0:0:0:
192,192,75083,1,0,0:0:0:0:
448,192,75166,1,0,0:0:0:0:
64,192,75166,1,0,0:0:0:0:
320,192,75249,1,0,0:0:0:0:
192,192,75333,1,0,0:0:0:0:
64,192,75333,1,0,0:0:0:0:
448,192,75333,1,0,0:0:0:0:
320,192,75416,1,0,0:0:0:0:
192,192,75499,1,0,0:0:0:0:
448,192,75499,1,0,0:0:0:0:
320,192,75583,1,0,0:0:0:0:
64,192,75666,1,0,0:0:0:0:
192,192,75749,1,0,0:0:0:0:
320,192,75833,1,0,0:0:0:0:
64,192,75833,1,0,0:0:0:0:
192,192,75916,1,0,0:0:0:0:
448,192,75999,1,0,0:0:0:0:
64,192,76083,1,0,0:0:0:0:
320,192,76166,1,0,0:0:0:0:
192,192,76166,1,0,0:0:0:0:
448,192,76249,1,0,0:0:0:0:
64,192,76333,1,0,0:0:0:0:
320,192,76416,1,0,0:0:0:0:
192,192,76499,1,0,0:0:0:0:
448,192,76499,1,0,0:0:0:0:
320,192,76583,1,0,0:0:0:0:
64,192,76666,1,0,0:0:0:0:
192,192,76749,1,0,0:0:0:0:
448,192,76833,1,0,0:0:0:0:
320,192,76833,1,0,0:0:0:0:
64,192,76916,1,0,0:0:0:0:
192,192,76999,1,0,0:0:0:0:
320,192,77083,1,0,0:0:0:0:
448,192,77166,1,0,0:0:0:0:
64,192,77166,1,0,0:0:0:0:
192,192,77249,1,0,0:0:0:0:
320,192,77333,1,0,0:0:0:0:
448,192,77416,1,0,0:0:0:0:
64,192,77499,1,0,0:0:0:0:
320,192,77499,1,0,0:0:0:0:
192,192,77583,1,0,0:0:0:0:
448,192,77666,1,0,0:0:0:0:
320,192,77749,1,0,0:0:0:0:
192,192,77833,1,0,0:0:0:0:
64,192,77833,1,0,0:0:0:0:
320,192,77916,1,0,0:0:0:0:
192,192,77999,1,0,0:0:0:0:
64,192,78083,1,0,0:0:0:0:
320,192,78166,1,0,0:0:0:0:
448,192,78166,1,0,0:0:0:0:
192,192,78249,1,0,0:0:0:0:
320,192,78333,1,0,0:0:0:0:
192,192,78416,1,0,0:0:0:0:
64,192,78499,1,0,0:0:0:0:
448,192,78499,1,0,0:0:0:0:
320,192,78583,1,0,0:0:0:0:
448,192,78666,1,0,0:0:0:0:
320,192,78749,1,0,0:0:0:0:
448,192,78833,1,0,0:0:0:0:
64,192,78833,1,0,0:0:0:0:
320,192,78916,1,0,0:0:0:0:
192,192,78999,1,0,0:0:0:0:
64,192,79083,1,0,0:0:0:0:
192,192,79166,1,0,0:0:0:0:
448,192,79166,1,0,0:0:0:0:
64,192,79249,1,0,0:0:0:0:
192,192,79333,1,0,0:0:0:0:
64,192,79416,1,0,0:0:0:0:
448,192,79499,1,0,0:0:0:0:
320,192,79499,1,0,0:0:0:0:
192,192,79583,1,0,0:0:0:0:
320,192,79666,1,0,0:0:0:0:
64,192,79749,1,0,0:0:0:0:
192,192,79833,1,0,0:0:0:0:
448,192,79833,1,0,0:0:0:0:
320,192,79916,1,0,0:0:0:0:
64,192,79999,1,0,0:0:0:0:
192,192,80083,1,0,0:0:0:0:
320,192,80166,1,0,0:0:0:0:
448,192,80166,1,0,0:0:0:0:
64,192,80249,1,0,0:0:0:0:
192,192,80333,1,0,0:0:0:0:
448,192,80416,1,0,0:0:0:0:
64,192,80499,1,0,0:0:0:0:
320,192,80499,1,0,0:0:0:0:
192,192,80583,1,0,0:0:0:0:
64,192,80666,1,0,0:0:0:0:
320,192,80666,1,0,0:0:0:0:
448,192,80666,1,0,0:0:0:0:
192,192,80749,1,0,0:0:0:0:
448,192,80833,1,0,0:0:0:0:
320,192,80833,1,0,0:0:0:0:
64,192,80916,1,0,0:0:0:0:
192,192,80999,1,0,0:0:0:0:
320,192,81083,1,0,0:0:0:0:
64,192,81166,1,0,0:0:0:0:
192,192,81166,1,0,0:0:0:0:
320,192,81249,1,0,0:0:0:0:
192,192,81333,1,0,0:0:0:0:
64,192,81416,1,0,0:0:0:0:
320,192,81499,1,0,0:0:0:0:
448,192,81499,1,0,0:0:0:0:
192,192,81583,1,0,0:0:0:0:
64,192,81666,1,0,0:0:0:0:
448,192,81749,1,0,0:0:0:0:
320,192,81833,1,0,0:0:0:0:
192,192,81833,1,0,0:0:0:0:
64,192,81916,1,0,0:0:0:0:
320,192,81999,1,0,0:0:0:0:
192,192,82083,1,0,0:0:0:0:
64,192,82166,1,0,0:0:0:0:
448,192,82166,1,0,0:0:0:0:
320,192,82249,1,0,0:0:0:0:
192,192,82333,1,0,0:0:0:0:
448,192,82416,1,0,0:0:0:0:
64,192,82499,1,0,0:0:0:0:
320,192,82499,1,0,0:0:0:0:
192,192,82583,1,0,0:0:0:0:
320,192,82666,1,0,0:0:0:0:
448,192,82666,1,0,0:0:0:0:
192,192,82749,1,0,0:0:0:0:
64,192,82749,1,0,0:0:0:0:
448,192,82833,1,0,0:0:0:0:
320,192,82833,1,0,0:0:0:0:
192,192,82916,1,0,0:0:0:0:
64,192,82916,1,0,0:0:0:0:
320,192,82999,1,0,0:0:0:0:
448,192,82999,1,0,0:0:0:0:
192,192,83083,1,0,0:0:0:0:
64,192,83083,1,0,0:0:0:0:
448,192,83166,1,0,0:0:0:0:
320,192,83166,1,0,0:0:0:0:
192,192,83249,1,0,0:0:0:0:
64,192,83249,1,0,0:0:0:0:
320,192,83333,1,0,0:0:0:0:
64,192,83333,1,0,0:0:0:0:
448,192,83333,128,0,84166:0:0:0:0:
192,192,83416,1,0,0:0:0:0:
320,192,83499,1,0,0:0:0:0:
64,192,83583,1,0,0:0:0:0:
192,192,83666,1,0,0:0:0:0:
320,192,83666,1,0,0:0:0:0:
64,192,83749,1,0,0:0:0:0:
320,192,83833,1,0,0:0:0:0:
192,192,83916,1,0,0:0:0:0:
64,192,83999,1,0,0:0:0:0:
192,192,84083,1,0,0:0:0:0:
320,192,84166,128,0,84499:0:0:0:0:
64,192,84166,1,0,0:0:0:0:
192,192,84249,1,0,0:0:0:0:
448,192,84333,1,0,0:0:0:0:
64,192,84333,1,0,0:0:0:0:
192,192,84416,1,0,0:0:0:0:
64,192,84499,128,0,84666:0:0:0:0:
448,192,84499,1,0,0:0:0:0:
320,192,84583,1,0,0:0:0:0:
192,192,84666,128,0,85333:0:0:0:0:
448,192,84666,1,0,0:0:0:0:
320,192,84749,1,0,0:0:0:0:
64,192,84833,1,0,0:0:0:0:
448,192,84916,1,0,0:0:0:0:
320,192,84999,1,0,0:0:0:0:
64,192,84999,1,0,0:0:0:0:
448,192,85083,1,0,0:0:0:0:
64,192,85166,1,0,0:0:0:0:
320,192,85249,1,0,0:0:0:0:
448,192,85333,128,0,85583:0:0:0:0:
64,192,85333,1,0,0:0:0:0:
192,192,85416,1,0,0:0:0:0:
64,192,85499,1,0,0:0:0:0:
320,192,85583,128,0,85833:0:0:0:0:
192,192,85583,1,0,0:0:0:0:
64,192,85666,1,0,0:0:0:0:
448,192,85666,1,0,0:0:0:0:
192,192,85749,1,0,0:0:0:0:
192,192,85833,128,0,85999:0:0:0:0:
448,192,85833,1,0,0:0:0:0:
320,192,85916,1,0,0:0:0:0:
64,192,85999,128,0,86666:0:0:0:0:
448,192,85999,1,0,0:0:0:0:
192,192,86083,1,0,0:0:0:0:
320,192,86166,1,0,0:0:0:0:
448,192,86249,1,0,0:0:0:0:
192,192,86333,1,0,0:0:0:0:
320,192,86333,1,0,0:0:0:0:
448,192,86416,1,0,0:0:0:0:
192,192,86499,1,0,0:0:0:0:
320,192,86583,1,0,0:0:0:0:
320,192,86666,128,0,86833:0:0:0:0:
448,192,86666,1,0,0:0:0:0:
64,192,86749,1,0,0:0:0:0:
192,192,86833,128,0,86999:0:0:0:0:
448,192,86833,1,0,0:0:0:0:
64,192,86916,1,0,0:0:0:0:
64,192,86999,128,0,87166:0:0:0:0:
448,192,86999,1,0,0:0:0:0:
320,192,87083,1,0,0:0:0:0:
448,192,87166,128,0,87666:0:0:0:0:
192,192,87166,1,0,0:0:0:0:
320,192,87249,1,0,0:0:0:0:
64,192,87333,1,0,0:0:0:0:
192,192,87416,1,0,0:0:0:0:
320,192,87499,1,0,0:0:0:0:
64,192,87583,1,0,0:0:0:0:
320,192,87666,128,0,87999:0:0:0:0:
192,192,87666,1,0,0:0:0:0:
64,192,87749,1,0,0:0:0:0:
192,192,87833,1,0,0:0:0:0:
448,192,87916,1,0,0:0:0:0:
64,192,87999,128,0,88166:0:0:0:0:
192,192,87999,1,0,0:0:0:0:
320,192,88083,1,0,0:0:0:0:
192,192,88166,128,0,88666:0:0:0:0:
448,192,88166,1,0,0:0:0:0:
320,192,88249,1,0,0:0:0:0:
448,192,88333,1,0,0:0:0:0:
64,192,88333,1,0,0:0:0:0:
320,192,88416,1,0,0:0:0:0:
64,192,88499,1,0,0:0:0:0:
320,192,88583,1,0,0:0:0:0:
448,192,88666,128,0,88749:0:0:0:0:
64,192,88666,1,0,0:0:0:0:
320,192,88749,128,0,88833:0:0:0:0:
192,192,88833,128,0,88916:0:0:0:0:
64,192,88916,128,0,88999:0:0:0:0:
320,192,88999,128,0,89083:0:0:0:0:
448,192,88999,1,0,0:0:0:0:
192,192,89083,128,0,89166:0:0:0:0:
448,192,89166,128,0,89249:0:0:0:0:
320,192,89249,128,0,89333:0:0:0:0:
64,192,89333,128,0,89416:0:0:0:0:
192,192,89416,128,0,89499:0:0:0:0:
320,192,89499,128,0,89583:0:0:0:0:
448,192,89583,128,0,89666:0:0:0:0:
64,192,89666,128,0,89749:0:0:0:0:
320,192,89666,1,0,0:0:0:0:
192,192,89749,128,0,89833:0:0:0:0:
320,192,89833,128,0,89916:0:0:0:0:
448,192,89916,128,0,89999:0:0:0:0:
192,192,89999,128,0,90083:0:0:0:0:
64,192,90083,128,0,90166:0:0:0:0:
320,192,90166,128,0,90249:0:0:0:0:
192,192,90249,128,0,90333:0:0:0:0:
64,192,90333,128,0,90416:0:0:0:0:
448,192,90333,1,0,0:0:0:0:
448,192,90416,128,0,90499:0:0:0:0:
320,192,90499,128,0,90583:0:0:0:0:
448,192,90583,128,0,90666:0:0:0:0:
192,192,90666,128,0,90749:0:0:0:0:
64,192,90749,128,0,90833:0:0:0:0:
320,192,90833,128,0,90916:0:0:0:0:
192,192,90916,128,0,90999:0:0:0:0:
448,192,90999,128,0,91083:0:0:0:0:
64,192,90999,1,0,0:0:0:0:
320,192,91083,128,0,91166:0:0:0:0:
64,192,91166,128,0,91249:0:0:0:0:
192,192,91249,128,0,91333:0:0:0:0:
320,192,91333,128,0,91416:0:0:0:0:
64,192,91416,128,0,91499:0:0:0:0:
192,192,91499,128,0,91583:0:0:0:0:
448,192,91583,128,0,91666:0:0:0:0:
320,192,91666,128,0,91749:0:0:0:0:
64,192,91666,1,0,0:0:0:0:
192,192,91749,128,0,91833:0:0:0:0:
448,192,91833,128,0,91916:0:0:0:0:
64,192,91916,128,0,91999:0:0:0:0:
192,192,91999,128,0,92083:0:0:0:0:
320,192,92083,128,0,92166:0:0:0:0:
64,192,92166,128,0,92249:0:0:0:0:
192,192,92249,128,0,92333:0:0:0:0:
448,192,92333,128,0,92416:0:0:0:0:
320,192,92333,1,0,0:0:0:0:
64,192,92416,128,0,92666:0:0:0:0:
192,192,92416,1,0,0:0:0:0:
320,192,92499,1,0,0:0:0:0:
448,192,92583,1,0,0:0:0:0:
192,192,92666,128,0,93333:0:0:0:0:
320,192,92666,1,0,0:0:0:0:
64,192,92749,1,0,0:0:0:0:
448,192,92833,1,0,0:0:0:0:
320,192,92916,1,0,0:0:0:0:
64,192,92999,1,0,0:0:0:0:
320,192,93083,1,0,0:0:0:0:
64,192,93166,1,0,0:0:0:0:
448,192,93249,1,0,0:0:0:0:
320,192,93333,128,0,93999:0:0:0:0:
64,192,93333,1,0,0:0:0:0:
64,192,93583,1,0,0:0:0:0:
192,192,93583,1,0,0:0:0:0:
64,192,93833,1,0,0:0:0:0:
448,192,93833,1,0,0:0:0:0:
192,192,93916,1,0,0:0:0:0:
448,192,93999,1,0,0:0:0:0:
64,192,93999,128,0,94666:0:0:0:0:
192,192,94083,1,0,0:0:0:0:
320,192,94166,1,0,0:0:0:0:
192,192,94249,1,0,0:0:0:0:
448,192,94333,1,0,0:0:0:0:
320,192,94416,1,0,0:0:0:0:
192,192,94499,1,0,0:0:0:0:
448,192,94583,1,0,0:0:0:0:
192,192,94666,128,0,94833:0:0:0:0:
320,192,94666,1,0,0:0:0:0:
448,192,94749,1,0,0:0:0:0:
320,192,94833,128,0,95166:0:0:0:0:
64,192,94833,1,0,0:0:0:0:
192,192,94916,1,0,0:0:0:0:
64,192,94999,1,0,0:0:0:0:
448,192,95083,1,0,0:0:0:0:
192,192,95166,128,0,95333:0:0:0:0:
64,192,95166,1,0,0:0:0:0:
320,192,95249,1,0,0:0:0:0:
448,192,95333,128,0,95999:0:0:0:0:
64,192,95333,1,0,0:0:0:0:
192,192,95416,1,0,0:0:0:0:
320,192,95499,1,0,0:0:0:0:
64,192,95583,1,0,0:0:0:0:
192,192,95666,1,0,0:0:0:0:
64,192,95749,1,0,0:0:0:0:
320,192,95833,1,0,0:0:0:0:
192,192,95916,1,0,0:0:0:0:
192,192,95999,128,0,96166:0:0:0:0:
64,192,95999,1,0,0:0:0:0:
448,192,96083,1,0,0:0:0:0:
320,192,96166,128,0,96499:0:0:0:0:
64,192,96166,1,0,0:0:0:0:
192,192,96249,1,0,0:0:0:0:
64,192,96333,1,0,0:0:0:0:
448,192,96416,1,0,0:0:0:0:
64,192,96499,128,0,96666:0:0:0:0:
192,192,96499,1,0,0:0:0:0:
320,192,96583,1,0,0:0:0:0:
448,192,96666,128,0,96999:0:0:0:0:
192,192,96666,1,0,0:0:0:0:
64,192,96749,1,0,0:0:0:0:
320,192,96833,1,0,0:0:0:0:
192,192,96916,1,0,0:0:0:0:
320,192,96999,128,0,97333:0:0:0:0:
64,192,96999,1,0,0:0:0:0:
192,192,97083,1,0,0:0:0:0:
448,192,97166,1,0,0:0:0:0:
192,192,97249,1,0,0:0:0:0:
64,192,97333,128,0,97499:0:0:0:0:
448,192,97333,1,0,0:0:0:0:
320,192,97416,1,0,0:0:0:0:
192,192,97499,128,0,97833:0:0:0:0:
448,192,97499,1,0,0:0:0:0:
320,192,97583,1,0,0:0:0:0:
64,192,97666,1,0,0:0:0:0:
320,192,97749,1,0,0:0:0:0:
448,192,97833,128,0,98333:0:0:0:0:
64,192,97833,1,0,0:0:0:0:
192,192,97916,1,0,0:0:0:0:
320,192,97999,1,0,0:0:0:0:
64,192,98083,1,0,0:0:0:0:
192,192,98166,1,0,0:0:0:0:
320,192,98249,1,0,0:0:0:0:
64,192,98333,128,0,98499:0:0:0:0:
192,192,98333,1,0,0:0:0:0:
320,192,98416,1,0,0:0:0:0:
192,192,98499,128,0,99333:0:0:0:0:
448,192,98499,1,0,0:0:0:0:
320,192,98583,1,0,0:0:0:0:
64,192,98666,1,0,0:0:0:0:
448,192,98749,1,0,0:0:0:0:
320,192,98833,1,0,0:0:0:0:
64,192,98916,1,0,0:0:0:0:
320,192,98999,1,0,0:0:0:0:
64,192,99083,1,0,0:0:0:0:
448,192,99166,1,0,0:0:0:0:
320,192,99249,1,0,0:0:0:0:
448,192,99333,128,0,99999:0:0:0:0:
64,192,99333,1,0,0:0:0:0:
192,192,99416,1,0,0:0:0:0:
320,192,99499,1,0,0:0:0:0:
64,192,99583,1,0,0:0:0:0:
192,192,99666,1,0,0:0:0:0:
64,192,99749,1,0,0:0:0:0:
320,192,99833,1,0,0:0:0:0:
192,192,99916,1,0,0:0:0:0:
64,192,99999,128,0,100249:0:0:0:0:
320,192,99999,1,0,0:0:0:0:
192,192,100083,1,0,0:0:0:0:
448,192,100166,1,0,0:0:0:0:
192,192,100249,128,0,100499:0:0:0:0:
320,192,100249,1,0,0:0:0:0:
448,192,100333,1,0,0:0:0:0:
64,192,100416,1,0,0:0:0:0:
448,192,100499,128,0,100666:0:0:0:0:
320,192,100499,1,0,0:0:0:0:
64,192,100583,1,0,0:0:0:0:
320,192,100666,128,0,100916:0:0:0:0:
192,192,100666,1,0,0:0:0:0:
64,192,100749,1,0,0:0:0:0:
448,192,100833,1,0,0:0:0:0:
64,192,100916,128,0,101166:0:0:0:0:
192,192,100916,1,0,0:0:0:0:
448,192,100999,1,0,0:0:0:0:
192,192,101083,1,0,0:0:0:0:
192,192,101166,128,0,101333:0:0:0:0:
320,192,101166,1,0,0:0:0:0:
64,192,101249,1,0,0:0:0:0:
448,192,101333,128,0,101999:0:0:0:0:
320,192,101333,1,0,0:0:0:0:
64,192,101416,1,0,0:0:0:0:
192,192,101499,1,0,0:0:0:0:
320,192,101583,1,0,0:0:0:0:
64,192,101666,1,0,0:0:0:0:
320,192,101749,1,0,0:0:0:0:
192,192,101833,1,0,0:0:0:0:
64,192,101916,1,0,0:0:0:0:
320,192,101999,128,0,102666:0:0:0:0:
192,192,101999,1,0,0:0:0:0:
448,192,102083,1,0,0:0:0:0:
64,192,102166,1,0,0:0:0:0:
192,192,102249,1,0,0:0:0:0:
448,192,102333,1,0,0:0:0:0:
64,192,102416,1,0,0:0:0:0:
192,192,102499,1,0,0:0:0:0:
448,192,102583,1,0,0:0:0:0:
64,192,102666,128,0,102999:0:0:0:0:
192,192,102666,1,0,0:0:0:0:
320,192,102749,1,0,0:0:0:0:
448,192,102833,1,0,0:0:0:0:
192,192,102916,1,0,0:0:0:0:
192,192,102999,128,0,103166:0:0:0:0:
448,192,102999,1,0,0:0:0:0:
320,192,103083,1,0,0:0:0:0:
320,192,103166,128,0,103333:0:0:0:0:
64,192,103166,1,0,0:0:0:0:
192,192,103249,1,0,0:0:0:0:
448,192,103333,128,0,103666:0:0:0:0:
64,192,103333,1,0,0:0:0:0:
192,192,103416,1,0,0:0:0:0:
320,192,103499,1,0,0:0:0:0:
64,192,103583,1,0,0:0:0:0:
192,192,103666,1,0,0:0:0:0:
320,192,103749,1,0,0:0:0:0:
64,192,103833,1,0,0:0:0:0:
192,192,103833,1,0,0:0:0:0:
320,192,103916,1,0,0:0:0:0:
448,192,103916,1,0,0:0:0:0:
64,192,103999,1,0,0:0:0:0:
192,192,103999,1,0,0:0:0:0:
320,192,104083,1,0,0:0:0:0:
448,192,104083,1,0,0:0:0:0:
192,192,104166,1,0,0:0:0:0:
64,192,104166,1,0,0:0:0:0:
320,192,104249,1,0,0:0:0:0:
448,192,104249,1,0,0:0:0:0:
192,192,104333,1,0,0:0:0:0:
64,192,104333,1,0,0:0:0:0:
320,192,104416,1,0,0:0:0:0:
448,192,104416,1,0,0:0:0:0:
192,192,104499,1,0,0:0:0:0:
64,192,104499,1,0,0:0:0:0:
320,192,104583,1,0,0:0:0:0:
448,192,104583,1,0,0:0:0:0:
64,192,104666,1,0,0:0:0:0:
448,192,104666,1,0,0:0:0:0:
192,192,104666,128,0,104999:0:0:0:0:
320,192,104749,1,0,0:0:0:0:
64,192,104833,1,0,0:0:0:0:
448,192,104916,1,0,0:0:0:0:
448,192,104999,128,0,105333:0:0:0:0:
320,192,104999,1,0,0:0:0:0:
192,192,105083,1,0,0:0:0:0:
64,192,105166,1,0,0:0:0:0:
192,192,105249,1,0,0:0:0:0:
320,192,105333,128,0,105666:0:0:0:0:
64,192,105333,1,0,0:0:0:0:
448,192,105416,1,0,0:0:0:0:
192,192,105499,1,0,0:0:0:0:
64,192,105583,1,0,0:0:0:0:
64,192,105666,128,0,105999:0:0:0:0:
448,192,105666,1,0,0:0:0:0:
192,192,105749,1,0,0:0:0:0:
320,192,105833,1,0,0:0:0:0:
448,192,105916,1,0,0:0:0:0:
192,192,105999,128,0,106333:0:0:0:0:
320,192,105999,1,0,0:0:0:0:
64,192,106083,1,0,0:0:0:0:
448,192,106166,1,0,0:0:0:0:
320,192,106249,1,0,0:0:0:0:
448,192,106333,128,0,106499:0:0:0:0:
64,192,106333,1,0,0:0:0:0:
192,192,106416,1,0,0:0:0:0:
320,192,106499,128,0,106666:0:0:0:0:
64,192,106499,1,0,0:0:0:0:
448,192,106583,1,0,0:0:0:0:
64,192,106666,128,0,106999:0:0:0:0:
192,192,106666,1,0,0:0:0:0:
448,192,106749,1,0,0:0:0:0:
320,192,106833,1,0,0:0:0:0:
192,192,106916,1,0,0:0:0:0:
448,192,106999,128,0,107333:0:0:0:0:
320,192,106999,1,0,0:0:0:0:
64,192,107083,1,0,0:0:0:0:
192,192,107166,1,0,0:0:0:0:
320,192,107249,1,0,0:0:0:0:
192,192,107333,128,0,107499:0:0:0:0:
64,192,107333,1,0,0:0:0:0:
448,192,107416,1,0,0:0:0:0:
320,192,107499,128,0,107666:0:0:0:0:
64,192,107499,1,0,0:0:0:0:
448,192,107583,1,0,0:0:0:0:
448,192,107666,128,0,107833:0:0:0:0:
192,192,107666,1,0,0:0:0:0:
320,192,107749,1,0,0:0:0:0:
64,192,107833,128,0,107999:0:0:0:0:
192,192,107833,1,0,0:0:0:0:
320,192,107916,1,0,0:0:0:0:
192,192,107999,128,0,108166:0:0:0:0:
448,192,107999,1,0,0:0:0:0:
320,192,108083,1,0,0:0:0:0:
448,192,108166,128,0,108249:0:0:0:0:
64,192,108166,1,0,0:0:0:0:
320,192,108249,128,0,108333:0:0:0:0:
64,192,108249,1,0,0:0:0:0:
192,192,108333,128,0,108499:0:0:0:0:
448,192,108333,1,0,0:0:0:0:
64,192,108416,1,0,0:0:0:0:
320,192,108499,128,0,108666:0:0:0:0:
448,192,108499,1,0,0:0:0:0:
192,192,108583,1,0,0:0:0:0:
448,192,108666,128,0,108833:0:0:0:0:
64,192,108666,1,0,0:0:0:0:
192,192,108749,1,0,0:0:0:0:
64,192,108833,128,0,108999:0:0:0:0:
320,192,108833,1,0,0:0:0:0:
448,192,108916,1,0,0:0:0:0:
192,192,108999,128,0,109166:0:0:0:0:
320,192,108999,1,0,0:0:0:0:
64,192,109083,1,0,0:0:0:0:
320,192,109166,128,0,109333:0:0:0:0:
448,192,109166,1,0,0:0:0:0:
192,192,109249,1,0,0:0:0:0:
64,192,109333,128,0,109999:0:0:0:0:
448,192,109333,1,0,0:0:0:0:
320,192,109416,1,0,0:0:0:0:
192,192,109499,1,0,0:0:0:0:
448,192,109583,1,0,0:0:0:0:
320,192,109666,1,0,0:0:0:0:
192,192,109749,1,0,0:0:0:0:
320,192,109833,1,0,0:0:0:0:
448,192,109916,1,0,0:0:0:0:
448,192,109999,128,0,110333:0:0:0:0:
320,192,109999,1,0,0:0:0:0:
192,192,109999,1,0,0:0:0:0:
64,192,110083,1,0,0:0:0:0:
192,192,110166,1,0,0:0:0:0:
320,192,110249,1,0,0:0:0:0:
192,192,110333,128,0,110666:0:0:0:0:
64,192,110333,1,0,0:0:0:0:
320,192,110416,1,0,0:0:0:0:
448,192,110499,1,0,0:0:0:0:
320,192,110583,1,0,0:0:0:0:
448,192,110666,128,0,110999:0:0:0:0:
64,192,110666,1,0,0:0:0:0:
320,192,110749,1,0,0:0:0:0:
192,192,110833,1,0,0:0:0:0:
64,192,110916,1,0,0:0:0:0:
192,192,110999,128,0,111333:0:0:0:0:
320,192,110999,1,0,0:0:0:0:
64,192,111083,1,0,0:0:0:0:
448,192,111166,1,0,0:0:0:0:
320,192,111249,1,0,0:0:0:0:
448,192,111333,128,0,111666:0:0:0:0:
64,192,111333,1,0,0:0:0:0:
320,192,111416,1,0,0:0:0:0:
192,192,111499,1,0,0:0:0:0:
320,192,111583,1,0,0:0:0:0:
64,192,111666,128,0,111833:0:0:0:0:
192,192,111666,1,0,0:0:0:0:
448,192,111749,1,0,0:0:0:0:
192,192,111833,128,0,111999:0:0:0:0:
320,192,111833,1,0,0:0:0:0:
64,192,111916,1,0,0:0:0:0:
448,192,111999,128,0,112333:0:0:0:0:
320,192,111999,1,0,0:0:0:0:
64,192,112083,1,0,0:0:0:0:
320,192,112166,1,0,0:0:0:0:
64,192,112249,1,0,0:0:0:0:
320,192,112333,128,0,112666:0:0:0:0:
192,192,112333,1,0,0:0:0:0:
448,192,112416,1,0,0:0:0:0:
64,192,112499,1,0,0:0:0:0:
192,192,112583,1,0,0:0:0:0:
64,192,112666,128,0,112833:0:0:0:0:
448,192,112666,1,0,0:0:0:0:
320,192,112749,1,0,0:0:0:0:
448,192,112833,128,0,112999:0:0:0:0:
192,192,112833,1,0,0:0:0:0:
64,192,112916,1,0,0:0:0:0:
192,192,112999,128,0,113166:0:0:0:0:
320,192,112999,1,0,0:0:0:0:
448,192,113083,1,0,0:0:0:0:
320,192,113166,128,0,113333:0:0:0:0:
64,192,113166,1,0,0:0:0:0:
448,192,113249,1,0,0:0:0:0:
64,192,113333,128,0,113499:0:0:0:0:
192,192,113333,1,0,0:0:0:0:
448,192,113416,1,0,0:0:0:0:
192,192,113499,128,0,113583:0:0:0:0:
320,192,113499,1,0,0:0:0:0:
448,192,113583,128,0,113666:0:0:0:0:
64,192,113583,1,0,0:0:0:0:
320,192,113666,128,0,113833:0:0:0:0:
192,192,113666,1,0,0:0:0:0:
64,192,113749,1,0,0:0:0:0:
448,192,113833,128,0,113999:0:0:0:0:
192,192,113833,1,0,0:0:0:0:
320,192,113916,1,0,0:0:0:0:
64,192,113999,128,0,115333:0:0:0:0:
192,192,113999,1,0,0:0:0:0:
320,192,114083,1,0,0:0:0:0:
448,192,114166,1,0,0:0:0:0:
320,192,114249,1,0,0:0:0:0:
192,192,114333,1,0,0:0:0:0:
320,192,114416,1,0,0:0:0:0:
448,192,114499,1,0,0:0:0:0:
192,192,114583,1,0,0:0:0:0:
448,192,114666,1,0,0:0:0:0:
320,192,114666,1,0,0:0:0:0:
192,192,114749,1,0,0:0:0:0:
320,192,114833,1,0,0:0:0:0:
448,192,114916,1,0,0:0:0:0:
192,192,114916,1,0,0:0:0:0:
320,192,114999,1,0,0:0:0:0:
448,192,115083,1,0,0:0:0:0:
192,192,115166,1,0,0:0:0:0:
320,192,115166,1,0,0:0:0:0:
448,192,115249,1,0,0:0:0:0:
192,192,115333,1,0,0:0:0:0:
320,192,115333,1,0,0:0:0:0:
448,192,115416,1,0,0:0:0:0:
64,192,115499,1,0,0:0:0:0:
192,192,115583,1,0,0:0:0:0:
64,192,115666,1,0,0:0:0:0:
320,192,115666,1,0,0:0:0:0:
192,192,115749,1,0,0:0:0:0:
320,192,115833,1,0,0:0:0:0:
192,192,115916,1,0,0:0:0:0:
64,192,115999,1,0,0:0:0:0:
448,192,115999,1,0,0:0:0:0:
320,192,116083,1,0,0:0:0:0:
448,192,116166,1,0,0:0:0:0:
192,192,116249,1,0,0:0:0:0:
448,192,116333,1,0,0:0:0:0:
320,192,116333,1,0,0:0:0:0:
192,192,116416,1,0,0:0:0:0:
320,192,116499,1,0,0:0:0:0:
192,192,116583,1,0,0:0:0:0:
448,192,116666,1,0,0:0:0:0:
320,192,116666,1,0,0:0:0:0:
64,192,116749,1,0,0:0:0:0:
192,192,116833,1,0,0:0:0:0:
320,192,116916,1,0,0:0:0:0:
448,192,116999,1,0,0:0:0:0:
192,192,116999,1,0,0:0:0:0:
320,192,117083,1,0,0:0:0:0:
64,192,117166,1,0,0:0:0:0:
448,192,117249,1,0,0:0:0:0:
320,192,117333,1,0,0:0:0:0:
64,192,117333,1,0,0:0:0:0:
192,192,117416,1,0,0:0:0:0:
64,192,117499,1,0,0:0:0:0:
320,192,117583,1,0,0:0:0:0:
448,192,117666,1,0,0:0:0:0:
192,192,117666,1,0,0:0:0:0:
320,192,117749,1,0,0:0:0:0:
448,192,117833,1,0,0:0:0:0:
192,192,117916,1,0,0:0:0:0:
320,192,117999,1,0,0:0:0:0:
448,192,117999,1,0,0:0:0:0:
64,192,117999,1,0,0:0:0:0:
192,192,118083,1,0,0:0:0:0:
320,192,118166,1,0,0:0:0:0:
448,192,118249,1,0,0:0:0:0:
192,192,118333,1,0,0:0:0:0:
64,192,118333,1,0,0:0:0:0:
320,192,118416,1,0,0:0:0:0:
192,192,118499,1,0,0:0:0:0:
320,192,118583,1,0,0:0:0:0:
192,192,118666,1,0,0:0:0:0:
64,192,118666,1,0,0:0:0:0:
448,192,118749,1,0,0:0:0:0:
320,192,118833,1,0,0:0:0:0:
192,192,118916,1,0,0:0:0:0:
448,192,118999,1,0,0:0:0:0:
320,192,118999,1,0,0:0:0:0:
64,192,119083,1,0,0:0:0:0:
192,192,119166,1,0,0:0:0:0:
448,192,119249,1,0,0:0:0:0:
320,192,119333,1,0,0:0:0:0:
64,192,119333,1,0,0:0:0:0:
192,192,119416,1,0,0:0:0:0:
448,192,119499,1,0,0:0:0:0:
64,192,119499,1,0,0:0:0:0:
320,192,119583,1,0,0:0:0:0:
192,192,119583,1,0,0:0:0:0:
64,192,119666,1,0,0:0:0:0:
448,192,119666,1,0,0:0:0:0:
320,192,119749,1,0,0:0:0:0:
64,192,119833,1,0,0:0:0:0:
448,192,119833,1,0,0:0:0:0:
192,192,119916,1,0,0:0:0:0:
320,192,119916,1,0,0:0:0:0:
448,192,119999,1,0,0:0:0:0:
64,192,119999,128,0,120666:0:0:0:0:
192,192,120083,1,0,0:0:0:0:
320,192,120166,1,0,0:0:0:0:
448,192,120166,1,0,0:0:0:0:
192,192,120249,1,0,0:0:0:0:
448,192,120333,1,0,0:0:0:0:
320,192,120416,1,0,0:0:0:0:
448,192,120499,1,0,0:0:0:0:
320,192,120583,1,0,0:0:0:0:
192,192,120666,1,0,0:0:0:0:
448,192,120666,1,0,0:0:0:0:
320,192,120749,1,0,0:0:0:0:
64,192,120833,1,0,0:0:0:0:
448,192,120833,1,0,0:0:0:0:
192,192,120916,1,0,0:0:0:0:
64,192,120999,1,0,0:0:0:0:
320,192,121083,1,0,0:0:0:0:
448,192,121166,1,0,0:0:0:0:
192,192,121166,1,0,0:0:0:0:
64,192,121249,1,0,0:0:0:0:
320,192,121333,1,0,0:0:0:0:
192,192,121416,1,0,0:0:0:0:
448,192,121499,1,0,0:0:0:0:
320,192,121499,1,0,0:0:0:0:
192,192,121583,1,0,0:0:0:0:
64,192,121666,1,0,0:0:0:0:
320,192,121749,1,0,0:0:0:0:
448,192,121833,1,0,0:0:0:0:
192,192,121833,1,0,0:0:0:0:
320,192,121916,1,0,0:0:0:0:
448,192,121999,1,0,0:0:0:0:
64,192,121999,1,0,0:0:0:0:
192,192,121999,1,0,0:0:0:0:
320,192,122083,1,0,0:0:0:0:
64,192,122166,1,0,0:0:0:0:
448,192,122166,1,0,0:0:0:0:
192,192,122249,1,0,0:0:0:0:
320,192,122333,1,0,0:0:0:0:
448,192,122416,1,0,0:0:0:0:
192,192,122499,1,0,0:0:0:0:
64,192,122499,1,0,0:0:0:0:
320,192,122583,1,0,0:0:0:0:
192,192,122666,1,0,0:0:0:0:
64,192,122749,1,0,0:0:0:0:
448,192,122833,1,0,0:0:0:0:
320,192,122833,1,0,0:0:0:0:
64,192,122916,1,0,0:0:0:0:
192,192,122999,1,0,0:0:0:0:
320,192,123083,1,0,0:0:0:0:
448,192,123166,1,0,0:0:0:0:
64,192,123166,1,0,0:0:0:0:
192,192,123249,1,0,0:0:0:0:
320,192,123333,1,0,0:0:0:0:
64,192,123333,1,0,0:0:0:0:
448,192,123333,1,0,0:0:0:0:
320,192,123333,1,0,0:0:0:0:
64,192,123333,1,0,0:0:0:0:
448,192,123333,1,0,0:0:0:0:
192,192,123416,1,0,0:0:0:0:
192,192,123416,1,0,0:0:0:0:
64,192,123499,1,0,0:0:0:0:
448,192,123499,1,0,0:0:0:0:
64,192,123499,1,0,0:0:0:0:
448,192,123499,1,0,0:0:0:0:
320,192,123583,1,0,0:0:0:0:
320,192,123583,1,0,0:0:0:0:
192,192,123666,1,0,0:0:0:0:
192,192,123666,1,0,0:0:0:0:
320,192,123749,1,0,0:0:0:0:
320,192,123749,1,0,0:0:0:0:
64,192,123833,1,0,0:0:0:0:
192,192,123833,1,0,0:0:0:0:
64,192,123833,1,0,0:0:0:0:
192,192,123833,1,0,0:0:0:0:
448,192,123916,1,0,0:0:0:0:
448,192,123916,1,0,0:0:0:0:
320,192,123999,1,0,0:0:0:0:
320,192,123999,1,0,0:0:0:0:
64,192,124083,1,0,0:0:0:0:
64,192,124083,1,0,0:0:0:0:
448,192,124166,1,0,0:0:0:0:
320,192,124166,1,0,0:0:0:0:
448,192,124166,1,0,0:0:0:0:
320,192,124166,1,0,0:0:0:0:
192,192,124249,1,0,0:0:0:0:
192,192,124249,1,0,0:0:0:0:
64,192,124249,1,0,0:0:0:0:
320,192,124333,1,0,0:0:0:0:
448,192,124333,1,0,0:0:0:0:
192,192,124416,1,0,0:0:0:0:
64,192,124416,1,0,0:0:0:0:
320,192,124499,1,0,0:0:0:0:
448,192,124499,1,0,0:0:0:0:
192,192,124583,1,0,0:0:0:0:
64,192,124583,1,0,0:0:0:0:
320,192,124666,128,0,127083:0:0:0:0:
448,192,124666,1,0,0:0:0:0:
64,192,127083,128,0,127166:0:0:0:0:
192,192,127166,1,0,0:0:0:0:
320,192,127249,1,0,0:0:0:0:
448,192,127249,1,0,0:0:0:0:
64,192,127333,1,0,0:0:0:0:
192,192,127333,1,0,0:0:0:0:
