osu file format v14

[General]
AudioFilename: audio.mp3
AudioLeadIn: 0
PreviewTime: -1
Countdown: 1
SampleSet: None
StackLeniency: 0.7
Mode: 0
LetterboxInBreaks: 0
WidescreenStoryboard: 0

[Editor]
DistanceSpacing: 0.1
BeatDivisor: 4
GridSize: 32
TimelineZoom: 2.4

[Metadata]
Title:MC BALD CUNT
TitleUnicode:MC BALD CUNT
Artist:Lemonosity (off his bonce)
ArtistUnicode:Lemonosity (off his bonce)
Creator:Coodywoo
Version:i have no mouth and i must scream
Source:
Tags:
BeatmapID:1938729
BeatmapSetID:928164

[Difficulty]
HPDrainRate:0
CircleSize:4
OverallDifficulty:6
ApproachRate:10
SliderMultiplier:3.1
SliderTickRate:1

[Events]
//Background and Video events
Video,0,"mc bald cunt.mp4"
0,0,"MC BALD CUNT.png",0,0
//Break Periods
//Storyboard Layer 0 (Background)
//Storyboard Layer 1 (Fail)
//Storyboard Layer 2 (Pass)
//Storyboard Layer 3 (Foreground)
//Storyboard Sound Samples

[TimingPoints]
6564,441.176470588235,4,1,0,10,1,0
10313,-66.6666666666667,4,1,0,10,0,0
13953,-33.3333333333333,4,1,0,10,0,0
16821,-500,4,1,0,10,0,0
19799,-33.3333333333333,4,1,0,10,0,0
20571,-25,4,1,0,10,0,0
22225,-33.3333333333333,4,1,0,10,0,0
24100,88.2352941176471,4,1,0,10,1,0
24188,441.176470588235,4,1,0,10,1,0
24408,-50,4,1,0,10,0,0
24629,-33.3333333333333,4,1,0,10,0,0
28599,220.588235294118,4,1,0,10,1,0
28599,-40,4,1,0,10,0,0
29260,441.176470588235,4,1,0,10,1,0
29260,-33.3333333333333,4,1,0,10,0,0
31907,-25,4,1,0,10,0,0
34554,-1000,4,1,0,10,0,0
36539,-33.3333333333333,4,1,0,10,0,0
41833,55.1470588235294,4,1,0,10,1,0
41833,-25,4,1,0,10,0,0

[HitObjects]
116,122,6563,6,0,L|84:348,1,155
404,122,7005,2,0,L|436:348,1,155
185,69,7446,2,0,B|257:6|337:82,1,155
185,315,7887,2,0,B|257:378|337:302,1,155
256,190,8328,5,0,0:0:0:0:
112,95,8549,1,0,0:0:0:0:
256,190,8769,5,0,0:0:0:0:
400,95,8990,1,0,0:0:0:0:
103,326,9211,5,0,0:0:0:0:
256,190,9431,1,0,0:0:0:0:
409,326,9652,5,0,0:0:0:0:
256,190,9872,1,0,0:0:0:0:
255,100,10093,5,0,0:0:0:0:
165,79,10313,2,0,P|276:6|336:135,1,232.500008869171
150,271,10755,1,0,0:0:0:0:
356,165,10865,1,0,0:0:0:0:
354,284,11086,1,0,0:0:0:0:
289,236,11306,2,0,L|103:73,1,232.500008869171
256,192,11858,12,0,12961,0:0:0:0:
68,234,13402,5,0,0:0:0:0:
361,36,13512,1,0,0:0:0:0:
406,333,13622,1,0,0:0:0:0:
261,177,13843,1,0,0:0:0:0:
184,244,13953,6,0,P|224:83|326:253,2,465.000017738343
410,61,14505,5,0,0:0:0:0:
265,70,14725,2,0,L|430:273,1,232.500008869171
239,268,15056,1,0,0:0:0:0:
85,277,15277,5,0,0:0:0:0:
244,50,15387,1,0,0:0:0:0:
349,59,15608,2,0,B|421:314|420:312,1,232.500008869171
349,59,15938,1,0,0:0:0:0:
163,59,16159,2,0,B|91:314|92:312,1,232.500008869171
99,282,16490,2,0,B|168:26|168:28,1,232.500008869171
116,55,16821,2,0,B|79:57|79:57,1,31
66,46,17152,5,0,0:0:0:0:
465,44,17372,1,0,0:0:0:0:
469,331,17593,5,0,0:0:0:0:
57,338,17813,1,0,0:0:0:0:
257,42,18034,1,0,0:0:0:0:
256,343,18144,1,0,0:0:0:0:
461,331,18365,1,0,0:0:0:0:
60,58,18916,5,0,0:0:0:0:
422,335,19137,1,0,0:0:0:0:
413,55,19358,1,0,0:0:0:0:
64,333,19578,1,0,0:0:0:0:
250,329,19799,2,0,L|255:87,1,232.500008869171
410,273,20130,2,0,P|210:27|176:355,1,697.500026607514
133,283,20571,2,0,L|544:-9,1,310
391,53,21122,5,0,0:0:0:0:
237,52,21233,1,0,0:0:0:0:
391,53,21343,1,0,0:0:0:0:
261,144,21453,1,0,0:0:0:0:
391,53,21563,1,0,0:0:0:0:
371,180,21674,1,0,0:0:0:0:
391,53,21784,2,0,B|136:267|136:267|37:243,1,310
338,302,22225,6,0,B|198:94,1,232.500008869171
149,43,22446,1,0,0:0:0:0:
295,93,22556,1,0,0:0:0:0:
144,158,22666,1,0,0:0:0:0:
245,17,22777,1,0,0:0:0:0:
251,186,22887,5,0,0:0:0:0:
149,43,22997,1,0,0:0:0:0:
295,93,23108,1,0,0:0:0:0:
144,158,23218,1,0,0:0:0:0:
245,17,23328,1,0,0:0:0:0:
249,249,23549,2,0,B|244:-25|244:-25|235:-28,1,232.500008869171
121,286,23990,5,0,0:0:0:0:
82,224,24100,2,0,B|88:163|88:163|119:120,8,58.1250022172929
32,135,24408,2,0,P|161:76|155:113,1,232.500008869171
480,135,24629,2,0,P|351:76|357:113,2,232.500008869171
423,86,25070,5,0,0:0:0:0:
250,297,25290,1,0,0:0:0:0:
89,86,25401,1,0,0:0:0:0:
256,192,25952,12,0,27496,0:0:0:0:
125,57,27717,6,0,B|52:304|52:304|148:118,2,465.000017738343
252,59,28379,1,0,0:0:0:0:
417,146,28599,2,0,P|290:318|420:151,1,697.500026607514
73,85,28929,1,0,0:0:0:0:
417,44,29260,1,0,0:0:0:0:
379,137,29480,6,0,B|90:125|134:126,3,232.500008869171
57,127,30142,1,0,0:0:0:0:
452,137,30362,1,0,0:0:0:0:
154,126,30583,1,0,0:0:0:0:
373,138,30693,1,0,0:0:0:0:
133,62,31024,5,0,0:3:0:0:
362,147,31135,1,0,0:3:0:0:
97,235,31245,1,0,0:3:0:0:
276,31,31355,1,0,0:3:0:0:
284,299,31465,1,0,0:3:0:0:
130,64,31576,1,0,0:3:0:0:
128,171,31907,2,0,B|61:142|-24:186|-35:264|70:376|130:342|145:310|145:310|149:355|201:425|277:387|311:323|304:255|252:217|252:217|294:176|294:176|384:112|384:112|408:124|408:124|437:53|437:53|451:-18|451:-18|373:-24|373:-24|291:-11|291:-11|306:18|306:18|213:88|129:173|129:173,1,1433.75
102,100,32789,2,0,B|443:111|443:111|206:100,1,310
197,30,33010,5,0,0:0:0:0:
59,304,33230,1,0,0:0:0:0:
69,49,33451,5,0,0:0:0:0:
422,132,33671,1,0,0:0:0:0:
415,207,33892,2,0,B|46:127|46:127|145:155,1,310
41,125,34223,1,0,0:0:0:0:
84,59,34554,6,0,B|94:58,1,9.6875
451,59,34774,5,0,0:0:0:0:
252,56,34995,1,0,0:0:0:0:
258,248,35215,1,0,0:0:0:0:
450,250,35436,1,0,0:0:0:0:
53,59,35657,5,0,0:0:0:0:
252,56,35878,1,0,0:0:0:0:
258,248,36098,1,0,0:0:0:0:
58,253,36319,1,0,0:0:0:0:
380,77,36539,6,0,L|146:260,3,232.500008869171
66,58,37201,1,0,0:0:0:0:
67,194,37421,2,0,P|275:170|260:89,2,232.500008869171
294,58,37752,1,0,0:0:0:0:
138,347,38083,5,0,0:0:0:0:
62,153,38193,1,0,0:0:0:0:
257,15,38304,1,0,0:0:0:0:
450,150,38414,1,0,0:0:0:0:
378,348,38524,1,0,0:0:0:0:
257,197,38634,1,0,0:0:0:0:
63,180,38965,2,0,P|449:184|65:165,1,1162.50004434586
252,318,39848,2,0,L|252:57,1,232.500008869171
54,46,40068,5,0,0:0:0:0:
472,39,40289,1,0,0:0:0:0:
45,351,40509,1,0,0:0:0:0:
470,353,40730,1,0,0:0:0:0:
255,37,40951,1,0,0:0:0:0:
255,367,41171,1,0,0:0:0:0:
30,191,41392,1,0,0:0:0:0:
472,191,41612,1,0,0:0:0:0:
0,262,41833,6,0,B|8:306|8:307|102:311|131:284|131:284|131:213|131:213|9:213|7:213|6:212|6:212|-15:139|14:92|14:92|116:109|126:133|126:135|126:135|128:84|128:84|305:93|305:93|298:291|298:291|175:298|174:298|174:122|171:111|172:97|168:81|207:91|273:92|329:91|329:91|329:409|329:298|327:103|327:103|331:103|416:80|416:80|418:272|418:272|457:99|457:99|472:86|472:86|518:80|518:80|543:152|543:152|612:49|593:40|588:78|631:287|632:287|385:372|385:372|355:357|355:357,2,2790
256,192,42825,12,0,43818,0:0:0:0:
